<?xml version="1.0" standalone="no"?>
<!DOCTYPE svg PUBLIC "-//W3C//DTD SVG 1.1//EN" "http://www.w3.org/Graphics/SVG/1.1/DTD/svg11.dtd" >
<svg xmlns="http://www.w3.org/2000/svg">
<metadata>
Created by FontPrep 20130207 at Wed Dec 14 14:35:11 2016
 By Denis Valcke
Copyright (C) 2000, 2007 Hoefler &#38; Frere-Jones. http://www.typography.com
</metadata>
<defs>
<font id="0831ed8e39b65ae233096554daef84db" horiz-adv-x='1024' >
  <font-face 
    font-family="Gotham-BoldItalic"
    font-weight="400"
    font-style="italic"
    font-stretch="normal"
    units-per-em="2048"
    panose-1="0 0 0 0 0 0 0 0 0 0"
    ascent="1638"
    descent="-410"
    x-height="1098"
    cap-height="1434"
    bbox="-283 -608 2554 2083"
    underline-thickness="102"
    underline-position="-102"
    slope="-15"
    unicode-range="U+0020-FB04"
  />
<missing-glyph 
d="M512 492l-367 -799h734zM922 1384l-353 -770l353 -770v1540zM102 -156l353 770l-353 770v-1540zM145 1536l367 -799l367 799h-734zM0 -410v2048h1024v-2048h-1024z" />
    <glyph glyph-name="f_f" unicode="ff" horiz-adv-x="1683" 
d="M801 1509q127 0 213 -30l-68 -258q-68 27 -135 26q-121 0 -154 -119l-8 -30h264l-71 -267h-258l-226 -831h-311l225 831h-131l72 267h129l14 59q92 352 445 352zM1642 1509q127 0 213 -30l-67 -258q-66 27 -135 26q-123 0 -154 -119l-8 -30h264l-72 -267h-258l-225 -831
h-311l225 831h-131l72 267h129l14 59q86 352 444 352z" />
    <glyph glyph-name="fi" unicode="fi" horiz-adv-x="1460" 
d="M848 0l295 1098h311l-295 -1098h-311zM801 1509q127 0 213 -30l-68 -258q-68 27 -135 26q-121 0 -154 -119l-8 -30h264l-71 -267h-258l-226 -831h-311l225 831h-131l72 267h129l14 59q92 352 445 352zM1167 1219l76 276h328l-76 -276h-328z" />
    <glyph glyph-name="fl" unicode="fl" horiz-adv-x="1460" 
d="M801 1509q127 0 213 -30l-68 -258q-68 27 -135 26q-121 0 -154 -119l-8 -30h264l-71 -267h-258l-226 -831h-311l225 831h-131l72 267h129l14 59q92 352 445 352zM848 0l401 1495h312l-402 -1495h-311z" />
    <glyph glyph-name="f_f_i" unicode="ffi" horiz-adv-x="2301" 
d="M1690 0l295 1098h311l-295 -1098h-311zM801 1509q127 0 213 -30l-68 -258q-68 27 -135 26q-121 0 -154 -119l-8 -30h264l-71 -267h-258l-226 -831h-311l225 831h-131l72 267h129l14 59q92 352 445 352zM1642 1509q127 0 213 -30l-67 -258q-66 27 -135 26
q-123 0 -154 -119l-8 -30h264l-72 -267h-258l-225 -831h-311l225 831h-131l72 267h129l14 59q86 352 444 352zM2009 1219l76 276h328l-76 -276h-328z" />
    <glyph glyph-name="f_f_l" unicode="ffl" horiz-adv-x="2301" 
d="M1690 0l401 1495h311l-401 -1495h-311zM801 1509q127 0 213 -30l-68 -258q-68 27 -135 26q-121 0 -154 -119l-8 -30h264l-71 -267h-258l-226 -831h-311l225 831h-131l72 267h129l14 59q92 352 445 352zM1642 1509q127 0 213 -30l-67 -258q-66 27 -135 26
q-123 0 -154 -119l-8 -30h264l-72 -267h-258l-225 -831h-311l225 831h-131l72 267h129l14 59q86 352 444 352z" />
    <glyph glyph-name=".notdef" 
d="M512 492l-367 -799h734zM922 1384l-353 -770l353 -770v1540zM102 -156l353 770l-353 770v-1540zM145 1536l367 -799l367 799h-734zM0 -410v2048h1024v-2048h-1024z" />
    <glyph glyph-name=".null" horiz-adv-x="0" 
 />
    <glyph glyph-name="nonmarkingreturn" horiz-adv-x="681" 
 />
    <glyph glyph-name="space" unicode=" " horiz-adv-x="614" 
 />
    <glyph glyph-name="exclam" unicode="!" horiz-adv-x="665" 
d="M18 0l88 328h332l-88 -328h-332zM229 487l146 906l12 41h365l-13 -41l-338 -906h-172z" />
    <glyph glyph-name="quotedbl" unicode="&#x22;" horiz-adv-x="1081" 
d="M203 780l172 654h348l-358 -654h-162zM698 780l172 654h349l-359 -654h-162z" />
    <glyph glyph-name="numbersign" unicode="#" horiz-adv-x="1415" 
d="M551 569h297l104 303h-297zM82 0l106 307h-165l69 262h189l104 303h-190l69 263h213l105 299h270l-104 -299h296l105 299h270l-104 -299h168l-70 -263h-190l-105 -303h193l-70 -262h-215l-106 -307h-271l107 307h-297l-107 -307h-270z" />
    <glyph glyph-name="dollar" unicode="$" horiz-adv-x="1302" 
d="M858 418q0 72 -100 119l-82 -267q182 16 182 148zM565 1027q0 -49 24 -75t85 -53l80 264q-94 -6 -142 -47t-47 -89zM242 983q0 193 162 322q163 129 403 129h16l37 118h213l-43 -145q180 -49 316 -186l-213 -209q-96 90 -189 125l-92 -306q164 -61 247 -147t83 -233
q0 -199 -165 -325t-411 -126h-2l-61 -201h-213l67 221q-262 53 -407 244l229 193q115 -131 266 -170l97 317q-168 64 -254 146t-86 233z" />
    <glyph glyph-name="percent" unicode="%" horiz-adv-x="1802" 
d="M1206 307q0 -145 138 -145q70 0 121 76q53 76 53 154t-34 116q-34 39 -104 39t-122 -76t-52 -164zM684 1116q0 156 -138 156q-70 0 -121 -76q-52 -76 -52 -164q-1 -145 137 -145q70 0 122 76q52 75 52 153zM1718 398q0 -154 -112 -284t-270 -130q-156 0 -243 87t-87 241
t112 283q114 130 270 130t243 -87q87 -86 87 -240zM123 0l1378 1434h266l-1378 -1434h-266zM502 709q-156 0 -243 87q-87 86 -87 240t113 284t269 130t244 -87t87 -241q0 -154 -113 -283q-114 -130 -270 -130z" />
    <glyph glyph-name="ampersand" unicode="&#x26;" horiz-adv-x="1425" 
d="M344 387q0 -67 50 -108t158 -41q106 0 247 88l-221 305q-118 -45 -176 -111t-58 -133zM948 1086q0 54 -34 91q-34 35 -102 35t-113 -47q-100 -102 14 -272q135 49 185 94t50 99zM47 365q0 139 99 259t307 187q-76 131 -76 248q0 163 127 281q126 118 316 118t300 -97
t109 -247q0 -266 -387 -397l162 -217q88 92 174 231l190 -133q-106 -162 -223 -289l141 -190l-231 -148l-115 158q-215 -149 -428 -149t-339 103t-126 282z" />
    <glyph glyph-name="quotesingle" unicode="'" horiz-adv-x="585" 
d="M203 780l172 654h348l-358 -654h-162z" />
    <glyph glyph-name="parenleft" unicode="(" horiz-adv-x="911" 
d="M119 428q0 336 212 607t597 425l114 -231q-292 -135 -450 -346t-158 -445q0 -268 254 -532l-194 -199q-375 301 -375 721z" />
    <glyph glyph-name="parenright" unicode=")" horiz-adv-x="911" 
d="M498 737q0 268 -254 533l194 198q375 -301 375 -720q0 -336 -212 -608t-597 -425l-115 232q293 135 451 346t158 444z" />
    <glyph glyph-name="asterisk" unicode="*" horiz-adv-x="880" 
d="M569 752l-161 43l94 229l-232 -94l-45 164l248 32l-197 154l121 121l152 -199l33 246l161 -43l-94 -229l232 94l45 -164l-248 -33l196 -153l-120 -121l-152 198z" />
    <glyph glyph-name="plus" unicode="+" horiz-adv-x="1310" 
d="M420 211l98 369h-371l76 282h371l98 369h291l-98 -369h370l-75 -282h-371l-98 -369h-291z" />
    <glyph glyph-name="comma" unicode="," horiz-adv-x="653" 
d="M-104 -332l-21 129q233 20 266 203h-127l88 328h332l-74 -277q-54 -199 -166 -289t-298 -94z" />
    <glyph glyph-name="hyphen" unicode="-" horiz-adv-x="843" 
d="M90 485l80 299h631l-80 -299h-631z" />
    <glyph glyph-name="period" unicode="." horiz-adv-x="653" 
d="M14 0l88 328h332l-88 -328h-332z" />
    <glyph glyph-name="slash" unicode="/" horiz-adv-x="1085" 
d="M-276 -262l1394 1896h293l-1395 -1896h-292z" />
    <glyph glyph-name="zero" unicode="0" horiz-adv-x="1495" 
d="M711 260q180 0 300 194t119 410q0 150 -69 230q-70 80 -191 80q-180 0 -300 -194t-119 -411q-1 -149 69 -229t191 -80zM686 -25q-252 0 -406 163t-153 433q0 160 53 316q117 344 391 491q150 80 324 80q251 0 405 -163t154 -433q0 -160 -53 -316q-117 -345 -391 -491
q-150 -80 -324 -80z" />
    <glyph glyph-name="one" unicode="1" horiz-adv-x="888" 
d="M195 0l297 1110l-261 -59l-4 268l451 125h215l-387 -1444h-311z" />
    <glyph glyph-name="two" unicode="2" horiz-adv-x="1257" 
d="M942 1024q0 70 -48 109t-132 38q-158 0 -342 -178l-193 201q229 260 549 260q222 0 356 -111t134 -284q0 -135 -75 -244t-263 -240l-443 -303h602l-73 -272h-1075l69 258l725 500q209 143 209 266z" />
    <glyph glyph-name="three" unicode="3" horiz-adv-x="1236" 
d="M496 -25q-373 0 -531 273l234 172q119 -162 311 -162q114 0 192 60t78 142t-73 125q-74 44 -207 44h-88l-13 196l422 338h-542l73 271h969l-66 -238l-462 -352q305 -74 305 -357q0 -217 -173 -365t-429 -147z" />
    <glyph glyph-name="four" unicode="4" horiz-adv-x="1349" 
d="M432 565h365l123 459zM645 0l82 309h-664l-30 234l989 901h307l-235 -879h192l-69 -256h-193l-82 -309h-297z" />
    <glyph glyph-name="five" unicode="5" horiz-adv-x="1249" 
d="M512 -23q-154 0 -306 74t-224 182l221 187q145 -158 336 -158q125 0 207 66t83 152q0 86 -67 138q-68 52 -176 52t-215 -45l-160 129l223 680h869l-76 -277h-584l-82 -244q76 16 146 17q199 0 323 -112t123 -298q0 -221 -178 -382t-463 -161z" />
    <glyph glyph-name="six" unicode="6" horiz-adv-x="1316" 
d="M648 242q112 0 191 76t79 166t-60 142t-170 52q-112 0 -190 -72t-78 -161t58 -146t170 -57zM643 -25q-244 0 -383 139t-139 396q0 210 73 404t207 329q215 215 521 215q262 0 442 -166l-182 -227q-125 111 -289 111q-165 0 -271 -106t-153 -259q49 49 141 85t189 36
q186 0 311 -106t125 -294q0 -221 -174 -389t-418 -168z" />
    <glyph glyph-name="seven" unicode="7" horiz-adv-x="1247" 
d="M18 0l891 1161h-659l74 273h1032l-66 -238l-901 -1196h-371z" />
    <glyph glyph-name="eight" unicode="8" horiz-adv-x="1355" 
d="M631 233q117 1 193 53t79 133q2 81 -70 130q-73 49 -190 49t-193 -53t-77 -132q-3 -79 69 -129t189 -51zM773 852q101 0 168 51t69 125t-58 121t-164 47q-102 0 -170 -50t-70 -124t62 -122q62 -48 163 -48zM634 -20q-248 0 -408 112q-161 112 -160 293q0 156 99 253
t267 138q-84 43 -129 117t-45 160q0 157 143 279t381 122t380 -108t143 -277q0 -135 -83 -229t-231 -129q99 -39 159 -117t60 -188q0 -172 -163 -300q-165 -126 -413 -126z" />
    <glyph glyph-name="nine" unicode="9" horiz-adv-x="1316" 
d="M489 941q0 -99 61 -149q62 -50 172 -51q110 0 188 74t77 169q0 95 -56 151q-56 57 -171 57t-193 -76t-78 -175zM510 -25q-278 0 -483 183l184 227q151 -127 309 -127t275 117q94 94 139 231q-49 -49 -139 -84t-187 -35q-188 1 -312 107t-124 299q0 237 173 401t421 164
q109 0 211 -34q311 -104 311 -529q0 -197 -75 -383t-212 -324q-213 -213 -491 -213z" />
    <glyph glyph-name="colon" unicode=":" horiz-adv-x="653" 
d="M14 0l88 328h332l-88 -328h-332zM221 770l88 328h332l-88 -328h-332z" />
    <glyph glyph-name="semicolon" unicode=";" horiz-adv-x="653" 
d="M-104 -332l-21 129q233 20 266 203h-127l88 328h332l-74 -277q-54 -199 -166 -289t-298 -94zM221 770l88 328h332l-88 -328h-332z" />
    <glyph glyph-name="less" unicode="&#x3c;" horiz-adv-x="1310" 
d="M1022 145l-875 435l76 282l1108 434l-84 -303l-768 -284l617 -285z" />
    <glyph glyph-name="equal" unicode="=" horiz-adv-x="1310" 
d="M111 313l75 283h971l-76 -283h-970zM254 846l76 282h970l-75 -282h-971z" />
    <glyph glyph-name="greater" unicode="&#x3e;" horiz-adv-x="1310" 
d="M66 145l84 304l768 284l-617 285l74 278l874 -434l-75 -282z" />
    <glyph glyph-name="question" unicode="?" horiz-adv-x="1114" 
d="M176 0l88 328h332l-88 -328h-332zM664 1165q-161 0 -302 -121l-163 207q96 97 228 149t271 52q209 0 333 -110t124 -276t-133 -282q-133 -115 -391 -153l-60 -144h-209l41 332l13 10q410 29 409 209q0 127 -161 127z" />
    <glyph glyph-name="at" unicode="@" horiz-adv-x="2007" 
d="M957 338q93 0 182 97q88 97 88 229q0 76 -49 122t-142 48q-92 0 -178 -94t-86 -226q0 -82 46 -129t139 -47zM965 -317q-375 0 -614 222t-238 572q0 259 131 487t362 364t504 136q373 0 601 -207t228 -505t-142 -458q-142 -161 -343 -161q-102 0 -177 42t-108 116
q-156 -160 -327 -160q-141 0 -236 92q-94 92 -94 254q0 240 158 403q158 162 347 162t277 -143l39 127l228 -63l-162 -510q-35 -109 0 -166t119 -58q123 1 229 145t106 394t-204 432q-205 182 -539 182q-252 0 -463 -126t-331 -334t-119 -445q0 -315 214 -515t554 -200
q215 0 419 93l33 -72q-214 -100 -452 -100z" />
    <glyph glyph-name="A" unicode="A" horiz-adv-x="1566" 
d="M629 600h381l-66 473zM-117 0l1002 1444h303l227 -1444h-323l-45 322h-607l-217 -322h-340z" />
    <glyph glyph-name="B" unicode="B" horiz-adv-x="1468" 
d="M776 276q119 0 188 48q68 48 68 122q-1 145 -196 146h-347l-83 -316h370zM879 854q258 0 258 174q1 59 -49 94t-150 35h-297l-80 -303h318zM967 1434q241 0 363 -100t122 -246t-83 -238t-224 -123q201 -94 201 -291q0 -196 -163 -316t-454 -120h-704l385 1434h557z" />
    <glyph glyph-name="C" unicode="C" horiz-adv-x="1486" 
d="M817 -25q-301 0 -490 171t-190 454q0 346 257 602t630 256t559 -305l-260 -182q-70 98 -151 147t-201 49q-199 0 -353 -165t-153 -390q0 -154 98 -250t252 -96q96 0 171 35t165 107l205 -213q-238 -220 -539 -220z" />
    <glyph glyph-name="D" unicode="D" horiz-adv-x="1591" 
d="M594 285q305 0 479 174q143 143 144 358q0 143 -84 227q-104 104 -330 105h-154l-233 -864h178zM827 1434q377 0 562 -185q156 -156 155 -420q0 -330 -235 -565q-264 -264 -752 -264h-532l385 1434h417z" />
    <glyph glyph-name="E" unicode="E" horiz-adv-x="1361" 
d="M25 0l385 1434h1071l-76 -281h-758l-78 -293h666l-76 -276h-665l-82 -303h770l-76 -281h-1081z" />
    <glyph glyph-name="F" unicode="F" horiz-adv-x="1357" 
d="M25 0l385 1434h1091l-78 -287h-776l-82 -305h684l-75 -287h-685l-149 -555h-315z" />
    <glyph glyph-name="G" unicode="G" horiz-adv-x="1597" 
d="M1030 1458q395 0 586 -248l-234 -206q-152 166 -378 166t-383 -168q-158 -167 -158 -394q0 -162 104 -253q103 -91 249 -91t269 55l68 234h-317l73 272h623l-203 -714q-239 -136 -511 -136t-469 150q-97 74 -155 197t-59 276q0 223 115 420q114 196 322 318t458 122z" />
    <glyph glyph-name="H" unicode="H" horiz-adv-x="1548" 
d="M25 0l385 1434h315l-152 -568h574l151 568h316l-385 -1434h-316l156 575h-573l-156 -575h-315z" />
    <glyph glyph-name="I" unicode="I" horiz-adv-x="688" 
d="M39 0l385 1434h315l-385 -1434h-315z" />
    <glyph glyph-name="J" unicode="J" horiz-adv-x="1177" 
d="M385 -20q-141 0 -265 61t-200 178l223 195q113 -141 258 -142q113 0 193 80q35 35 61 94q27 59 64 199l211 789h323l-231 -865q-45 -174 -89 -267t-120 -169q-154 -153 -428 -153z" />
    <glyph glyph-name="K" unicode="K" horiz-adv-x="1488" 
d="M25 0l385 1434h315l-170 -635l709 635h426l-699 -600l338 -834h-346l-242 645l-297 -254l-104 -391h-315z" />
    <glyph glyph-name="L" unicode="L" horiz-adv-x="1282" 
d="M25 0l385 1434h315l-307 -1147h715l-78 -287h-1030z" />
    <glyph glyph-name="M" unicode="M" horiz-adv-x="1777" 
d="M25 0l385 1434h327l207 -607l535 607h364l-385 -1434h-319l250 936l-562 -612h-8l-229 606l-250 -930h-315z" />
    <glyph glyph-name="N" unicode="N" horiz-adv-x="1609" 
d="M25 0l385 1434h290l418 -912l246 912h311l-385 -1434h-268l-434 940l-252 -940h-311z" />
    <glyph glyph-name="O" unicode="O" horiz-adv-x="1703" 
d="M829 266q215 0 357 169q141 169 141 351t-96 281q-96 100 -268 100q-215 0 -357 -169t-141 -350q0 -182 96 -282t268 -100zM793 -25q-293 1 -475 181t-181 454q0 215 107 409q106 195 307 317t448 122q293 0 475 -180t181 -455q-1 -215 -107 -409t-306 -316
q-200 -123 -449 -123z" />
    <glyph glyph-name="P" unicode="P" horiz-adv-x="1390" 
d="M745 711q160 1 255 69t96 187q0 72 -47 118q-63 63 -197 64h-205l-117 -438h215zM864 1434q305 0 451 -146q111 -111 110 -295q-1 -259 -197 -409t-499 -150h-272l-117 -434h-315l385 1434h454z" />
    <glyph glyph-name="Q" unicode="Q" horiz-adv-x="1703" 
d="M829 266q92 0 181 37l-185 250l260 174l146 -233q96 147 96 310t-96 263t-268 100q-215 0 -357 -169t-141 -350q0 -182 96 -282t268 -100zM793 -25q-293 1 -475 181t-181 454q0 215 107 409q106 195 307 317t448 122q293 0 475 -180t181 -455q0 -340 -244 -590l115 -151
l-260 -172l-95 151q-172 -86 -378 -86z" />
    <glyph glyph-name="R" unicode="R" horiz-adv-x="1488" 
d="M1167 975q0 174 -254 174h-264l-110 -412h280q197 0 289 92q59 59 59 146zM932 1434q311 0 454 -144q111 -110 111 -304t-127 -320t-336 -177l244 -489h-358l-222 459h-235l-123 -459h-315l385 1434h522z" />
    <glyph glyph-name="S" unicode="S" horiz-adv-x="1302" 
d="M604 -20q-420 0 -624 264l237 200q172 -188 401 -188q96 0 158 41t62 101t-50 100t-206 102q-154 62 -247 150t-93 231q0 213 166 343t403 130q338 0 537 -213l-218 -217q-86 80 -164 117t-176 37t-155 -44t-57 -100t49 -92q49 -34 209 -100t249 -153q88 -87 89 -232
q0 -217 -167 -347t-403 -130z" />
    <glyph glyph-name="T" unicode="T" horiz-adv-x="1269" 
d="M326 0l307 1143h-436l77 291h1188l-78 -291h-436l-307 -1143h-315z" />
    <glyph glyph-name="U" unicode="U" horiz-adv-x="1564" 
d="M702 -23q-250 0 -393 128t-143 356q0 106 35 229l198 744h316l-207 -772q-23 -78 -23 -172t66 -158q67 -64 195 -64t223 90q94 94 139 267l217 809h315l-229 -854q-74 -279 -221 -426q-177 -177 -488 -177z" />
    <glyph glyph-name="V" unicode="V" horiz-adv-x="1482" 
d="M442 -10l-186 1444h338l98 -1000l635 1000h354l-960 -1444h-279z" />
    <glyph glyph-name="W" unicode="W" horiz-adv-x="2269" 
d="M369 -10l-103 1444h328l37 -971l577 975h271l65 -975l557 971h357l-877 -1444h-293l-69 919l-562 -919h-288z" />
    <glyph glyph-name="X" unicode="X" horiz-adv-x="1433" 
d="M-104 0l692 743l-307 691h354l180 -461l402 461h403l-674 -725l318 -709h-355l-192 481l-418 -481h-403z" />
    <glyph glyph-name="Y" unicode="Y" horiz-adv-x="1331" 
d="M346 0l152 565l-297 869h350l168 -594l491 594h381l-784 -897l-145 -537h-316z" />
    <glyph glyph-name="Z" unicode="Z" horiz-adv-x="1411" 
d="M-39 0l64 240l1007 917h-737l76 277h1163l-66 -240l-1007 -918h768l-74 -276h-1194z" />
    <glyph glyph-name="bracketleft" unicode="[" horiz-adv-x="952" 
d="M-20 -266l456 1700h662l-66 -244h-362l-326 -1213h363l-66 -243h-661z" />
    <glyph glyph-name="backslash" unicode="\" horiz-adv-x="1085" 
d="M668 -262l-426 1896h258l426 -1896h-258z" />
    <glyph glyph-name="bracketright" unicode="]" horiz-adv-x="952" 
d="M-127 -266l66 243h362l326 1213h-363l66 244h661l-456 -1700h-662z" />
    <glyph glyph-name="asciicircum" unicode="^" 
d="M172 1010l418 424h213l188 -424h-203l-122 239l-250 -239h-244z" />
    <glyph glyph-name="underscore" unicode="_" horiz-adv-x="1228" 
d="M-236 -328l64 238h1237l-64 -238h-1237z" />
    <glyph glyph-name="grave" unicode="`" 
d="M709 1219l-195 245l274 117l134 -362h-213z" />
    <glyph glyph-name="a" unicode="a" horiz-adv-x="1204" 
d="M481 193q80 1 158 65t104 156l9 28q-100 39 -202 39t-164 -47q-62 -48 -62 -112q0 -130 157 -129zM813 717q0 129 -207 129q-147 0 -293 -60l-49 246q186 78 406 78t334 -87q113 -87 112 -251q0 -72 -24 -166l-162 -606h-301l33 127q-138 -147 -328 -147q-141 0 -231 82
q-89 83 -89 212q0 184 133 290t340 106q152 0 310 -49q16 56 16 96z" />
    <glyph glyph-name="b" unicode="b" horiz-adv-x="1380" 
d="M662 242q116 0 215 111q98 112 98 274q-1 105 -63 167t-180 62t-218 -113t-100 -268q0 -104 65 -169q67 -64 183 -64zM698 -20q-232 0 -352 180l-43 -160h-309l397 1495h311l-137 -516q149 139 321 139t292 -127t118 -344q0 -285 -183 -476t-415 -191z" />
    <glyph glyph-name="c" unicode="c" horiz-adv-x="1146" 
d="M598 -25q-224 1 -368 137t-144 359q0 267 192 457t455 190q311 0 451 -241l-238 -168q-47 71 -99 107t-138 36q-123 0 -219 -115t-97 -266q-1 -103 61 -167t168 -64t234 108l160 -203q-94 -84 -190 -127t-228 -43z" />
    <glyph glyph-name="d" unicode="d" horiz-adv-x="1380" 
d="M646 242q118 0 218 112t101 269q0 104 -66 169q-67 64 -183 64t-214 -112t-99 -273q0 -105 63 -167q62 -62 180 -62zM492 -20q-172 0 -291 126t-119 345q0 285 183 476t415 191t352 -180l148 557h311l-399 -1495h-312l33 119q-149 -139 -321 -139z" />
    <glyph glyph-name="e" unicode="e" horiz-adv-x="1243" 
d="M891 707q0 73 -45 117t-142 44q-98 0 -180 -63t-121 -170h478q10 35 10 72zM84 463q0 162 79 310t231 247q154 98 352 98t318 -120t120 -308q-1 -117 -56 -250h-753q8 -100 70 -157q61 -57 181 -57t244 87l144 -192q-174 -145 -417 -145t-378 129q-135 130 -135 358z" />
    <glyph glyph-name="f" unicode="f" horiz-adv-x="841" 
d="M801 1509q127 0 213 -30l-68 -258q-68 27 -135 26q-121 0 -154 -119l-8 -30h264l-71 -267h-258l-226 -831h-311l225 831h-131l72 267h129l14 59q92 352 445 352z" />
    <glyph glyph-name="g" unicode="g" horiz-adv-x="1374" 
d="M618 338q129 0 227 95q97 95 97 224q0 93 -59 147t-173 54t-207 -98t-93 -228q0 -94 57 -144t151 -50zM512 -332q-352 0 -580 154l164 213q182 -121 396 -121q150 0 237 88q61 61 100 197l11 37q-88 -78 -166 -112t-178 -34q-168 0 -288 102t-120 281q0 269 183 457
t413 188t338 -190l45 170h311l-235 -883q-43 -164 -84 -246q-151 -301 -547 -301z" />
    <glyph glyph-name="h" unicode="h" horiz-adv-x="1273" 
d="M866 1118q148 0 236 -86t88 -233q0 -70 -37 -209l-158 -590h-311l162 602q14 53 14 98q0 135 -151 136q-91 0 -151 -58t-87 -162l-166 -616h-311l397 1495h311l-135 -512q152 135 299 135z" />
    <glyph glyph-name="i" unicode="i" horiz-adv-x="618" 
d="M6 0l295 1098h311l-295 -1098h-311zM326 1219l75 276h328l-76 -276h-327z" />
    <glyph glyph-name="j" unicode="j" horiz-adv-x="616" 
d="M-94 -334q-94 0 -170 17l65 243q41 -10 84 -10t82 40t58 110l276 1032h311l-286 -1071q-98 -361 -420 -361zM326 1219l73 276h328l-74 -276h-327z" />
    <glyph glyph-name="k" unicode="k" horiz-adv-x="1210" 
d="M-6 0l401 1495h312l-209 -774l444 377h406l-531 -428l240 -670h-348l-156 465l-158 -127l-90 -338h-311z" />
    <glyph glyph-name="l" unicode="l" horiz-adv-x="618" 
d="M6 0l402 1495h311l-402 -1495h-311z" />
    <glyph glyph-name="m" unicode="m" horiz-adv-x="1943" 
d="M858 1118q219 0 291 -198q164 199 393 198q146 0 232 -85t86 -234q0 -70 -37 -209l-158 -590h-311l162 602q14 53 14 98q0 135 -146 136q-176 0 -233 -220l-166 -616h-311l162 602q14 53 14 98q0 135 -145 136q-176 0 -234 -220l-166 -616h-311l293 1098h311l-31 -115
q152 135 291 135z" />
    <glyph glyph-name="n" unicode="n" horiz-adv-x="1267" 
d="M866 1118q148 0 236 -86t88 -233q0 -70 -37 -209l-158 -590h-311l162 602q14 53 14 98q0 135 -151 136q-91 0 -151 -58t-87 -162l-166 -616h-311l293 1098h311l-31 -115q152 135 299 135z" />
    <glyph glyph-name="o" unicode="o" horiz-adv-x="1335" 
d="M642 242q122 0 212 116t90 240q0 122 -64 188t-186 66t-212 -117t-91 -239q1 -122 65 -188t186 -66zM1249 597q1 -237 -187 -429t-438 -193q-250 1 -394 143t-144 378t187 430q187 192 437 192t395 -142q144 -142 144 -379z" />
    <glyph glyph-name="p" unicode="p" horiz-adv-x="1380" 
d="M662 242q116 0 215 111q98 112 98 274q-1 105 -63 167t-180 62t-218 -113t-100 -268q0 -104 65 -169q67 -64 183 -64zM886 1118q172 0 292 -127t118 -344q0 -285 -183 -476t-415 -191t-352 180l-129 -488h-311l381 1426h311l-33 -119q149 139 321 139z" />
    <glyph glyph-name="q" unicode="q" horiz-adv-x="1380" 
d="M646 242q118 0 218 112t101 269q0 104 -66 169q-67 64 -183 64t-214 -112t-99 -273q0 -105 63 -167q62 -62 180 -62zM492 -20q-172 0 -291 126t-119 345q0 285 183 476t415 191t352 -180l41 160h311l-378 -1426h-312l119 447q-149 -139 -321 -139z" />
    <glyph glyph-name="r" unicode="r" horiz-adv-x="858" 
d="M852 793q-336 0 -442 -404l-105 -389h-311l293 1098h311l-59 -221q178 260 417 241l-88 -325h-16z" />
    <glyph glyph-name="s" unicode="s" 
d="M444 -25q-133 -1 -267 51t-226 148l180 186q147 -147 336 -147q131 0 131 96q0 47 -127 103q-246 104 -296 209q-24 49 -23 112q0 168 119 277q120 109 321 108q125 0 242 -46t190 -111l-168 -197q-147 117 -287 117q-57 0 -89 -25t-32 -62q0 -38 36 -62q34 -24 106 -56
q232 -105 280 -203q25 -49 25 -111q0 -178 -126 -282t-325 -105z" />
    <glyph glyph-name="t" unicode="t" horiz-adv-x="849" 
d="M390 -18q-132 0 -205 60t-72 155q0 55 20 137l133 497h-131l72 267h131l76 280h311l-76 -280h258l-71 -267h-258l-123 -460q-8 -33 -9 -49q0 -66 82 -66t162 35l-72 -264q-96 -45 -228 -45z" />
    <glyph glyph-name="u" unicode="u" horiz-adv-x="1273" 
d="M408 -20q-147 0 -236 86q-88 86 -88 233q0 70 37 209l158 590h311l-162 -602q-14 -53 -14 -99q0 -135 151 -135q91 0 151 58t87 161l166 617h311l-293 -1098h-311l31 115q-152 -135 -299 -135z" />
    <glyph glyph-name="v" unicode="v" horiz-adv-x="1212" 
d="M307 -8l-133 1106h320l49 -731l436 731h334l-723 -1106h-283z" />
    <glyph glyph-name="w" unicode="w" horiz-adv-x="1755" 
d="M223 -8l-41 1106h316l-2 -666l385 670h268l29 -672l360 668h309l-639 -1106h-280l-31 674l-395 -674h-279z" />
    <glyph glyph-name="x" unicode="x" horiz-adv-x="1183" 
d="M-102 0l536 573l-239 525h331l123 -307l258 307h371l-514 -555l242 -543h-332l-127 326l-279 -326h-370z" />
    <glyph glyph-name="y" unicode="y" horiz-adv-x="1212" 
d="M170 -334q-143 0 -252 76l166 225q57 -43 123 -43t119 68l-136 1106h318l51 -746l412 746h336l-680 -1125q-109 -167 -211 -237t-246 -70z" />
    <glyph glyph-name="z" unicode="z" horiz-adv-x="1140" 
d="M-55 0l59 219l719 627h-533l68 252h930l-60 -219l-720 -627h559l-68 -252h-954z" />
    <glyph glyph-name="braceleft" unicode="{" horiz-adv-x="1003" 
d="M250 25q0 68 37 165t37 158t-31 91t-137 30h-66l64 238h65q147 0 207 60q59 60 86 272q27 211 162 317t413 108l21 -209q-186 -18 -250 -84t-83 -248t-95 -263t-236 -97q84 -12 129 -61q45 -48 45 -116t-36 -164t-35 -150q0 -55 37 -92t149 -78l-102 -191
q-203 39 -292 115t-89 199z" />
    <glyph glyph-name="bar" unicode="|" horiz-adv-x="716" 
d="M270 -262v1896h246v-1896h-246z" />
    <glyph glyph-name="braceright" unicode="}" horiz-adv-x="1003" 
d="M406 790q0 68 36 161t35 151q0 58 -37 94q-37 37 -149 78l102 190q203 -38 292 -114t89 -199q0 -68 -37 -165q-37 -96 -37 -158t31 -92t137 -29h66l-64 -238h-65q-147 0 -207 -60t-86 -272q-28 -212 -162 -318t-413 -108l-21 209q184 18 248 83q63 65 84 248t96 264
q76 81 236 97q-84 12 -129 62q-45 48 -45 116z" />
    <glyph glyph-name="asciitilde" unicode="~" horiz-adv-x="1044" 
d="M420 805q88 -1 165 -57t111 -56q76 0 144 121l164 -82q-56 -125 -138 -199q-157 -141 -338 -14q-74 53 -108 53q-76 1 -144 -120l-163 81q55 125 137 199t170 74z" />
    <glyph glyph-name="uni00A0" unicode="&#xa0;" horiz-adv-x="614" 
 />
    <glyph glyph-name="exclamdown" unicode="&#xa1;" horiz-adv-x="665" 
d="M2 0l12 41l338 905h172l-145 -905l-12 -41h-365zM315 1106l88 328h332l-88 -328h-332z" />
    <glyph glyph-name="cent" unicode="&#xa2;" horiz-adv-x="1200" 
d="M440 676q0 -127 86 -199l217 553q-131 -14 -217 -120t-86 -234zM135 668q-1 268 187 449t462 181q35 0 54 -2l57 150h213l-76 -193q152 -66 232 -202l-236 -164q-45 72 -106 106l-224 -571q133 2 256 100l164 -211q-174 -156 -418 -155q-49 0 -94 6l-67 -174h-213l88 225
q-133 61 -206 179t-73 276z" />
    <glyph glyph-name="sterling" unicode="&#xa3;" horiz-adv-x="1318" 
d="M944 1454q303 0 438 -246l-252 -172q-78 127 -208 127q-164 0 -224 -217l-39 -139h474l-70 -260h-471l-74 -275h627l-74 -272h-1098l56 207l170 51l77 289h-155l69 260h156l51 192q121 455 547 455z" />
    <glyph glyph-name="yen" unicode="&#xa5;" horiz-adv-x="1456" 
d="M428 0l51 188h-377l60 222h377l32 127h-376l59 221h293l-256 676h340l172 -531l461 531h374l-624 -676h297l-60 -221h-377l-32 -127h377l-60 -222h-377l-51 -188h-303z" />
    <glyph glyph-name="section" unicode="&#xa7;" horiz-adv-x="1294" 
d="M812 590q58 0 98 28t40 70q0 41 -41 66q-41 24 -159 60t-176 36t-98 -29t-40 -69t41 -66q41 -24 159 -60t176 -36zM600 -18q-346 0 -502 190l195 172q129 -129 303 -129q66 0 104 22q38 21 39 55q0 34 -43 56t-185 61q-142 38 -254 100q-112 63 -112 176q0 223 279 282
q-74 70 -74 170q0 139 130 230t306 91q347 0 502 -190l-194 -172q-129 129 -303 129q-66 0 -105 -22q-39 -21 -39 -55t43 -56t189 -62q146 -39 225 -84t108 -92t29 -111q0 -102 -71 -172t-207 -98q74 -70 73 -170q0 -139 -130 -230t-306 -91z" />
    <glyph glyph-name="dieresis" unicode="&#xa8;" 
d="M322 1219l75 276h299l-75 -276h-299zM760 1219l76 276h299l-76 -276h-299z" />
    <glyph glyph-name="copyright" unicode="&#xa9;" horiz-adv-x="1699" 
d="M912 319q-182 0 -299 117q-116 117 -115 287v4q0 170 115 289q116 119 298 119t308 -121l-113 -131q-98 88 -196 88t-164 -71q-65 -71 -64 -171v-4q0 -100 63 -171t163 -71t202 92l115 -114q-131 -142 -313 -142zM891 57q279 0 468 193t189 467v4q0 275 -187 465
t-466 190t-468 -192t-189 -467v-4q0 -274 187 -465t466 -191zM891 -25q-309 0 -524 216t-215 522v4q0 305 217 523t526 218t524 -216t215 -521v-4q0 -305 -217 -523t-526 -219z" />
    <glyph glyph-name="ordfeminine" unicode="&#xaa;" horiz-adv-x="798" 
d="M379 1008q0 -72 87 -72q44 0 88 36t60 103q-133 47 -201 -5q-34 -26 -34 -62zM104 567l37 135h545l-37 -135h-545zM651 1221q0 76 -116 75q-84 0 -160 -32l-29 135q102 43 225 43q244 0 244 -187q0 -47 -12 -90l-90 -334h-166l18 70q-78 -82 -168 -82t-139 45t-49 132
q0 88 74 146t173 58t185 -29q10 38 10 50z" />
    <glyph glyph-name="guillemotleft" unicode="&#xab;" horiz-adv-x="1316" 
d="M315 63l-221 459l4 17l486 477l178 -164l-361 -350l164 -328zM868 63l-221 459l4 17l486 477l178 -164l-361 -350l164 -328z" />
    <glyph glyph-name="registered" unicode="&#xae;" horiz-adv-x="753" 
d="M481 1110h68q57 0 57 45t-57 45h-68v-90zM375 913v377h180q158 0 158 -127q0 -88 -78 -119l90 -131h-123l-76 113h-45v-113h-106zM530 776q133 0 225 94q91 94 91 226v2q0 131 -91 224t-225 93t-224 -94q-91 -94 -91 -225v-2q0 -130 91 -224t224 -94zM528 737
q-148 1 -250 105t-104 252v2q0 146 104 252t254 106q148 0 251 -104t104 -252v-2q0 -147 -105 -253q-106 -106 -254 -106z" />
    <glyph glyph-name="macron" unicode="&#xaf;" 
d="M326 1229l57 215h737l-57 -215h-737z" />
    <glyph glyph-name="degree" unicode="&#xb0;" horiz-adv-x="911" 
d="M524 903q78 0 136 71q58 72 58 150t-41 123q-42 45 -120 45t-136 -70q-59 -70 -59 -150q0 -79 42 -124t120 -45zM901 1128q-1 -148 -115 -266q-114 -119 -270 -119t-246 88t-90 236q0 149 115 267t271 118t245 -88q90 -88 90 -236z" />
    <glyph glyph-name="plusminus" unicode="&#xb1;" horiz-adv-x="1310" 
d="M1014 0h-1010l68 258h1011zM1223 776l-369 2l-92 -352h-279l97 352l-369 -2l72 271l368 -3l92 353h279l-96 -353l368 3z" />
    <glyph glyph-name="acute" unicode="&#xb4;" 
d="M426 1219l330 362l262 -117l-330 -245h-262z" />
    <glyph glyph-name="paragraph" unicode="&#xb6;" horiz-adv-x="1226" 
d="M178 868q0 250 184 408t539 158h391l-385 -1434h-313l115 434q-254 4 -393 113q-138 109 -138 321z" />
    <glyph glyph-name="periodcentered" unicode="&#xb7;" horiz-adv-x="653" 
d="M131 471l88 328h332l-88 -328h-332z" />
    <glyph glyph-name="cedilla" unicode="&#xb8;" 
d="M322 -354l-232 108l254 266h229z" />
    <glyph glyph-name="ordmasculine" unicode="&#xba;" horiz-adv-x="823" 
d="M381 1108q0 -68 36 -106q37 -39 103 -39t115 61q49 60 49 128t-36 108t-102 38q-66 0 -116 -61q-49 -61 -49 -129zM104 567l37 135h570l-37 -135h-570zM852 1157q0 -131 -102 -235t-239 -105q-138 0 -218 78t-80 209t101 235q102 105 240 105t218 -78t80 -209z" />
    <glyph glyph-name="guillemotright" unicode="&#xbb;" horiz-adv-x="1316" 
d="M176 63l-178 164l360 351l-163 327l249 111l222 -459l-4 -16zM729 63l-178 164l360 351l-163 327l249 111l222 -459l-5 -16z" />
    <glyph glyph-name="questiondown" unicode="&#xbf;" horiz-adv-x="1114" 
d="M506 -18q-209 0 -333 110t-124 276t133 281t391 154l60 143h209l-41 -332l-13 -10q-410 -29 -409 -209q0 -127 161 -127t302 121l164 -207q-96 -98 -228 -149t-272 -51zM608 1106l88 328h332l-88 -328h-332z" />
    <glyph glyph-name="Agrave" unicode="&#xc0;" horiz-adv-x="1566" 
d="M999 1888l160 -321h-213l-223 205zM629 600h381l-66 473zM-117 0l1002 1444h303l227 -1444h-323l-45 322h-607l-217 -322h-340z" />
    <glyph glyph-name="Aacute" unicode="&#xc1;" horiz-adv-x="1566" 
d="M936 1567l336 321l260 -116l-334 -205h-262zM629 600h381l-66 473zM-117 0l1002 1444h303l227 -1444h-323l-45 322h-607l-217 -322h-340z" />
    <glyph glyph-name="Acircumflex" unicode="&#xc2;" horiz-adv-x="1566" 
d="M641 1556l342 302h295l182 -302h-229l-131 115l-193 -115h-266zM629 600h381l-66 473zM-117 0l1002 1444h303l227 -1444h-323l-45 322h-607l-217 -322h-340z" />
    <glyph glyph-name="Atilde" unicode="&#xc3;" horiz-adv-x="1566" 
d="M931 1880q85 0 187 -40t140 -40t68 24t63 77l165 -58q-61 -141 -128 -209q-68 -68 -152 -68t-186 41q-102 40 -141 40q-37 0 -67 -24t-63 -77l-166 58q61 140 128 208t152 68zM629 600h381l-66 473zM-117 0l1002 1444h303l227 -1444h-323l-45 322h-607l-217 -322h-340z
" />
    <glyph glyph-name="Adieresis" unicode="&#xc4;" horiz-adv-x="1566" 
d="M698 1567l72 260h299l-72 -260h-299zM1145 1567l72 260h299l-72 -260h-299zM629 600h381l-66 473zM-117 0l1002 1444h303l227 -1444h-323l-45 322h-607l-217 -322h-340z" />
    <glyph glyph-name="Aring" unicode="&#xc5;" horiz-adv-x="1566" 
d="M928 1506q0 -48 32 -76t90 -29q58 0 99 41t41 89t-32 77q-32 28 -90 28t-100 -41q-40 -41 -40 -89zM629 600h381l-66 473zM803 1491q0 106 75 180t189 74t181 -58t67 -141q0 -137 -111 -209l211 -1337h-323l-45 322h-607l-217 -322h-340l957 1380q-37 53 -37 111z" />
    <glyph glyph-name="AE" unicode="&#xc6;" horiz-adv-x="2166" 
d="M696 600h336l150 561h-39zM-125 0l1157 1434h1254l-76 -281h-717l-78 -293h625l-76 -276h-625l-82 -303h730l-76 -281h-1041l86 322h-483l-256 -322h-342z" />
    <glyph glyph-name="Ccedilla" unicode="&#xc7;" horiz-adv-x="1486" 
d="M137 600q0 346 257 602t630 256t559 -305l-260 -182q-70 98 -151 147t-201 49q-199 0 -353 -165t-153 -390q0 -154 98 -250t252 -96q96 0 171 35t165 107l205 -213q-238 -219 -543 -220h-18l-222 -329l-231 108l240 252q-205 59 -325 215t-120 379z" />
    <glyph glyph-name="Egrave" unicode="&#xc8;" horiz-adv-x="1361" 
d="M901 1868l160 -322h-213l-223 205zM25 0l385 1434h1071l-76 -281h-758l-78 -293h666l-76 -276h-665l-82 -303h770l-76 -281h-1081z" />
    <glyph glyph-name="Eacute" unicode="&#xc9;" horiz-adv-x="1361" 
d="M838 1546l336 322l260 -117l-334 -205h-262zM25 0l385 1434h1071l-76 -281h-758l-78 -293h666l-76 -276h-665l-82 -303h770l-76 -281h-1081z" />
    <glyph glyph-name="Ecircumflex" unicode="&#xca;" horiz-adv-x="1361" 
d="M547 1546l342 301h295l182 -301h-229l-131 115l-193 -115h-266zM25 0l385 1434h1071l-76 -281h-758l-78 -293h666l-76 -276h-665l-82 -303h770l-76 -281h-1081z" />
    <glyph glyph-name="Edieresis" unicode="&#xcb;" horiz-adv-x="1361" 
d="M600 1546l72 260h299l-72 -260h-299zM1047 1546l71 260h299l-71 -260h-299zM25 0l385 1434h1071l-76 -281h-758l-78 -293h666l-76 -276h-665l-82 -303h770l-76 -281h-1081z" />
    <glyph glyph-name="Igrave" unicode="&#xcc;" horiz-adv-x="688" 
d="M539 1868l159 -322h-213l-223 205zM39 0l385 1434h315l-385 -1434h-315z" />
    <glyph glyph-name="Iacute" unicode="&#xcd;" horiz-adv-x="688" 
d="M475 1546l336 322l260 -117l-334 -205h-262zM39 0l385 1434h315l-385 -1434h-315z" />
    <glyph glyph-name="Icircumflex" unicode="&#xce;" horiz-adv-x="688" 
d="M184 1546l342 301h295l183 -301h-230l-131 115l-192 -115h-267zM39 0l385 1434h315l-385 -1434h-315z" />
    <glyph glyph-name="Idieresis" unicode="&#xcf;" horiz-adv-x="688" 
d="M238 1546l71 260h299l-71 -260h-299zM684 1546l72 260h299l-72 -260h-299zM39 0l385 1434h315l-385 -1434h-315z" />
    <glyph glyph-name="Eth" unicode="&#xd0;" horiz-adv-x="1632" 
d="M635 285q305 0 479 174q143 143 143 358q0 143 -83 227q-104 104 -330 105h-154l-78 -289h291l-76 -278h-290l-80 -297h178zM868 1434q377 0 562 -185q156 -156 155 -420q0 -330 -235 -565q-264 -264 -752 -264h-532l155 582h-170l76 278h170l154 574h417z" />
    <glyph glyph-name="Ntilde" unicode="&#xd1;" horiz-adv-x="1609" 
d="M933 1860q85 0 187 -40t140 -40t68 24t63 76l165 -57q-61 -141 -128 -209q-68 -68 -152 -68t-186 40t-140 40t-68 -24t-63 -76l-166 57q61 141 128 209t152 68zM25 0l385 1434h290l418 -912l246 912h311l-385 -1434h-268l-434 940l-252 -940h-311z" />
    <glyph glyph-name="Ograve" unicode="&#xd2;" horiz-adv-x="1703" 
d="M1036 1888l160 -321h-213l-223 205zM829 266q215 0 357 169q141 169 141 351t-96 281q-96 100 -268 100q-215 0 -357 -169t-141 -350q0 -182 96 -282t268 -100zM793 -25q-293 1 -475 181t-181 454q0 215 107 409q106 195 307 317t448 122q293 0 475 -180t181 -455
q-1 -215 -107 -409t-306 -316q-200 -123 -449 -123z" />
    <glyph glyph-name="Oacute" unicode="&#xd3;" horiz-adv-x="1703" 
d="M956 1567l336 321l260 -116l-333 -205h-263zM829 266q215 0 357 169q141 169 141 351t-96 281q-96 100 -268 100q-215 0 -357 -169t-141 -350q0 -182 96 -282t268 -100zM793 -25q-293 1 -475 181t-181 454q0 215 107 409q106 195 307 317t448 122q293 0 475 -180
t181 -455q-1 -215 -107 -409t-306 -316q-200 -123 -449 -123z" />
    <glyph glyph-name="Ocircumflex" unicode="&#xd4;" horiz-adv-x="1703" 
d="M682 1567l342 301h295l182 -301h-229l-131 114l-193 -114h-266zM829 266q215 0 357 169q141 169 141 351t-96 281q-96 100 -268 100q-215 0 -357 -169t-141 -350q0 -182 96 -282t268 -100zM793 -25q-293 1 -475 181t-181 454q0 215 107 409q106 195 307 317t448 122
q293 0 475 -180t181 -455q-1 -215 -107 -409t-306 -316q-200 -123 -449 -123z" />
    <glyph glyph-name="Otilde" unicode="&#xd5;" horiz-adv-x="1703" 
d="M970 1880q85 0 187 -40t140 -40q69 0 130 101l166 -58q-61 -141 -128 -209t-152 -68t-187 41q-102 40 -140 40t-68 -24t-62 -77l-166 58q61 140 128 208t152 68zM829 266q215 0 357 169q141 169 141 351t-96 281q-96 100 -268 100q-215 0 -357 -169t-141 -350
q0 -182 96 -282t268 -100zM793 -25q-293 1 -475 181t-181 454q0 215 107 409q106 195 307 317t448 122q293 0 475 -180t181 -455q-1 -215 -107 -409t-306 -316q-200 -123 -449 -123z" />
    <glyph glyph-name="Odieresis" unicode="&#xd6;" horiz-adv-x="1703" 
d="M735 1567l72 260h299l-72 -260h-299zM1182 1567l71 260h299l-71 -260h-299zM829 266q215 0 357 169q141 169 141 351t-96 281q-96 100 -268 100q-215 0 -357 -169t-141 -350q0 -182 96 -282t268 -100zM793 -25q-293 1 -475 181t-181 454q0 215 107 409q106 195 307 317
t448 122q293 0 475 -180t181 -455q-1 -215 -107 -409t-306 -316q-200 -123 -449 -123z" />
    <glyph glyph-name="multiply" unicode="&#xd7;" horiz-adv-x="1310" 
d="M897 211l-223 317l-404 -321l-159 215l405 313l-233 312l237 186l223 -320l404 322l160 -215l-406 -311l234 -310z" />
    <glyph glyph-name="Oslash" unicode="&#xd8;" horiz-adv-x="1703" 
d="M827 252q219 0 366 174q146 174 146 379q0 76 -22 147l-705 -645q90 -55 215 -55zM453 629q0 -90 28 -166l713 653q-94 66 -229 66q-219 0 -365 -174t-147 -379zM1004 1458q252 0 428 -143l139 129h301l-307 -283q90 -153 90 -353q-1 -200 -107 -394t-307 -316
q-201 -123 -449 -123t-417 131l-127 -116h-301l289 266q-98 156 -98 362t106 401t307 317t453 122z" />
    <glyph glyph-name="Ugrave" unicode="&#xd9;" horiz-adv-x="1564" 
d="M965 1868l159 -322h-213l-223 205zM702 -23q-250 0 -393 128t-143 356q0 106 35 229l198 744h316l-207 -772q-23 -78 -23 -172t66 -158q67 -64 195 -64t223 90q94 94 139 267l217 809h315l-229 -854q-74 -279 -221 -426q-177 -177 -488 -177z" />
    <glyph glyph-name="Uacute" unicode="&#xda;" horiz-adv-x="1564" 
d="M901 1546l336 322l260 -117l-334 -205h-262zM702 -23q-250 0 -393 128t-143 356q0 106 35 229l198 744h316l-207 -772q-23 -78 -23 -172t66 -158q67 -64 195 -64t223 90q94 94 139 267l217 809h315l-229 -854q-74 -279 -221 -426q-177 -177 -488 -177z" />
    <glyph glyph-name="Ucircumflex" unicode="&#xdb;" horiz-adv-x="1564" 
d="M610 1546l342 301h295l183 -301h-230l-131 115l-192 -115h-267zM702 -23q-250 0 -393 128t-143 356q0 106 35 229l198 744h316l-207 -772q-23 -78 -23 -172t66 -158q67 -64 195 -64t223 90q94 94 139 267l217 809h315l-229 -854q-74 -279 -221 -426q-177 -177 -488 -177z
" />
    <glyph glyph-name="Udieresis" unicode="&#xdc;" horiz-adv-x="1564" 
d="M664 1546l71 260h299l-71 -260h-299zM1110 1546l72 260h299l-72 -260h-299zM702 -23q-250 0 -393 128t-143 356q0 106 35 229l198 744h316l-207 -772q-23 -78 -23 -172t66 -158q67 -64 195 -64t223 90q94 94 139 267l217 809h315l-229 -854q-74 -279 -221 -426
q-177 -177 -488 -177z" />
    <glyph glyph-name="Yacute" unicode="&#xdd;" horiz-adv-x="1331" 
d="M768 1546l336 322l260 -117l-334 -205h-262zM346 0l152 565l-297 869h350l168 -594l491 594h381l-784 -897l-145 -537h-316z" />
    <glyph glyph-name="Thorn" unicode="&#xde;" horiz-adv-x="1411" 
d="M690 502q160 0 255 68t95 188q0 72 -55 127t-188 55h-205l-117 -438h215zM809 1225q305 0 451 -146q111 -111 110 -295q0 -260 -196 -410t-500 -149h-273l-61 -225h-315l385 1434h315l-55 -209h139z" />
    <glyph glyph-name="germandbls" unicode="&#xdf;" horiz-adv-x="1294" 
d="M868 455q0 147 -235 172l55 204q283 63 283 261q0 74 -46 114t-116 41q-172 0 -236 -233l-270 -1014h-309l276 1030q129 479 549 479q207 -1 326 -109t119 -266q0 -302 -316 -403q213 -92 213 -294q0 -203 -174 -327t-522 -114l65 242q178 -6 258 55t80 162z" />
    <glyph glyph-name="agrave" unicode="&#xe0;" horiz-adv-x="1204" 
d="M645 1219l-194 245l274 117l133 -362h-213zM481 193q80 1 158 65t104 156l9 28q-100 39 -202 39t-164 -47q-62 -48 -62 -112q0 -130 157 -129zM813 717q0 129 -207 129q-147 0 -293 -60l-49 246q186 78 406 78t334 -87q113 -87 112 -251q0 -72 -24 -166l-162 -606h-301
l33 127q-138 -147 -328 -147q-141 0 -231 82q-89 83 -89 212q0 184 133 290t340 106q152 0 310 -49q16 56 16 96z" />
    <glyph glyph-name="aacute" unicode="&#xe1;" horiz-adv-x="1204" 
d="M639 1219l330 362l262 -117l-330 -245h-262zM481 193q80 1 158 65t104 156l9 28q-100 39 -202 39t-164 -47q-62 -48 -62 -112q0 -130 157 -129zM813 717q0 129 -207 129q-147 0 -293 -60l-49 246q186 78 406 78t334 -87q113 -87 112 -251q0 -72 -24 -166l-162 -606h-301
l33 127q-138 -147 -328 -147q-141 0 -231 82q-89 83 -89 212q0 184 133 290t340 106q152 0 310 -49q16 56 16 96z" />
    <glyph glyph-name="acircumflex" unicode="&#xe2;" horiz-adv-x="1204" 
d="M354 1219l338 321h295l166 -321h-225l-125 135l-199 -135h-250zM481 193q80 1 158 65t104 156l9 28q-100 39 -202 39t-164 -47q-62 -48 -62 -112q0 -130 157 -129zM813 717q0 129 -207 129q-147 0 -293 -60l-49 246q186 78 406 78t334 -87q113 -87 112 -251
q0 -72 -24 -166l-162 -606h-301l33 127q-138 -147 -328 -147q-141 0 -231 82q-89 83 -89 212q0 184 133 290t340 106q152 0 310 -49q16 56 16 96z" />
    <glyph glyph-name="atilde" unicode="&#xe3;" horiz-adv-x="1204" 
d="M634 1532q85 0 181 -40t134 -40t66 24t62 76l166 -55q-63 -143 -128 -211t-150 -68t-181 40t-134 40t-66 -24t-62 -76l-166 55q63 143 128 211t150 68zM481 193q80 1 158 65t104 156l9 28q-100 39 -202 39t-164 -47q-62 -48 -62 -112q0 -130 157 -129zM813 717
q0 129 -207 129q-147 0 -293 -60l-49 246q186 78 406 78t334 -87q113 -87 112 -251q0 -72 -24 -166l-162 -606h-301l33 127q-138 -147 -328 -147q-141 0 -231 82q-89 83 -89 212q0 184 133 290t340 106q152 0 310 -49q16 56 16 96z" />
    <glyph glyph-name="adieresis" unicode="&#xe4;" horiz-adv-x="1204" 
d="M397 1219l76 276h299l-76 -276h-299zM836 1219l75 276h299l-75 -276h-299zM481 193q80 1 158 65t104 156l9 28q-100 39 -202 39t-164 -47q-62 -48 -62 -112q0 -130 157 -129zM813 717q0 129 -207 129q-147 0 -293 -60l-49 246q186 78 406 78t334 -87q113 -87 112 -251
q0 -72 -24 -166l-162 -606h-301l33 127q-138 -147 -328 -147q-141 0 -231 82q-89 83 -89 212q0 184 133 290t340 106q152 0 310 -49q16 56 16 96z" />
    <glyph glyph-name="aring" unicode="&#xe5;" horiz-adv-x="1204" 
d="M821 1319q55 0 95 48q40 49 40 105t-30 87q-31 31 -86 31q-56 0 -96 -49q-40 -48 -40 -104t32 -87q30 -31 85 -31zM844 1694q106 0 168 -60t63 -158q1 -100 -75 -181t-182 -81t-170 60q-62 60 -62 158q0 100 76 181t182 81zM481 193q80 1 158 65t104 156l9 28
q-100 39 -202 39t-164 -47q-62 -48 -62 -112q0 -130 157 -129zM813 717q0 129 -207 129q-147 0 -293 -60l-49 246q186 78 406 78t334 -87q113 -87 112 -251q0 -72 -24 -166l-162 -606h-301l33 127q-138 -147 -328 -147q-141 0 -231 82q-89 83 -89 212q0 184 133 290t340 106
q152 0 310 -49q16 56 16 96z" />
    <glyph glyph-name="ae" unicode="&#xe6;" horiz-adv-x="1925" 
d="M558 481q-108 0 -172 -47q-62 -46 -62 -112q0 -131 163 -129q76 1 163 37t153 102q-8 43 -12 94q-125 55 -233 55zM1573 707q0 73 -45 117t-142 44t-180 -63q-82 -64 -121 -170h478q10 35 10 72zM813 717q0 129 -207 129q-147 0 -293 -60l-49 246q186 78 408 78
q268 0 360 -162q170 170 383 170t332 -121t119 -307q0 -117 -56 -250h-751q16 -215 250 -215q119 0 243 88l144 -192q-160 -145 -422 -146q-295 0 -418 211q-201 -207 -491 -206q-166 0 -259 79q-92 80 -92 215q0 184 133 290t340 106q152 0 310 -49q16 56 16 96z" />
    <glyph glyph-name="ccedilla" unicode="&#xe7;" horiz-adv-x="1146" 
d="M86 471q0 267 192 457t455 190q311 0 451 -241l-238 -168q-47 71 -99 107t-138 36q-123 0 -219 -115t-97 -266q-1 -103 61 -167t168 -64t234 108l160 -203q-184 -168 -410 -170l-221 -329l-231 108l243 254q-145 53 -228 174t-83 289z" />
    <glyph glyph-name="egrave" unicode="&#xe8;" horiz-adv-x="1243" 
d="M690 1219l-194 245l274 117l133 -362h-213zM891 707q0 73 -45 117t-142 44q-98 0 -180 -63t-121 -170h478q10 35 10 72zM84 463q0 162 79 310t231 247q154 98 352 98t318 -120t120 -308q-1 -117 -56 -250h-753q8 -100 70 -157q61 -57 181 -57t244 87l144 -192
q-174 -145 -417 -145t-378 129q-135 130 -135 358z" />
    <glyph glyph-name="eacute" unicode="&#xe9;" horiz-adv-x="1243" 
d="M891 707q0 73 -45 117t-142 44q-98 0 -180 -63t-121 -170h478q10 35 10 72zM684 1219l330 362l262 -117l-330 -245h-262zM84 463q0 162 79 310t231 247q154 98 352 98t318 -120t120 -308q-1 -117 -56 -250h-753q8 -100 70 -157q61 -57 181 -57t244 87l144 -192
q-174 -145 -417 -145t-378 129q-135 130 -135 358z" />
    <glyph glyph-name="ecircumflex" unicode="&#xea;" horiz-adv-x="1243" 
d="M891 707q0 73 -45 117t-142 44q-98 0 -180 -63t-121 -170h478q10 35 10 72zM401 1219l338 321h295l166 -321h-225l-125 135l-199 -135h-250zM84 463q0 162 79 310t231 247q154 98 352 98t318 -120t120 -308q-1 -117 -56 -250h-753q8 -100 70 -157q61 -57 181 -57t244 87
l144 -192q-174 -145 -417 -145t-378 129q-135 130 -135 358z" />
    <glyph glyph-name="edieresis" unicode="&#xeb;" horiz-adv-x="1243" 
d="M444 1219l76 276h299l-76 -276h-299zM883 1219l75 276h299l-75 -276h-299zM891 707q0 73 -45 117t-142 44q-98 0 -180 -63t-121 -170h478q10 35 10 72zM84 463q0 162 79 310t231 247q154 98 352 98t318 -120t120 -308q-1 -117 -56 -250h-753q8 -100 70 -157
q61 -57 181 -57t244 87l144 -192q-174 -145 -417 -145t-378 129q-135 130 -135 358z" />
    <glyph glyph-name="igrave" unicode="&#xec;" horiz-adv-x="618" 
d="M367 1219l-195 245l274 117l134 -362h-213zM6 0l295 1098h311l-295 -1098h-311z" />
    <glyph glyph-name="iacute" unicode="&#xed;" horiz-adv-x="618" 
d="M360 1219l330 362l262 -117l-329 -245h-263zM6 0l295 1098h311l-295 -1098h-311z" />
    <glyph glyph-name="icircumflex" unicode="&#xee;" horiz-adv-x="618" 
d="M78 1219l338 321h295l166 -321h-226l-125 135l-198 -135h-250zM6 0l295 1098h311l-295 -1098h-311z" />
    <glyph glyph-name="idieresis" unicode="&#xef;" horiz-adv-x="618" 
d="M121 1219l76 276h299l-76 -276h-299zM559 1219l76 276h299l-76 -276h-299zM6 0l295 1098h311l-295 -1098h-311z" />
    <glyph glyph-name="eth" unicode="&#xf0;" horiz-adv-x="1339" 
d="M625 238q122 0 218 113q95 114 95 242q0 127 -62 193t-167 66q-139 0 -231 -111t-91 -242q0 -131 58 -196t180 -65zM1253 733q0 -354 -221 -575q-182 -182 -426 -182t-382 132q-138 134 -138 376t165 425q165 184 402 185q166 0 285 -123q-43 117 -154 256l-268 -72
l-49 160l199 51q-63 68 -129 129h383l43 -49l245 65l52 -157l-191 -51q184 -276 184 -570z" />
    <glyph glyph-name="ntilde" unicode="&#xf1;" horiz-adv-x="1267" 
d="M665 1532q85 0 181 -40t134 -40t66 24t62 76l166 -55q-63 -143 -128 -211t-150 -68t-181 40t-134 40t-66 -23q-27 -24 -62 -77l-166 55q63 143 128 211t150 68zM866 1118q148 0 236 -86t88 -233q0 -70 -37 -209l-158 -590h-311l162 602q14 53 14 98q0 135 -151 136
q-91 0 -151 -58t-87 -162l-166 -616h-311l293 1098h311l-31 -115q152 135 299 135z" />
    <glyph glyph-name="ograve" unicode="&#xf2;" horiz-adv-x="1335" 
d="M717 1219l-195 245l275 117l133 -362h-213zM642 242q122 0 212 116t90 240q0 122 -64 188t-186 66t-212 -117t-91 -239q1 -122 65 -188t186 -66zM1249 597q1 -237 -187 -429t-438 -193q-250 1 -394 143t-144 378t187 430q187 192 437 192t395 -142q144 -142 144 -379z
" />
    <glyph glyph-name="oacute" unicode="&#xf3;" horiz-adv-x="1335" 
d="M694 1219l330 362l262 -117l-330 -245h-262zM642 242q122 0 212 116t90 240q0 122 -64 188t-186 66t-212 -117t-91 -239q1 -122 65 -188t186 -66zM1249 597q1 -237 -187 -429t-438 -193q-250 1 -394 143t-144 378t187 430q187 192 437 192t395 -142q144 -142 144 -379z
" />
    <glyph glyph-name="ocircumflex" unicode="&#xf4;" horiz-adv-x="1335" 
d="M428 1219l338 321h295l166 -321h-226l-124 135l-199 -135h-250zM642 242q122 0 212 116t90 240q0 122 -64 188t-186 66t-212 -117t-91 -239q1 -122 65 -188t186 -66zM1249 597q1 -237 -187 -429t-438 -193q-250 1 -394 143t-144 378t187 430q187 192 437 192t395 -142
q144 -142 144 -379z" />
    <glyph glyph-name="otilde" unicode="&#xf5;" horiz-adv-x="1335" 
d="M708 1532q85 0 181 -40t134 -40t66 24t62 76l166 -55q-63 -143 -128 -211t-150 -68t-181 40t-134 40t-66 -23q-27 -24 -62 -77l-166 55q63 143 128 211t150 68zM642 242q122 0 212 116t90 240q0 122 -64 188t-186 66t-212 -117t-91 -239q1 -122 65 -188t186 -66z
M1249 597q1 -237 -187 -429t-438 -193q-250 1 -394 143t-144 378t187 430q187 192 437 192t395 -142q144 -142 144 -379z" />
    <glyph glyph-name="odieresis" unicode="&#xf6;" horiz-adv-x="1335" 
d="M471 1219l76 276h299l-76 -276h-299zM909 1219l76 276h299l-76 -276h-299zM642 242q122 0 212 116t90 240q0 122 -64 188t-186 66t-212 -117t-91 -239q1 -122 65 -188t186 -66zM1249 597q1 -237 -187 -429t-438 -193q-250 1 -394 143t-144 378t187 430q187 192 437 192
t395 -142q144 -142 144 -379z" />
    <glyph glyph-name="divide" unicode="&#xf7;" horiz-adv-x="1310" 
d="M385 133l78 295h319l-77 -295h-320zM1182 590h-1032l71 262h1032zM621 1014l77 295h320l-78 -295h-319z" />
    <glyph glyph-name="oslash" unicode="&#xf8;" horiz-adv-x="1335" 
d="M381 492q0 -37 6 -72l455 414q-57 29 -127 28q-145 0 -239 -118t-95 -252zM621 231q145 0 239 119t94 252q0 43 -10 88l-463 -426q54 -33 140 -33zM86 483q0 250 187 443t448 192q197 0 336 -102l100 92h273l-250 -225q70 -121 69 -273q0 -250 -187 -442t-448 -193
q-211 0 -348 109l-102 -94h-273l256 233q-61 113 -61 260z" />
    <glyph glyph-name="ugrave" unicode="&#xf9;" horiz-adv-x="1273" 
d="M688 1219l-194 245l274 117l133 -362h-213zM408 -20q-147 0 -236 86q-88 86 -88 233q0 70 37 209l158 590h311l-162 -602q-14 -53 -14 -99q0 -135 151 -135q91 0 151 58t87 161l166 617h311l-293 -1098h-311l31 115q-152 -135 -299 -135z" />
    <glyph glyph-name="uacute" unicode="&#xfa;" horiz-adv-x="1273" 
d="M682 1219l330 362l262 -117l-330 -245h-262zM408 -20q-147 0 -236 86q-88 86 -88 233q0 70 37 209l158 590h311l-162 -602q-14 -53 -14 -99q0 -135 151 -135q91 0 151 58t87 161l166 617h311l-293 -1098h-311l31 115q-152 -135 -299 -135z" />
    <glyph glyph-name="ucircumflex" unicode="&#xfb;" horiz-adv-x="1273" 
d="M397 1219l338 321h295l166 -321h-225l-125 135l-199 -135h-250zM408 -20q-147 0 -236 86q-88 86 -88 233q0 70 37 209l158 590h311l-162 -602q-14 -53 -14 -99q0 -135 151 -135q91 0 151 58t87 161l166 617h311l-293 -1098h-311l31 115q-152 -135 -299 -135z" />
    <glyph glyph-name="udieresis" unicode="&#xfc;" horiz-adv-x="1273" 
d="M440 1219l76 276h299l-76 -276h-299zM879 1219l75 276h299l-75 -276h-299zM408 -20q-147 0 -236 86q-88 86 -88 233q0 70 37 209l158 590h311l-162 -602q-14 -53 -14 -99q0 -135 151 -135q91 0 151 58t87 161l166 617h311l-293 -1098h-311l31 115q-152 -135 -299 -135z
" />
    <glyph glyph-name="yacute" unicode="&#xfd;" horiz-adv-x="1212" 
d="M639 1219l330 362l262 -117l-330 -245h-262zM170 -334q-143 0 -252 76l166 225q57 -43 123 -43t119 68l-136 1106h318l51 -746l412 746h336l-680 -1125q-109 -167 -211 -237t-246 -70z" />
    <glyph glyph-name="thorn" unicode="&#xfe;" horiz-adv-x="1380" 
d="M662 242q116 0 215 111q98 112 98 274q-1 105 -63 167t-180 62t-218 -113t-100 -268q0 -104 65 -169q67 -64 183 -64zM886 1118q172 0 292 -127t118 -344q0 -285 -183 -476t-415 -191t-352 180l-129 -488h-311l487 1823h312l-140 -516q149 139 321 139z" />
    <glyph glyph-name="ydieresis" unicode="&#xff;" horiz-adv-x="1212" 
d="M399 1219l76 276h299l-76 -276h-299zM838 1219l75 276h299l-75 -276h-299zM170 -334q-143 0 -252 76l166 225q57 -43 123 -43t119 68l-136 1106h318l51 -746l412 746h336l-680 -1125q-109 -167 -211 -237t-246 -70z" />
    <glyph glyph-name="Amacron" unicode="&#x100;" horiz-adv-x="1566" 
d="M684 1577l59 219h779l-60 -219h-778zM629 600h381l-66 473zM-117 0l1002 1444h303l227 -1444h-323l-45 322h-607l-217 -322h-340z" />
    <glyph glyph-name="amacron" unicode="&#x101;" horiz-adv-x="1204" 
d="M399 1229l58 215h737l-57 -215h-738zM481 193q80 1 158 65t104 156l9 28q-100 39 -202 39t-164 -47q-62 -48 -62 -112q0 -130 157 -129zM813 717q0 129 -207 129q-147 0 -293 -60l-49 246q186 78 406 78t334 -87q113 -87 112 -251q0 -72 -24 -166l-162 -606h-301l33 127
q-138 -147 -328 -147q-141 0 -231 82q-89 83 -89 212q0 184 133 290t340 106q152 0 310 -49q16 56 16 96z" />
    <glyph glyph-name="Abreve" unicode="&#x102;" horiz-adv-x="1566" 
d="M1067 1563q-166 -1 -250 79t-59 226h198q12 -100 150 -100t203 100h227q-51 -145 -177 -225t-292 -80zM629 600h381l-66 473zM-117 0l1002 1444h303l227 -1444h-323l-45 322h-607l-217 -322h-340z" />
    <glyph glyph-name="abreve" unicode="&#x103;" horiz-adv-x="1204" 
d="M787 1214q-168 0 -252 92t-80 234h213q4 -53 40 -88t106 -35t116 32q47 32 86 91h215q-49 -146 -163 -236t-281 -90zM481 193q80 1 158 65t104 156l9 28q-100 39 -202 39t-164 -47q-62 -48 -62 -112q0 -130 157 -129zM813 717q0 129 -207 129q-147 0 -293 -60l-49 246
q186 78 406 78t334 -87q113 -87 112 -251q0 -72 -24 -166l-162 -606h-301l33 127q-138 -147 -328 -147q-141 0 -231 82q-89 83 -89 212q0 184 133 290t340 106q152 0 310 -49q16 56 16 96z" />
    <glyph glyph-name="Aogonek" unicode="&#x104;" horiz-adv-x="1566" 
d="M629 600h381l-66 473zM1038 -207q0 92 129 207h-75l-45 322h-607l-217 -322h-340l1002 1444h303l227 -1444h-45q-90 -90 -90 -141q0 -57 121 -58l-37 -137q-51 -8 -130 -8q-80 0 -138 36t-58 101z" />
    <glyph glyph-name="aogonek" unicode="&#x105;" horiz-adv-x="1204" 
d="M481 193q80 1 158 65t104 156l9 28q-100 39 -202 39t-164 -47q-62 -48 -62 -112q0 -130 157 -129zM813 717q0 129 -207 129q-147 0 -293 -60l-49 246q186 78 406 78t334 -87q113 -87 112 -251q0 -72 -24 -166l-162 -606h-39q-90 -90 -90 -141q0 -57 121 -58l-37 -137
q-51 -8 -130 -8t-137 36t-59 101q0 92 129 207h-59l33 127q-137 -147 -328 -147q-141 0 -231 82q-89 83 -89 212q0 184 133 290t340 106q152 0 310 -49q16 56 16 96z" />
    <glyph glyph-name="Cacute" unicode="&#x106;" horiz-adv-x="1486" 
d="M942 1567l336 321l260 -116l-334 -205h-262zM817 -25q-301 0 -490 171t-190 454q0 346 257 602t630 256t559 -305l-260 -182q-70 98 -151 147t-201 49q-199 0 -353 -165t-153 -390q0 -154 98 -250t252 -96q96 0 171 35t165 107l205 -213q-238 -220 -539 -220z" />
    <glyph glyph-name="cacute" unicode="&#x107;" horiz-adv-x="1146" 
d="M653 1219l330 362l262 -117l-330 -245h-262zM598 -25q-224 1 -368 137t-144 359q0 267 192 457t455 190q311 0 451 -241l-238 -168q-47 71 -99 107t-138 36q-123 0 -219 -115t-97 -266q-1 -103 61 -167t168 -64t234 108l160 -203q-94 -84 -190 -127t-228 -43z" />
    <glyph glyph-name="Cdotaccent" unicode="&#x10a;" horiz-adv-x="1486" 
d="M924 1567l71 260h308l-72 -260h-307zM817 -25q-301 0 -490 171t-190 454q0 346 257 602t630 256t559 -305l-260 -182q-70 98 -151 147t-201 49q-199 0 -353 -165t-153 -390q0 -154 98 -250t252 -96q96 0 171 35t165 107l205 -213q-238 -220 -539 -220z" />
    <glyph glyph-name="cdotaccent" unicode="&#x10b;" horiz-adv-x="1146" 
d="M629 1219l76 276h307l-76 -276h-307zM598 -25q-224 1 -368 137t-144 359q0 267 192 457t455 190q311 0 451 -241l-238 -168q-47 71 -99 107t-138 36q-123 0 -219 -115t-97 -266q-1 -103 61 -167t168 -64t234 108l160 -203q-94 -84 -190 -127t-228 -43z" />
    <glyph glyph-name="Ccaron" unicode="&#x10c;" horiz-adv-x="1486" 
d="M1583 1868l-342 -301h-295l-182 301h229l131 -115l193 115h266zM817 -25q-301 0 -490 171t-190 454q0 346 257 602t630 256t559 -305l-260 -182q-70 98 -151 147t-201 49q-199 0 -353 -165t-153 -390q0 -154 98 -250t252 -96q96 0 171 35t165 107l205 -213
q-238 -220 -539 -220z" />
    <glyph glyph-name="ccaron" unicode="&#x10d;" horiz-adv-x="1146" 
d="M1225 1540l-338 -321h-295l-166 321h225l125 -135l199 135h250zM598 -25q-224 1 -368 137t-144 359q0 267 192 457t455 190q311 0 451 -241l-238 -168q-47 71 -99 107t-138 36q-123 0 -219 -115t-97 -266q-1 -103 61 -167t168 -64t234 108l160 -203q-94 -84 -190 -127
t-228 -43z" />
    <glyph glyph-name="Dcaron" unicode="&#x10e;" horiz-adv-x="1591" 
d="M1495 1847l-342 -301h-295l-182 301h229l131 -114l193 114h266zM594 285q305 0 479 174q143 143 144 358q0 143 -84 227q-104 104 -330 105h-154l-233 -864h178zM827 1434q377 0 562 -185q156 -156 155 -420q0 -330 -235 -565q-264 -264 -752 -264h-532l385 1434h417z
" />
    <glyph glyph-name="dcaron" unicode="&#x10f;" horiz-adv-x="1380" 
d="M1847 1495v-6l-233 -420h-123l113 426h243zM646 242q118 0 218 112t101 269q0 104 -66 169q-67 64 -183 64t-214 -112t-99 -273q0 -105 63 -167q62 -62 180 -62zM492 -20q-172 0 -291 126t-119 345q0 285 183 476t415 191t352 -180l148 557h311l-399 -1495h-312l33 119
q-149 -139 -321 -139z" />
    <glyph glyph-name="Dcroat" unicode="&#x110;" horiz-adv-x="1632" 
d="M635 285q305 0 479 174q143 143 143 358q0 143 -83 227q-104 104 -330 105h-154l-78 -289h291l-76 -278h-290l-80 -297h178zM868 1434q377 0 562 -185q156 -156 155 -420q0 -330 -235 -565q-264 -264 -752 -264h-532l155 582h-170l76 278h170l154 574h417z" />
    <glyph glyph-name="dcroat" unicode="&#x111;" horiz-adv-x="1380" 
d="M646 242q118 0 218 112t101 269q0 104 -66 169q-67 64 -183 64t-214 -112t-99 -273q0 -105 63 -167q62 -62 180 -62zM492 -20q-172 0 -291 126t-119 345q0 285 183 476t415 191t352 -180l72 276h-318l48 175h317l29 106h311l-29 -106h140l-48 -175h-139l-323 -1214h-312
l33 119q-149 -139 -321 -139z" />
    <glyph glyph-name="Emacron" unicode="&#x112;" horiz-adv-x="1361" 
d="M588 1556l59 220h778l-59 -220h-778zM25 0l385 1434h1071l-76 -281h-758l-78 -293h666l-76 -276h-665l-82 -303h770l-76 -281h-1081z" />
    <glyph glyph-name="emacron" unicode="&#x113;" horiz-adv-x="1243" 
d="M891 707q0 73 -45 117t-142 44q-98 0 -180 -63t-121 -170h478q10 35 10 72zM446 1229l58 215h737l-57 -215h-738zM84 463q0 162 79 310t231 247q154 98 352 98t318 -120t120 -308q-1 -117 -56 -250h-753q8 -100 70 -157q61 -57 181 -57t244 87l144 -192
q-174 -145 -417 -145t-378 129q-135 130 -135 358z" />
    <glyph glyph-name="Ebreve" unicode="&#x114;" horiz-adv-x="1361" 
d="M971 1542q-166 0 -250 80t-59 225h198q12 -100 150 -100t202 100h228q-51 -145 -177 -225t-292 -80zM25 0l385 1434h1071l-76 -281h-758l-78 -293h666l-76 -276h-665l-82 -303h770l-76 -281h-1081z" />
    <glyph glyph-name="ebreve" unicode="&#x115;" horiz-adv-x="1243" 
d="M891 707q0 73 -45 117t-142 44q-98 0 -180 -63t-121 -170h478q10 35 10 72zM834 1214q-168 0 -252 92t-80 234h213q4 -53 40 -88q35 -35 105 -35t117 32t86 91h215q-48 -146 -162 -236t-282 -90zM84 463q0 162 79 310t231 247q154 98 352 98t318 -120t120 -308
q-1 -117 -56 -250h-753q8 -100 70 -157q61 -57 181 -57t244 87l144 -192q-174 -145 -417 -145t-378 129q-135 130 -135 358z" />
    <glyph glyph-name="Edotaccent" unicode="&#x116;" horiz-adv-x="1361" 
d="M819 1546l72 260h307l-72 -260h-307zM25 0l385 1434h1071l-76 -281h-758l-78 -293h666l-76 -276h-665l-82 -303h770l-76 -281h-1081z" />
    <glyph glyph-name="edotaccent" unicode="&#x117;" horiz-adv-x="1243" 
d="M659 1219l76 276h307l-75 -276h-308zM891 707q0 73 -45 117t-142 44q-98 0 -180 -63t-121 -170h478q10 35 10 72zM84 463q0 162 79 310t231 247q154 98 352 98t318 -120t120 -308q-1 -117 -56 -250h-753q8 -100 70 -157q61 -57 181 -57t244 87l144 -192
q-174 -145 -417 -145t-378 129q-135 130 -135 358z" />
    <glyph glyph-name="Eogonek" unicode="&#x118;" horiz-adv-x="1361" 
d="M912 -344q-78 0 -137 36q-58 36 -58 101q0 92 129 207h-821l385 1434h1071l-76 -281h-758l-78 -293h666l-76 -276h-665l-82 -303h770l-76 -281h-57q-197 -197 30 -199l-37 -137q-52 -8 -130 -8z" />
    <glyph glyph-name="eogonek" unicode="&#x119;" horiz-adv-x="1243" 
d="M891 707q0 73 -45 117t-142 44q-98 0 -180 -63t-121 -170h478q10 35 10 72zM592 -25q-238 0 -373 130t-135 358q0 162 79 310t231 247q154 98 352 98t318 -120t120 -308q0 -117 -56 -250h-753q8 -100 70 -157q61 -57 181 -57t244 87l142 -190l-90 -70
q-150 -117 -150 -194q0 -57 121 -58l-37 -137q-52 -8 -130 -8t-137 36t-59 112t103 173q-12 -2 -41 -2z" />
    <glyph glyph-name="Ecaron" unicode="&#x11a;" horiz-adv-x="1361" 
d="M1479 1847l-342 -301h-295l-183 301h230l131 -114l192 114h267zM25 0l385 1434h1071l-76 -281h-758l-78 -293h666l-76 -276h-665l-82 -303h770l-76 -281h-1081z" />
    <glyph glyph-name="ecaron" unicode="&#x11b;" horiz-adv-x="1243" 
d="M891 707q0 73 -45 117t-142 44q-98 0 -180 -63t-121 -170h478q10 35 10 72zM1255 1540l-337 -321h-295l-166 321h225l125 -135l199 135h249zM84 463q0 162 79 310t231 247q154 98 352 98t318 -120t120 -308q-1 -117 -56 -250h-753q8 -100 70 -157q61 -57 181 -57t244 87
l144 -192q-174 -145 -417 -145t-378 129q-135 130 -135 358z" />
    <glyph glyph-name="Gbreve" unicode="&#x11e;" horiz-adv-x="1597" 
d="M1092 1563q-166 -1 -250 79t-60 226h199q11 -100 149 -100t203 100h228q-51 -145 -177 -225t-292 -80zM1030 1458q395 0 586 -248l-234 -206q-152 166 -378 166t-383 -168q-158 -167 -158 -394q0 -162 104 -253q103 -91 249 -91t269 55l68 234h-317l73 272h623l-203 -714
q-239 -136 -511 -136t-469 150q-97 74 -155 197t-59 276q0 223 115 420q114 196 322 318t458 122z" />
    <glyph glyph-name="gbreve" unicode="&#x11f;" horiz-adv-x="1374" 
d="M885 1214q-168 0 -252 92t-80 234h213q4 -53 40 -88t106 -35t116 32q47 32 86 91h215q-49 -146 -163 -236t-281 -90zM618 338q129 0 227 95q97 95 97 224q0 93 -59 147t-173 54t-207 -98t-93 -228q0 -94 57 -144t151 -50zM512 -332q-352 0 -580 154l164 213
q182 -121 396 -121q150 0 237 88q61 61 100 197l11 37q-88 -78 -166 -112t-178 -34q-168 0 -288 102t-120 281q0 269 183 457t413 188t338 -190l45 170h311l-235 -883q-43 -164 -84 -246q-151 -301 -547 -301z" />
    <glyph glyph-name="Gdotaccent" unicode="&#x120;" horiz-adv-x="1597" 
d="M942 1567l72 260h307l-72 -260h-307zM1030 1458q395 0 586 -248l-234 -206q-152 166 -378 166t-383 -168q-158 -167 -158 -394q0 -162 104 -253q103 -91 249 -91t269 55l68 234h-317l73 272h623l-203 -714q-239 -136 -511 -136t-469 150q-97 74 -155 197t-59 276
q0 223 115 420q114 196 322 318t458 122z" />
    <glyph glyph-name="gdotaccent" unicode="&#x121;" horiz-adv-x="1374" 
d="M711 1219l75 276h308l-76 -276h-307zM618 338q129 0 227 95q97 95 97 224q0 93 -59 147t-173 54t-207 -98t-93 -228q0 -94 57 -144t151 -50zM512 -332q-352 0 -580 154l164 213q182 -121 396 -121q150 0 237 88q61 61 100 197l11 37q-88 -78 -166 -112t-178 -34
q-168 0 -288 102t-120 281q0 269 183 457t413 188t338 -190l45 170h311l-235 -883q-43 -164 -84 -246q-151 -301 -547 -301z" />
    <glyph glyph-name="Gcommaaccent" unicode="&#x122;" horiz-adv-x="1597" 
d="M428 -608l10 94q170 16 195 147h-131l63 236h283l-53 -199q-39 -143 -129 -209q-91 -65 -238 -69zM1030 1458q395 0 586 -248l-234 -206q-152 166 -378 166t-383 -168q-158 -167 -158 -394q0 -162 104 -253q103 -91 249 -91t269 55l68 234h-317l73 272h623l-203 -714
q-239 -136 -511 -136t-469 150q-97 74 -155 197t-59 276q0 223 115 420q114 196 322 318t458 122z" />
    <glyph glyph-name="gcommaaccent" unicode="&#x123;" horiz-adv-x="1374" 
d="M1130 1696l-10 -94q-170 -16 -194 -148h131l-64 -235h-282l53 198q39 143 129 209t237 70zM618 338q129 0 227 95q97 95 97 224q0 93 -59 147t-173 54t-207 -98t-93 -228q0 -94 57 -144t151 -50zM512 -332q-352 0 -580 154l164 213q182 -121 396 -121q150 0 237 88
q61 61 100 197l11 37q-88 -78 -166 -112t-178 -34q-168 0 -288 102t-120 281q0 269 183 457t413 188t338 -190l45 170h311l-235 -883q-43 -164 -84 -246q-151 -301 -547 -301z" />
    <glyph glyph-name="Hbar" unicode="&#x126;" horiz-adv-x="1548" 
d="M573 866h574l49 187h-573zM164 1049l57 215h141l48 170h315l-45 -170h573l45 170h316l-47 -170h145l-59 -215h-144l-280 -1049h-316l156 575h-573l-156 -575h-315l280 1049h-141z" />
    <glyph glyph-name="hbar" unicode="&#x127;" horiz-adv-x="1273" 
d="M866 1118q148 0 236 -86t88 -233q0 -70 -37 -209l-158 -590h-311l162 602q14 53 14 98q0 135 -151 136q-91 0 -151 -58t-87 -162l-166 -616h-311l321 1214h-137l45 175h139l29 106h311l-28 -106h317l-45 -175h-317l-62 -231q152 135 299 135z" />
    <glyph glyph-name="Imacron" unicode="&#x12a;" horiz-adv-x="688" 
d="M225 1556l60 220h778l-59 -220h-779zM39 0l385 1434h315l-385 -1434h-315z" />
    <glyph glyph-name="imacron" unicode="&#x12b;" horiz-adv-x="618" 
d="M123 1229l57 215h738l-58 -215h-737zM6 0l295 1098h311l-295 -1098h-311z" />
    <glyph glyph-name="Ibreve" unicode="&#x12c;" horiz-adv-x="688" 
d="M608 1542q-166 0 -250 80t-59 225h199q12 -100 149 -100t203 100h227q-51 -145 -177 -225t-292 -80zM39 0l385 1434h315l-385 -1434h-315z" />
    <glyph glyph-name="ibreve" unicode="&#x12d;" horiz-adv-x="618" 
d="M508 1214q-168 0 -252 92t-80 234h213q4 -53 40 -88q35 -35 105 -35t117 32t86 91h215q-48 -146 -162 -236t-282 -90zM6 0l295 1098h311l-295 -1098h-311z" />
    <glyph glyph-name="Iogonek" unicode="&#x12e;" horiz-adv-x="688" 
d="M221 -141q0 -57 121 -58l-37 -137q-51 -8 -129 -8t-138 36q-58 36 -58 101q0 92 129 207h-70l385 1434h315l-385 -1434h-43q-90 -90 -90 -141z" />
    <glyph glyph-name="iogonek" unicode="&#x12f;" horiz-adv-x="618" 
d="M326 1219l75 276h328l-76 -276h-327zM180 -141q0 -57 121 -58l-37 -137q-52 -8 -130 -8t-137 36q-58 36 -58 101q0 88 129 207h-62l295 1098h311l-295 -1098h-47q-90 -90 -90 -141z" />
    <glyph glyph-name="Idotaccent" unicode="&#x130;" horiz-adv-x="688" 
d="M457 1546l71 260h308l-72 -260h-307zM39 0l385 1434h315l-385 -1434h-315z" />
    <glyph glyph-name="dotlessi" unicode="&#x131;" horiz-adv-x="618" 
d="M6 0l295 1098h311l-295 -1098h-311z" />
    <glyph glyph-name="Kcommaaccent" unicode="&#x136;" horiz-adv-x="1488" 
d="M346 -588l10 94q170 16 195 148h-131l63 235h283l-53 -198q-39 -143 -129 -209t-238 -70zM25 0l385 1434h315l-170 -635l709 635h426l-699 -600l338 -834h-346l-242 645l-297 -254l-104 -391h-315z" />
    <glyph glyph-name="kcommaaccent" unicode="&#x137;" horiz-adv-x="1210" 
d="M168 -598l10 94q170 16 195 148h-131l63 235h283l-53 -198q-39 -143 -129 -209t-238 -70zM-6 0l401 1495h312l-209 -774l444 377h406l-531 -428l240 -670h-348l-156 465l-158 -127l-90 -338h-311z" />
    <glyph glyph-name="Lacute" unicode="&#x139;" horiz-adv-x="1282" 
d="M498 1546l336 322l260 -117l-334 -205h-262zM25 0l385 1434h315l-307 -1147h715l-78 -287h-1030z" />
    <glyph glyph-name="lacute" unicode="&#x13a;" horiz-adv-x="618" 
d="M461 1577l336 321l260 -116l-334 -205h-262zM6 0l402 1495h311l-402 -1495h-311z" />
    <glyph glyph-name="Lcommaaccent" unicode="&#x13b;" horiz-adv-x="1282" 
d="M221 -598l10 94q170 16 195 148h-131l63 235h283l-53 -198q-40 -143 -130 -209t-237 -70zM25 0l385 1434h315l-307 -1147h715l-78 -287h-1030z" />
    <glyph glyph-name="lcommaaccent" unicode="&#x13c;" horiz-adv-x="618" 
d="M-139 -598l10 94q170 16 195 148h-132l64 235h283l-54 -198q-39 -143 -129 -209t-237 -70zM6 0l402 1495h311l-402 -1495h-311z" />
    <glyph glyph-name="Lcaron" unicode="&#x13d;" horiz-adv-x="1282" 
d="M1081 1434v-7l-233 -419h-123l113 426h243zM25 0l385 1434h315l-307 -1147h715l-78 -287h-1030z" />
    <glyph glyph-name="lcaron" unicode="&#x13e;" horiz-adv-x="618" 
d="M1075 1495v-6l-233 -420h-123l112 426h244zM6 0l402 1495h311l-402 -1495h-311z" />
    <glyph glyph-name="Ldot" unicode="&#x13f;" horiz-adv-x="1282" 
d="M25 0l385 1434h315l-307 -1147h715l-78 -287h-1030zM868 645l76 277h295l-76 -277h-295z" />
    <glyph glyph-name="ldot" unicode="&#x140;" horiz-adv-x="802" 
d="M6 0l402 1495h311l-402 -1495h-311zM614 647l70 256h246l-70 -256h-246z" />
    <glyph glyph-name="Lslash" unicode="&#x141;" horiz-adv-x="1345" 
d="M88 0l143 537l-165 -45l79 292l166 45l162 605h315l-137 -510l420 116l-78 -292l-420 -117l-92 -344h715l-78 -287h-1030z" />
    <glyph glyph-name="lslash" unicode="&#x142;" horiz-adv-x="735" 
d="M725 711l-166 -47l-178 -664h-311l153 571l-166 -45l78 293l166 45l170 631h311l-145 -537l166 46z" />
    <glyph glyph-name="Nacute" unicode="&#x143;" horiz-adv-x="1609" 
d="M936 1546l336 322l260 -117l-334 -205h-262zM25 0l385 1434h290l418 -912l246 912h311l-385 -1434h-268l-434 940l-252 -940h-311z" />
    <glyph glyph-name="nacute" unicode="&#x144;" horiz-adv-x="1267" 
d="M670 1219l329 362l263 -117l-330 -245h-262zM866 1118q148 0 236 -86t88 -233q0 -70 -37 -209l-158 -590h-311l162 602q14 53 14 98q0 135 -151 136q-91 0 -151 -58t-87 -162l-166 -616h-311l293 1098h311l-31 -115q152 135 299 135z" />
    <glyph glyph-name="Ncommaaccent" unicode="&#x145;" horiz-adv-x="1609" 
d="M358 -588l11 94q170 16 194 148h-131l64 235h282l-53 -198q-39 -143 -129 -209t-238 -70zM25 0l385 1434h290l418 -912l246 912h311l-385 -1434h-268l-434 940l-252 -940h-311z" />
    <glyph glyph-name="ncommaaccent" unicode="&#x146;" horiz-adv-x="1267" 
d="M170 -598l10 94q170 16 195 148h-131l63 235h283l-53 -198q-39 -143 -129 -209t-238 -70zM866 1118q148 0 236 -86t88 -233q0 -70 -37 -209l-158 -590h-311l162 602q14 53 14 98q0 135 -151 136q-91 0 -151 -58t-87 -162l-166 -616h-311l293 1098h311l-31 -115
q152 135 299 135z" />
    <glyph glyph-name="Ncaron" unicode="&#x147;" horiz-adv-x="1609" 
d="M1577 1847l-342 -301h-295l-182 301h229l131 -114l193 114h266zM25 0l385 1434h290l418 -912l246 912h311l-385 -1434h-268l-434 940l-252 -940h-311z" />
    <glyph glyph-name="ncaron" unicode="&#x148;" horiz-adv-x="1267" 
d="M1239 1540l-338 -321h-295l-166 321h226l125 -135l198 135h250zM866 1118q148 0 236 -86t88 -233q0 -70 -37 -209l-158 -590h-311l162 602q14 53 14 98q0 135 -151 136q-91 0 -151 -58t-87 -162l-166 -616h-311l293 1098h311l-31 -115q152 135 299 135z" />
    <glyph glyph-name="Omacron" unicode="&#x14c;" horiz-adv-x="1703" 
d="M723 1577l59 219h779l-60 -219h-778zM829 266q215 0 357 169q141 169 141 351t-96 281q-96 100 -268 100q-215 0 -357 -169t-141 -350q0 -182 96 -282t268 -100zM793 -25q-293 1 -475 181t-181 454q0 215 107 409q106 195 307 317t448 122q293 0 475 -180t181 -455
q-1 -215 -107 -409t-306 -316q-200 -123 -449 -123z" />
    <glyph glyph-name="omacron" unicode="&#x14d;" horiz-adv-x="1335" 
d="M473 1229l57 215h738l-58 -215h-737zM642 242q122 0 212 116t90 240q0 122 -64 188t-186 66t-212 -117t-91 -239q1 -122 65 -188t186 -66zM1249 597q1 -237 -187 -429t-438 -193q-250 1 -394 143t-144 378t187 430q187 192 437 192t395 -142q144 -142 144 -379z" />
    <glyph glyph-name="Obreve" unicode="&#x14e;" horiz-adv-x="1703" 
d="M1104 1563q-166 -1 -250 79t-59 226h198q11 -100 149 -100t204 100h227q-51 -145 -177 -225t-292 -80zM829 266q215 0 357 169q141 169 141 351t-96 281q-96 100 -268 100q-215 0 -357 -169t-141 -350q0 -182 96 -282t268 -100zM793 -25q-293 1 -475 181t-181 454
q0 215 107 409q106 195 307 317t448 122q293 0 475 -180t181 -455q-1 -215 -107 -409t-306 -316q-200 -123 -449 -123z" />
    <glyph glyph-name="obreve" unicode="&#x14f;" horiz-adv-x="1335" 
d="M860 1214q-168 0 -252 92t-80 234h213q4 -53 40 -88t106 -35t117 32t86 91h215q-49 -146 -163 -236t-282 -90zM642 242q122 0 212 116t90 240q0 122 -64 188t-186 66t-212 -117t-91 -239q1 -122 65 -188t186 -66zM1249 597q1 -237 -187 -429t-438 -193q-250 1 -394 143
t-144 378t187 430q187 192 437 192t395 -142q144 -142 144 -379z" />
    <glyph glyph-name="Ohungarumlaut" unicode="&#x150;" horiz-adv-x="1703" 
d="M1133 1567l335 321l250 -116l-334 -205h-251zM731 1567l336 321l250 -116l-334 -205h-252zM829 266q215 0 357 169q141 169 141 351t-96 281q-96 100 -268 100q-215 0 -357 -169t-141 -350q0 -182 96 -282t268 -100zM793 -25q-293 1 -475 181t-181 454q0 215 107 409
q106 195 307 317t448 122q293 0 475 -180t181 -455q-1 -215 -107 -409t-306 -316q-200 -123 -449 -123z" />
    <glyph glyph-name="ohungarumlaut" unicode="&#x151;" horiz-adv-x="1335" 
d="M408 1219l325 362l232 -117l-330 -245h-227zM807 1219l330 362l231 -117l-334 -245h-227zM642 242q122 0 212 116t90 240q0 122 -64 188t-186 66t-212 -117t-91 -239q1 -122 65 -188t186 -66zM1249 597q1 -237 -187 -429t-438 -193q-250 1 -394 143t-144 378t187 430
q187 192 437 192t395 -142q144 -142 144 -379z" />
    <glyph glyph-name="OE" unicode="&#x152;" horiz-adv-x="2193" 
d="M879 285h92l233 864h-117q-305 0 -479 -174q-143 -143 -143 -359q0 -143 84 -227q105 -104 330 -104zM854 0q-377 0 -571 195q-145 145 -146 409q0 330 236 565q264 264 751 265h1188l-76 -281h-716l-78 -293h624l-75 -276h-625l-82 -303h729l-76 -281h-1083z" />
    <glyph glyph-name="oe" unicode="&#x153;" horiz-adv-x="2105" 
d="M627 242q139 0 228 110t89 236q0 124 -64 194t-171 70q-139 0 -229 -111t-89 -235q0 -124 65 -194t171 -70zM1753 707q0 73 -45 117t-142 44t-180 -63q-81 -64 -120 -170h477q10 35 10 72zM1489 225q119 0 244 88l143 -192q-160 -145 -438 -145t-391 200
q-169 -201 -421 -201q-252 1 -396 143t-144 380t185 430q185 190 448 190q303 0 424 -217q176 217 454 217q209 0 329 -120t120 -308q0 -117 -55 -250h-752q16 -215 250 -215z" />
    <glyph glyph-name="Racute" unicode="&#x154;" horiz-adv-x="1488" 
d="M815 1546l336 322l260 -117l-334 -205h-262zM1167 975q0 174 -254 174h-264l-110 -412h280q197 0 289 92q59 59 59 146zM932 1434q311 0 454 -144q111 -110 111 -304t-127 -320t-336 -177l244 -489h-358l-222 459h-235l-123 -459h-315l385 1434h522z" />
    <glyph glyph-name="racute" unicode="&#x155;" horiz-adv-x="858" 
d="M485 1219l330 362l262 -117l-329 -245h-263zM852 793q-336 0 -442 -404l-105 -389h-311l293 1098h311l-59 -221q178 260 417 241l-88 -325h-16z" />
    <glyph glyph-name="Rcommaaccent" unicode="&#x156;" horiz-adv-x="1488" 
d="M299 -588l10 94q170 16 195 148h-131l63 235h283l-53 -198q-40 -143 -130 -209t-237 -70zM1167 975q0 174 -254 174h-264l-110 -412h280q197 0 289 92q59 59 59 146zM932 1434q311 0 454 -144q111 -110 111 -304t-127 -320t-336 -177l244 -489h-358l-222 459h-235
l-123 -459h-315l385 1434h522z" />
    <glyph glyph-name="rcommaaccent" unicode="&#x157;" horiz-adv-x="858" 
d="M-139 -598l10 94q170 16 195 148h-132l64 235h283l-54 -198q-39 -143 -129 -209t-237 -70zM852 793q-336 0 -442 -404l-105 -389h-311l293 1098h311l-59 -221q178 260 417 241l-88 -325h-16z" />
    <glyph glyph-name="Rcaron" unicode="&#x158;" horiz-adv-x="1488" 
d="M1456 1847l-342 -301h-295l-182 301h229l131 -114l193 114h266zM1167 975q0 174 -254 174h-264l-110 -412h280q197 0 289 92q59 59 59 146zM932 1434q311 0 454 -144q111 -110 111 -304t-127 -320t-336 -177l244 -489h-358l-222 459h-235l-123 -459h-315l385 1434h522z
" />
    <glyph glyph-name="rcaron" unicode="&#x159;" horiz-adv-x="858" 
d="M1055 1540l-338 -321h-295l-166 321h225l125 -135l199 135h250zM852 793q-336 0 -442 -404l-105 -389h-311l293 1098h311l-59 -221q178 260 417 241l-88 -325h-16z" />
    <glyph glyph-name="Sacute" unicode="&#x15a;" horiz-adv-x="1302" 
d="M752 1567l335 321l261 -116l-334 -205h-262zM604 -20q-420 0 -624 264l237 200q172 -188 401 -188q96 0 158 41t62 101t-50 100t-206 102q-154 62 -247 150t-93 231q0 213 166 343t403 130q338 0 537 -213l-218 -217q-86 80 -164 117t-176 37t-155 -44t-57 -100t49 -92
q49 -34 209 -100t249 -153q88 -87 89 -232q0 -217 -167 -347t-403 -130z" />
    <glyph glyph-name="sacute" unicode="&#x15b;" 
d="M537 1219l329 362l262 -117l-329 -245h-262zM444 -25q-133 -1 -267 51t-226 148l180 186q147 -147 336 -147q131 0 131 96q0 47 -127 103q-246 104 -296 209q-24 49 -23 112q0 168 119 277q120 109 321 108q125 0 242 -46t190 -111l-168 -197q-147 117 -287 117
q-57 0 -89 -25t-32 -62q0 -38 36 -62q34 -24 106 -56q232 -105 280 -203q25 -49 25 -111q0 -178 -126 -282t-325 -105z" />
    <glyph glyph-name="Scedilla" unicode="&#x15e;" horiz-adv-x="1302" 
d="M618 256q96 0 158 41t62 101t-50 100t-206 102q-154 62 -247 150t-93 231q0 213 166 343t403 130q338 0 537 -213l-218 -217q-86 80 -164 117t-176 37t-155 -44t-57 -100t49 -92q49 -34 209 -100t249 -153q88 -87 89 -232q0 -215 -164 -344t-400 -133l-223 -334l-231 108
l233 246q-262 53 -409 244l237 200q172 -188 401 -188z" />
    <glyph glyph-name="scedilla" unicode="&#x15f;" 
d="M467 213q131 0 131 96q0 47 -127 103q-246 104 -296 209q-24 49 -23 112q0 168 119 277q120 109 321 108q125 0 242 -46t190 -111l-168 -197q-147 117 -287 117q-57 0 -89 -25t-32 -62q0 -38 36 -62q34 -24 106 -56q232 -105 280 -203q25 -49 25 -111q0 -170 -117 -273
t-305 -112l-221 -331l-232 108l236 246q-188 51 -305 174l180 186q147 -147 336 -147z" />
    <glyph glyph-name="Scaron" unicode="&#x160;" horiz-adv-x="1302" 
d="M1393 1868l-342 -301h-295l-183 301h230l131 -115l192 115h267zM604 -20q-420 0 -624 264l237 200q172 -188 401 -188q96 0 158 41t62 101t-50 100t-206 102q-154 62 -247 150t-93 231q0 213 166 343t403 130q338 0 537 -213l-218 -217q-86 80 -164 117t-176 37t-155 -44
t-57 -100t49 -92q49 -34 209 -100t249 -153q88 -87 89 -232q0 -217 -167 -347t-403 -130z" />
    <glyph glyph-name="scaron" unicode="&#x161;" 
d="M1108 1540l-338 -321h-295l-166 321h226l124 -135l199 135h250zM444 -25q-133 -1 -267 51t-226 148l180 186q147 -147 336 -147q131 0 131 96q0 47 -127 103q-246 104 -296 209q-24 49 -23 112q0 168 119 277q120 109 321 108q125 0 242 -46t190 -111l-168 -197
q-147 117 -287 117q-57 0 -89 -25t-32 -62q0 -38 36 -62q34 -24 106 -56q232 -105 280 -203q25 -49 25 -111q0 -178 -126 -282t-325 -105z" />
    <glyph glyph-name="Tcommaaccent" unicode="&#x162;" horiz-adv-x="1269" 
d="M182 -598l11 94q170 16 194 148h-131l63 235h283l-53 -198q-39 -143 -129 -209t-238 -70zM326 0l307 1143h-436l77 291h1188l-78 -291h-436l-307 -1143h-315z" />
    <glyph glyph-name="tcommaaccent" unicode="&#x163;" horiz-adv-x="849" 
d="M27 -598l10 94q170 16 194 148h-131l64 235h282l-53 -198q-39 -143 -129 -209t-237 -70zM390 -18q-132 0 -205 60t-72 155q0 55 20 137l133 497h-131l72 267h131l76 280h311l-76 -280h258l-71 -267h-258l-123 -460q-8 -33 -9 -49q0 -66 82 -66t162 35l-72 -264
q-96 -45 -228 -45z" />
    <glyph glyph-name="Tcaron" unicode="&#x164;" horiz-adv-x="1269" 
d="M1403 1847l-342 -301h-295l-182 301h229l131 -114l193 114h266zM326 0l307 1143h-436l77 291h1188l-78 -291h-436l-307 -1143h-315z" />
    <glyph glyph-name="tcaron" unicode="&#x165;" horiz-adv-x="849" 
d="M1149 1638v-6l-234 -420h-122l112 426h244zM390 -18q-132 0 -205 60t-72 155q0 55 20 137l133 497h-131l72 267h131l76 280h311l-76 -280h258l-71 -267h-258l-123 -460q-8 -33 -9 -49q0 -66 82 -66t162 35l-72 -264q-96 -45 -228 -45z" />
    <glyph glyph-name="Umacron" unicode="&#x16a;" horiz-adv-x="1564" 
d="M651 1556l60 220h778l-59 -220h-779zM702 -23q-250 0 -393 128t-143 356q0 106 35 229l198 744h316l-207 -772q-23 -78 -23 -172t66 -158q67 -64 195 -64t223 90q94 94 139 267l217 809h315l-229 -854q-74 -279 -221 -426q-177 -177 -488 -177z" />
    <glyph glyph-name="umacron" unicode="&#x16b;" horiz-adv-x="1273" 
d="M442 1229l58 215h737l-57 -215h-738zM408 -20q-147 0 -236 86q-88 86 -88 233q0 70 37 209l158 590h311l-162 -602q-14 -53 -14 -99q0 -135 151 -135q91 0 151 58t87 161l166 617h311l-293 -1098h-311l31 115q-152 -135 -299 -135z" />
    <glyph glyph-name="Ubreve" unicode="&#x16c;" horiz-adv-x="1564" 
d="M1026 1522q-166 0 -250 80t-59 225h198q11 -101 149 -101t204 101h227q-51 -145 -177 -225t-292 -80zM702 -23q-250 0 -393 128t-143 356q0 106 35 229l198 744h316l-207 -772q-23 -78 -23 -172t66 -158q67 -64 195 -64t223 90q94 94 139 267l217 809h315l-229 -854
q-74 -279 -221 -426q-177 -177 -488 -177z" />
    <glyph glyph-name="ubreve" unicode="&#x16d;" horiz-adv-x="1273" 
d="M830 1214q-168 0 -252 92t-80 234h213q4 -53 40 -88q35 -35 105 -35t117 32t86 91h215q-48 -146 -162 -236t-282 -90zM408 -20q-147 0 -236 86q-88 86 -88 233q0 70 37 209l158 590h311l-162 -602q-14 -53 -14 -99q0 -135 151 -135q91 0 151 58t87 161l166 617h311
l-293 -1098h-311l31 115q-152 -135 -299 -135z" />
    <glyph glyph-name="Uring" unicode="&#x16e;" horiz-adv-x="1564" 
d="M1064 1597q58 0 100 41q40 42 40 90t-32 76t-90 29q-58 0 -99 -41t-41 -89t32 -77t90 -29zM1082 1942q114 0 181 -58t67 -153q0 -94 -76 -168q-74 -74 -188 -74t-182 58q-67 59 -67 153t75 168q76 74 190 74zM702 -23q-250 0 -393 128t-143 356q0 106 35 229l198 744h316
l-207 -772q-23 -78 -23 -172t66 -158q67 -64 195 -64t223 90q94 94 139 267l217 809h315l-229 -854q-74 -279 -221 -426q-177 -177 -488 -177z" />
    <glyph glyph-name="uring" unicode="&#x16f;" horiz-adv-x="1273" 
d="M846 1288q55 0 95 48t40 104t-31 88q-31 31 -86 31q-55 -1 -95 -49t-40 -104t31 -87t86 -31zM868 1663q106 0 168 -59t64 -159q0 -101 -76 -181t-182 -80t-169 59t-63 159t76 180t182 81zM408 -20q-147 0 -236 86q-88 86 -88 233q0 70 37 209l158 590h311l-162 -602
q-14 -53 -14 -99q0 -135 151 -135q91 0 151 58t87 161l166 617h311l-293 -1098h-311l31 115q-152 -135 -299 -135z" />
    <glyph glyph-name="Uhungarumlaut" unicode="&#x170;" horiz-adv-x="1564" 
d="M1061 1546l336 322l250 -117l-334 -205h-252zM659 1546l336 322l250 -117l-334 -205h-252zM702 -23q-250 0 -393 128t-143 356q0 106 35 229l198 744h316l-207 -772q-23 -78 -23 -172t66 -158q67 -64 195 -64t223 90q94 94 139 267l217 809h315l-229 -854
q-74 -279 -221 -426q-177 -177 -488 -177z" />
    <glyph glyph-name="uhungarumlaut" unicode="&#x171;" horiz-adv-x="1273" 
d="M379 1219l326 362l231 -117l-330 -245h-227zM778 1219l330 362l231 -117l-333 -245h-228zM408 -20q-147 0 -236 86q-88 86 -88 233q0 70 37 209l158 590h311l-162 -602q-14 -53 -14 -99q0 -135 151 -135q91 0 151 58t87 161l166 617h311l-293 -1098h-311l31 115
q-152 -135 -299 -135z" />
    <glyph glyph-name="Uogonek" unicode="&#x172;" horiz-adv-x="1564" 
d="M426 -207q0 90 121 201q-180 35 -281 157q-100 122 -100 310q0 106 35 229l198 744h316l-207 -772q-23 -78 -23 -172t66 -158q67 -64 195 -64t223 90q94 94 139 267l217 809h315l-229 -854q-74 -279 -221 -426q-168 -168 -455 -177q-68 -74 -67 -118q0 -57 120 -58
l-36 -137q-51 -8 -130 -8q-80 0 -138 36t-58 101z" />
    <glyph glyph-name="uogonek" unicode="&#x173;" horiz-adv-x="1273" 
d="M614 -207q0 92 129 207h-67l31 115q-152 -135 -299 -135t-236 86q-88 86 -88 233q0 70 37 209l158 590h311l-162 -602q-14 -53 -14 -99q0 -135 151 -135q91 0 151 58t87 161l166 617h311l-293 -1098h-41q-90 -90 -90 -141q0 -57 121 -58l-37 -137q-51 -8 -130 -8
q-80 0 -138 36t-58 101z" />
    <glyph glyph-name="Wcircumflex" unicode="&#x174;" horiz-adv-x="2269" 
d="M950 1546l342 301h295l182 -301h-229l-131 115l-192 -115h-267zM369 -10l-103 1444h328l37 -971l577 975h271l65 -975l557 971h357l-877 -1444h-293l-69 919l-562 -919h-288z" />
    <glyph glyph-name="wcircumflex" unicode="&#x175;" horiz-adv-x="1755" 
d="M633 1219l338 321h295l166 -321h-226l-125 135l-198 -135h-250zM223 -8l-41 1106h316l-2 -666l385 670h268l29 -672l360 668h309l-639 -1106h-280l-31 674l-395 -674h-279z" />
    <glyph glyph-name="Ycircumflex" unicode="&#x176;" horiz-adv-x="1331" 
d="M477 1546l342 301h295l182 -301h-229l-131 115l-193 -115h-266zM346 0l152 565l-297 869h350l168 -594l491 594h381l-784 -897l-145 -537h-316z" />
    <glyph glyph-name="ycircumflex" unicode="&#x177;" horiz-adv-x="1212" 
d="M354 1219l338 321h295l166 -321h-225l-125 135l-199 -135h-250zM170 -334q-143 0 -252 76l166 225q57 -43 123 -43t119 68l-136 1106h318l51 -746l412 746h336l-680 -1125q-109 -167 -211 -237t-246 -70z" />
    <glyph glyph-name="Ydieresis" unicode="&#x178;" horiz-adv-x="1331" 
d="M530 1546l72 260h299l-72 -260h-299zM977 1546l72 260h299l-72 -260h-299zM346 0l152 565l-297 869h350l168 -594l491 594h381l-784 -897l-145 -537h-316z" />
    <glyph glyph-name="Zacute" unicode="&#x179;" horiz-adv-x="1411" 
d="M813 1546l336 322l260 -117l-334 -205h-262zM-39 0l64 240l1007 917h-737l76 277h1163l-66 -240l-1007 -918h768l-74 -276h-1194z" />
    <glyph glyph-name="zacute" unicode="&#x17a;" horiz-adv-x="1140" 
d="M590 1219l330 362l262 -117l-330 -245h-262zM-55 0l59 219l719 627h-533l68 252h930l-60 -219l-720 -627h559l-68 -252h-954z" />
    <glyph glyph-name="Zdotaccent" unicode="&#x17b;" horiz-adv-x="1411" 
d="M795 1546l71 260h308l-72 -260h-307zM-39 0l64 240l1007 917h-737l76 277h1163l-66 -240l-1007 -918h768l-74 -276h-1194z" />
    <glyph glyph-name="zdotaccent" unicode="&#x17c;" horiz-adv-x="1140" 
d="M565 1219l76 276h307l-76 -276h-307zM-55 0l59 219l719 627h-533l68 252h930l-60 -219l-720 -627h559l-68 -252h-954z" />
    <glyph glyph-name="Zcaron" unicode="&#x17d;" horiz-adv-x="1411" 
d="M1454 1847l-342 -301h-295l-182 301h229l131 -114l193 114h266zM-39 0l64 240l1007 917h-737l76 277h1163l-66 -240l-1007 -918h768l-74 -276h-1194z" />
    <glyph glyph-name="zcaron" unicode="&#x17e;" horiz-adv-x="1140" 
d="M1161 1540l-338 -321h-295l-166 321h226l125 -135l198 135h250zM-55 0l59 219l719 627h-533l68 252h930l-60 -219l-720 -627h559l-68 -252h-954z" />
    <glyph glyph-name="florin" unicode="&#x192;" horiz-adv-x="1112" 
d="M125 -18q-100 0 -184 18l67 250q49 -12 96 -12q94 0 152 127l152 340h-148l70 256h192l78 176q137 315 418 315q152 0 250 -41l-68 -254q-72 33 -160 33q-113 0 -176 -143l-39 -86h246l-70 -256h-290l-193 -435q-127 -288 -393 -288z" />
    <glyph glyph-name="Aringacute" unicode="&#x1fa;" horiz-adv-x="1566" 
d="M928 1506q0 -48 32 -76t90 -29q58 0 99 41t41 89t-32 77q-32 28 -90 28t-100 -41q-40 -41 -40 -89zM981 1802l336 281l260 -117l-334 -164h-262zM629 600h381l-66 473zM803 1491q0 106 75 180t189 74t181 -58t67 -141q0 -137 -111 -209l211 -1337h-323l-45 322h-607
l-217 -322h-340l957 1380q-37 53 -37 111z" />
    <glyph glyph-name="aringacute" unicode="&#x1fb;" horiz-adv-x="1204" 
d="M821 1319q55 0 95 48q40 49 40 105t-30 87q-31 31 -86 31q-56 0 -96 -49q-40 -48 -40 -104t32 -87q30 -31 85 -31zM844 1694q106 0 168 -60t63 -158q1 -100 -75 -181t-182 -81t-170 60q-62 60 -62 158q0 100 76 181t182 81zM481 193q80 1 158 65t104 156l9 28
q-100 39 -202 39t-164 -47q-62 -48 -62 -112q0 -130 157 -129zM813 717q0 129 -207 129q-147 0 -293 -60l-49 246q186 78 406 78t334 -87q113 -87 112 -251q0 -72 -24 -166l-162 -606h-301l33 127q-138 -147 -328 -147q-141 0 -231 82q-89 83 -89 212q0 184 133 290t340 106
q152 0 310 -49q16 56 16 96zM788 1763l326 301l258 -116l-330 -185h-254z" />
    <glyph glyph-name="AEacute" unicode="&#x1fc;" horiz-adv-x="2166" 
d="M1350 1546l336 322l260 -117l-334 -205h-262zM696 600h336l150 561h-39zM-125 0l1157 1434h1254l-76 -281h-717l-78 -293h625l-76 -276h-625l-82 -303h730l-76 -281h-1041l86 322h-483l-256 -322h-342z" />
    <glyph glyph-name="aeacute" unicode="&#x1fd;" horiz-adv-x="1925" 
d="M971 1219l329 362l263 -117l-330 -245h-262zM558 481q-108 0 -172 -47q-62 -46 -62 -112q0 -131 163 -129q76 1 163 37t153 102q-8 43 -12 94q-125 55 -233 55zM1573 707q0 73 -45 117t-142 44t-180 -63q-82 -64 -121 -170h478q10 35 10 72zM813 717q0 129 -207 129
q-147 0 -293 -60l-49 246q186 78 408 78q268 0 360 -162q170 170 383 170t332 -121t119 -307q0 -117 -56 -250h-751q16 -215 250 -215q119 0 243 88l144 -192q-160 -145 -422 -146q-295 0 -418 211q-201 -207 -491 -206q-166 0 -259 79q-92 80 -92 215q0 184 133 290
t340 106q152 0 310 -49q16 56 16 96z" />
    <glyph glyph-name="Oslashacute" unicode="&#x1fe;" horiz-adv-x="1703" 
d="M956 1567l336 321l260 -116l-333 -205h-263zM827 252q219 0 366 174q146 174 146 379q0 76 -22 147l-705 -645q90 -55 215 -55zM453 629q0 -90 28 -166l713 653q-94 66 -229 66q-219 0 -365 -174t-147 -379zM1004 1458q252 0 428 -143l139 129h301l-307 -283
q90 -153 90 -353q-1 -200 -107 -394t-307 -316q-201 -123 -449 -123t-417 131l-127 -116h-301l289 266q-98 156 -98 362t106 401t307 317t453 122z" />
    <glyph glyph-name="oslashacute" unicode="&#x1ff;" horiz-adv-x="1335" 
d="M381 492q0 -37 6 -72l455 414q-57 29 -127 28q-145 0 -239 -118t-95 -252zM621 231q145 0 239 119t94 252q0 43 -10 88l-463 -426q54 -33 140 -33zM694 1219l330 362l262 -117l-330 -245h-262zM86 483q0 250 187 443t448 192q197 0 336 -102l100 92h273l-250 -225
q70 -121 69 -273q0 -250 -187 -442t-448 -193q-211 0 -348 109l-102 -94h-273l256 233q-61 113 -61 260z" />
    <glyph glyph-name="Scommaaccent" unicode="&#x218;" horiz-adv-x="1302" 
d="M203 -608l10 94q170 16 195 147h-132l64 236h283l-54 -199q-39 -142 -129 -208t-237 -70zM604 -20q-420 0 -624 264l237 200q172 -188 401 -188q96 0 158 41t62 101t-50 100t-206 102q-154 62 -247 150t-93 231q0 213 166 343t403 130q338 0 537 -213l-218 -217
q-86 80 -164 117t-176 37t-155 -44t-57 -100t49 -92q49 -34 209 -100t249 -153q88 -87 89 -232q0 -217 -167 -347t-403 -130z" />
    <glyph glyph-name="scommaaccent" unicode="&#x219;" 
d="M57 -598l11 94q170 16 194 148h-131l64 235h282l-53 -198q-40 -143 -130 -209t-237 -70zM444 -25q-133 -1 -267 51t-226 148l180 186q147 -147 336 -147q131 0 131 96q0 47 -127 103q-246 104 -296 209q-24 49 -23 112q0 168 119 277q120 109 321 108q125 0 242 -46
t190 -111l-168 -197q-147 117 -287 117q-57 0 -89 -25t-32 -62q0 -38 36 -62q34 -24 106 -56q232 -105 280 -203q25 -49 25 -111q0 -178 -126 -282t-325 -105z" />
    <glyph glyph-name="schwa" unicode="&#x259;" horiz-adv-x="1243" 
d="M538 229q96 -1 180 63t122 171h-478q-10 -35 -10 -72q0 -72 45 -117t141 -45zM59 408q0 117 56 249h751q-16 215 -250 215q-119 0 -243 -88l-144 193q174 145 417 145t378 -130t135 -357q0 -162 -79 -310t-231 -247q-153 -98 -351 -98t-319 120q-120 120 -120 308z" />
    <glyph glyph-name="circumflex" unicode="&#x2c6;" 
d="M293 1219l338 321h295l166 -321h-226l-125 135l-198 -135h-250z" />
    <glyph glyph-name="caron" unicode="&#x2c7;" 
d="M1169 1540l-338 -321h-294l-166 321h225l125 -135l199 135h249z" />
    <glyph glyph-name="breve" unicode="&#x2d8;" 
d="M719 1214q-168 0 -252 92t-80 234h213q4 -53 40 -88t106 -35t116 32q47 32 86 91h215q-49 -146 -163 -236t-281 -90z" />
    <glyph glyph-name="dotaccent" unicode="&#x2d9;" 
d="M541 1219l75 276h308l-76 -276h-307z" />
    <glyph glyph-name="ring" unicode="&#x2da;" 
d="M629 1437q1 -56 31 -87t85 -31t96 48q40 49 40 105t-31 87t-86 31t-95 -49q-40 -48 -40 -104zM768 1694q106 0 168 -60t63 -158q1 -100 -75 -181t-182 -81t-170 60q-62 60 -62 158q0 100 76 181t182 81z" />
    <glyph glyph-name="ogonek" unicode="&#x2db;" 
d="M172 -207q0 98 154 227h198q-111 -111 -110 -161q0 -57 121 -58l-37 -137q-51 -8 -130 -8q-80 0 -138 36t-58 101z" />
    <glyph glyph-name="tilde" unicode="&#x2dc;" 
d="M563 1532q85 0 181 -40t133 -40q38 0 66 24t63 76l165 -55q-63 -143 -128 -211t-149 -68t-181 40q-96 40 -134 40t-66 -23q-27 -24 -62 -77l-166 55q63 143 128 211t150 68z" />
    <glyph glyph-name="hungarumlaut" unicode="&#x2dd;" 
d="M252 1219l326 362l231 -117l-330 -245h-227zM651 1219l330 362l231 -117l-333 -245h-228z" />
    <glyph glyph-name="commaaccent" unicode="&#x326;" 
d="M61 -598l11 94q170 16 194 148h-131l64 235h282l-53 -198q-40 -143 -130 -209t-237 -70z" />
    <glyph glyph-name="Wgrave" unicode="&#x1e80;" horiz-adv-x="2269" 
d="M1305 1868l159 -322h-213l-223 205zM369 -10l-103 1444h328l37 -971l577 975h271l65 -975l557 971h357l-877 -1444h-293l-69 919l-562 -919h-288z" />
    <glyph glyph-name="wgrave" unicode="&#x1e81;" horiz-adv-x="1755" 
d="M922 1219l-195 245l274 117l134 -362h-213zM223 -8l-41 1106h316l-2 -666l385 670h268l29 -672l360 668h309l-639 -1106h-280l-31 674l-395 -674h-279z" />
    <glyph glyph-name="Wacute" unicode="&#x1e82;" horiz-adv-x="2269" 
d="M1241 1546l336 322l260 -117l-334 -205h-262zM369 -10l-103 1444h328l37 -971l577 975h271l65 -975l557 971h357l-877 -1444h-293l-69 919l-562 -919h-288z" />
    <glyph glyph-name="wacute" unicode="&#x1e83;" horiz-adv-x="1755" 
d="M915 1219l330 362l262 -117l-329 -245h-263zM223 -8l-41 1106h316l-2 -666l385 670h268l29 -672l360 668h309l-639 -1106h-280l-31 674l-395 -674h-279z" />
    <glyph glyph-name="Wdieresis" unicode="&#x1e84;" horiz-adv-x="2269" 
d="M1004 1546l71 260h299l-71 -260h-299zM1450 1546l72 260h299l-72 -260h-299zM369 -10l-103 1444h328l37 -971l577 975h271l65 -975l557 971h357l-877 -1444h-293l-69 919l-562 -919h-288z" />
    <glyph glyph-name="wdieresis" unicode="&#x1e85;" horiz-adv-x="1755" 
d="M676 1219l76 276h299l-76 -276h-299zM1114 1219l76 276h299l-76 -276h-299zM223 -8l-41 1106h316l-2 -666l385 670h268l29 -672l360 668h309l-639 -1106h-280l-31 674l-395 -674h-279z" />
    <glyph glyph-name="Ygrave" unicode="&#x1ef2;" horiz-adv-x="1331" 
d="M831 1868l160 -322h-213l-223 205zM346 0l152 565l-297 869h350l168 -594l491 594h381l-784 -897l-145 -537h-316z" />
    <glyph glyph-name="ygrave" unicode="&#x1ef3;" horiz-adv-x="1212" 
d="M645 1219l-194 245l274 117l133 -362h-213zM170 -334q-143 0 -252 76l166 225q57 -43 123 -43t119 68l-136 1106h318l51 -746l412 746h336l-680 -1125q-109 -167 -211 -237t-246 -70z" />
    <glyph glyph-name="enspace" unicode="&#x2002;" 
 />
    <glyph glyph-name="emspace" unicode="&#x2003;" horiz-adv-x="2048" 
 />
    <glyph glyph-name="threeperemspace" unicode="&#x2004;" horiz-adv-x="681" 
 />
    <glyph glyph-name="fourperemspace" unicode="&#x2005;" horiz-adv-x="512" 
 />
    <glyph glyph-name="thinspace" unicode="&#x2009;" horiz-adv-x="272" 
 />
    <glyph glyph-name="hairspace" unicode="&#x200a;" horiz-adv-x="153" 
 />
    <glyph glyph-name="endash" unicode="&#x2013;" horiz-adv-x="1087" 
d="M90 489l78 291h876l-77 -291h-877z" />
    <glyph glyph-name="emdash" unicode="&#x2014;" horiz-adv-x="1845" 
d="M90 489l78 291h1634l-78 -291h-1634z" />
    <glyph glyph-name="quoteleft" unicode="&#x2018;" horiz-adv-x="653" 
d="M190 786l74 277q53 199 166 289t299 94l21 -129q-233 -20 -267 -203h127l-88 -328h-332z" />
    <glyph glyph-name="quoteright" unicode="&#x2019;" horiz-adv-x="653" 
d="M178 774l-20 129q233 20 266 203h-127l88 328h332l-74 -277q-53 -199 -166 -289t-299 -94z" />
    <glyph glyph-name="quotesinglbase" unicode="&#x201a;" horiz-adv-x="653" 
d="M-104 -332l-21 129q233 20 266 203h-127l88 328h332l-74 -277q-54 -199 -166 -289t-298 -94z" />
    <glyph glyph-name="quotedblleft" unicode="&#x201c;" horiz-adv-x="1173" 
d="M193 784l73 277q53 199 166 289t299 94l21 -129q-233 -20 -267 -203h127l-88 -328h-331zM713 784l73 277q53 199 166 289t299 94l21 -129q-233 -20 -266 -203h127l-89 -328h-331z" />
    <glyph glyph-name="quotedblright" unicode="&#x201d;" horiz-adv-x="1173" 
d="M180 774l-20 129q233 20 266 203h-127l88 328h332l-74 -277q-53 -199 -166 -289t-299 -94zM700 774l-20 129q233 20 266 203h-127l88 328h332l-74 -277q-53 -199 -166 -289t-299 -94z" />
    <glyph glyph-name="quotedblbase" unicode="&#x201e;" horiz-adv-x="1173" 
d="M-104 -332l-21 129q233 20 266 203h-127l88 328h332l-74 -277q-54 -199 -166 -289t-298 -94zM416 -332l-21 129q233 20 267 203h-127l88 328h331l-73 -277q-53 -199 -166 -289t-299 -94z" />
    <glyph glyph-name="dagger" unicode="&#x2020;" horiz-adv-x="843" 
d="M319 487l168 553l-251 -20l47 170l237 -21l45 265h189l-99 -265l250 21l-47 -170l-240 20l-126 -553h-173z" />
    <glyph glyph-name="daggerdbl" unicode="&#x2021;" horiz-adv-x="843" 
d="M180 0l99 264l-250 -20l45 170l237 -21l70 324l104 323l-249 -20l47 170l237 -21l45 265h189l-99 -265l250 21l-47 -170l-237 20l-68 -323l-107 -324l250 21l-45 -170l-237 20l-45 -264h-189z" />
    <glyph glyph-name="bullet" unicode="&#x2022;" 
d="M504 410q-111 0 -174 64t-64 173q0 147 98 268t246 121q111 0 174 -64t64 -173q0 -147 -98 -269q-99 -120 -246 -120z" />
    <glyph glyph-name="ellipsis" unicode="&#x2026;" horiz-adv-x="1785" 
d="M14 0l86 319h324l-86 -319h-324zM586 0l86 319h323l-86 -319h-323zM1157 0l86 319h324l-86 -319h-324z" />
    <glyph glyph-name="perthousand" unicode="&#x2030;" horiz-adv-x="2637" 
d="M1206 307q0 -145 138 -145q70 0 121 76q53 76 53 154t-34 116q-34 39 -104 39t-122 -76t-52 -164zM2353 392q1 156 -137 155q-70 0 -122 -76t-52 -164q0 -145 138 -145q70 0 121 76q52 76 52 154zM684 1116q0 156 -138 156q-70 0 -121 -76q-52 -76 -52 -164
q-1 -145 137 -145q70 0 122 76q52 75 52 153zM1718 398q0 -154 -112 -284t-270 -130q-156 0 -243 87t-87 241t112 283q114 130 270 130t243 -87q87 -86 87 -240zM2223 725q155 0 243 -87q88 -86 88 -240t-112 -284t-270 -130q-156 0 -244 87q-87 87 -87 241t113 283
q113 130 269 130zM123 0l1378 1434h266l-1378 -1434h-266zM502 709q-156 0 -243 87q-87 86 -87 240t113 284t269 130t244 -87t87 -241q0 -154 -113 -283q-114 -130 -270 -130z" />
    <glyph glyph-name="guilsinglleft" unicode="&#x2039;" horiz-adv-x="763" 
d="M315 63l-221 459l4 17l486 477l178 -164l-361 -350l164 -328z" />
    <glyph glyph-name="guilsinglright" unicode="&#x203a;" horiz-adv-x="763" 
d="M176 63l-178 164l360 351l-163 327l249 111l222 -459l-4 -16z" />
    <glyph glyph-name="fraction" unicode="&#x2044;" horiz-adv-x="1064" 
d="M-283 -201l1424 1753h274l-1423 -1753h-275z" />
    <glyph glyph-name="Euro" unicode="&#x20ac;" horiz-adv-x="1474" 
d="M811 -25q-231 0 -380 126q-148 126 -177 343h-205l55 207h154q10 78 27 140h-144l56 206h149q92 209 266 335t404 126q399 0 518 -334l-268 -133q-46 96 -104 139t-163 44q-193 0 -301 -177h396l-56 -206h-417q-20 -55 -35 -140h415l-55 -207h-362q18 -90 82 -137
t150 -47q87 0 153 34t137 109l213 -184q-203 -244 -508 -244z" />
    <glyph glyph-name="published" unicode="&#x2117;" horiz-adv-x="1699" 
d="M797 727h135q63 0 100 34t37 85v4q0 55 -38 87t-103 32h-131v-242zM621 336v788h323q139 0 221 -74t82 -198v-4q0 -131 -90 -203t-229 -72h-131v-237h-176zM891 57q279 0 468 193t189 467v4q0 275 -187 465t-466 190t-468 -192t-189 -467v-4q0 -274 187 -465t466 -191z
M891 -25q-309 0 -524 216t-215 522v4q0 305 217 523t526 218t524 -216t215 -521v-4q0 -305 -217 -523t-526 -219z" />
    <glyph glyph-name="servicemark" unicode="&#x2120;" horiz-adv-x="1439" 
d="M410 791q-172 0 -275 116l98 84q82 -88 191 -88q47 1 77 21q29 20 29 51t-22 49q-24 18 -102 49t-115 69t-37 97q0 91 72 149t182 58q147 0 235 -94l-88 -90q-72 72 -161 71q-47 0 -76 -20t-29 -49q0 -28 24 -48q23 -20 101 -51t114 -67t36 -97q0 -96 -72 -153t-182 -57z
M754 803l170 631h143l94 -267l238 267h155l-170 -631h-135l115 426l-248 -277h-12l-100 277l-115 -426h-135z" />
    <glyph glyph-name="trademark" unicode="&#x2122;" horiz-adv-x="1433" 
d="M283 803l135 504h-189l35 127h520l-34 -127h-189l-135 -504h-143zM748 803l170 631h143l94 -267l238 267h155l-170 -631h-135l115 426l-248 -277h-12l-101 277l-114 -426h-135z" />
    <glyph glyph-name="minus" unicode="&#x2212;" horiz-adv-x="1310" 
d="M1180 578h-1033l76 286h1032z" />
    <glyph glyph-name="Q.alt" horiz-adv-x="1703" 
d="M829 266q92 0 181 37l-185 250l260 174l146 -233q96 147 96 310t-96 263t-268 100q-215 0 -357 -169t-141 -350q0 -182 96 -282t268 -100zM793 -25q-293 1 -475 181t-181 454q0 215 107 409q106 195 307 317t448 122q293 0 475 -180t181 -455q0 -340 -244 -590l115 -151
l-260 -172l-95 151q-172 -86 -378 -86z" />
    <glyph glyph-name="a.alt" horiz-adv-x="1380" 
d="M646 242q118 0 218 112t101 269q0 104 -66 169q-67 64 -183 64t-214 -112t-99 -273q0 -105 63 -167q62 -62 180 -62zM492 -20q-172 0 -291 126t-119 345q0 285 183 476t415 191t352 -180l41 160h311l-292 -1098h-312l33 119q-149 -139 -321 -139z" />
    <glyph glyph-name="aacute.alt" horiz-adv-x="1380" 
d="M745 1219l330 362l262 -117l-329 -245h-263zM646 242q118 0 218 112t101 269q0 104 -66 169q-67 64 -183 64t-214 -112t-99 -273q0 -105 63 -167q62 -62 180 -62zM492 -20q-172 0 -291 126t-119 345q0 285 183 476t415 191t352 -180l41 160h311l-292 -1098h-312l33 119
q-149 -139 -321 -139z" />
    <glyph glyph-name="abreve.alt" horiz-adv-x="1380" 
d="M893 1214q-168 0 -252 92t-80 234h213q4 -53 40 -88t106 -35t116 32q47 32 86 91h215q-49 -146 -163 -236t-281 -90zM646 242q118 0 218 112t101 269q0 104 -66 169q-67 64 -183 64t-214 -112t-99 -273q0 -105 63 -167q62 -62 180 -62zM492 -20q-172 0 -291 126t-119 345
q0 285 183 476t415 191t352 -180l41 160h311l-292 -1098h-312l33 119q-149 -139 -321 -139z" />
    <glyph glyph-name="acircumflex.alt" horiz-adv-x="1380" 
d="M463 1219l338 321h295l166 -321h-226l-125 135l-198 -135h-250zM646 242q118 0 218 112t101 269q0 104 -66 169q-67 64 -183 64t-214 -112t-99 -273q0 -105 63 -167q62 -62 180 -62zM492 -20q-172 0 -291 126t-119 345q0 285 183 476t415 191t352 -180l41 160h311
l-292 -1098h-312l33 119q-149 -139 -321 -139z" />
    <glyph glyph-name="adieresis.alt" horiz-adv-x="1380" 
d="M506 1219l76 276h299l-76 -276h-299zM944 1219l76 276h299l-76 -276h-299zM646 242q118 0 218 112t101 269q0 104 -66 169q-67 64 -183 64t-214 -112t-99 -273q0 -105 63 -167q62 -62 180 -62zM492 -20q-172 0 -291 126t-119 345q0 285 183 476t415 191t352 -180l41 160
h311l-292 -1098h-312l33 119q-149 -139 -321 -139z" />
    <glyph glyph-name="agrave.alt" horiz-adv-x="1380" 
d="M752 1219l-195 245l274 117l134 -362h-213zM646 242q118 0 218 112t101 269q0 104 -66 169q-67 64 -183 64t-214 -112t-99 -273q0 -105 63 -167q62 -62 180 -62zM492 -20q-172 0 -291 126t-119 345q0 285 183 476t415 191t352 -180l41 160h311l-292 -1098h-312l33 119
q-149 -139 -321 -139z" />
    <glyph glyph-name="amacron.alt" horiz-adv-x="1380" 
d="M508 1229l57 215h738l-58 -215h-737zM646 242q118 0 218 112t101 269q0 104 -66 169q-67 64 -183 64t-214 -112t-99 -273q0 -105 63 -167q62 -62 180 -62zM492 -20q-172 0 -291 126t-119 345q0 285 183 476t415 191t352 -180l41 160h311l-292 -1098h-312l33 119
q-149 -139 -321 -139z" />
    <glyph glyph-name="aogonek.alt" horiz-adv-x="1380" 
d="M646 242q118 0 218 112t101 269q0 104 -66 169q-67 64 -183 64t-214 -112t-99 -273q0 -105 63 -167q62 -62 180 -62zM719 -207q0 92 129 207h-68l33 119q-149 -139 -321 -139t-291 126t-119 345q0 285 183 476t415 191t352 -180l41 160h311l-292 -1098h-41
q-90 -90 -90 -141q0 -57 120 -58l-37 -137q-52 -8 -130 -8t-136 36t-59 101z" />
    <glyph glyph-name="aring.alt" horiz-adv-x="1380" 
d="M928 1319q55 0 95 48q40 49 40 105t-31 87t-86 31t-95 -49q-40 -48 -40 -104t31 -87t86 -31zM950 1694q106 0 168 -60t64 -158q0 -100 -76 -181t-182 -81t-168 60t-64 158q0 100 76 181t182 81zM646 242q118 0 218 112t101 269q0 104 -66 169q-67 64 -183 64t-214 -112
t-99 -273q0 -105 63 -167q62 -62 180 -62zM492 -20q-172 0 -291 126t-119 345q0 285 183 476t415 191t352 -180l41 160h311l-292 -1098h-312l33 119q-149 -139 -321 -139z" />
    <glyph glyph-name="aring.alt2" horiz-adv-x="1204" 
d="M774 1112q55 0 95 48t40 104t-30 88q-31 30 -86 30t-95 -48t-41 -104q0 -56 31 -87t86 -31zM481 193q80 1 158 65t104 156l9 28q-100 39 -202 39t-164 -47q-62 -48 -62 -112q0 -130 157 -129zM813 717q0 129 -207 129q-147 0 -293 -60l-49 246q141 59 311 74
q-37 49 -36 119q0 102 75 182q76 80 182 80q106 1 170 -59q62 -60 62 -150q0 -133 -108 -209q197 -80 196 -297q0 -72 -24 -166l-162 -606h-301l33 127q-138 -147 -328 -147q-141 0 -231 82q-89 83 -89 212q0 184 133 290t340 106q152 0 310 -49q16 56 16 96z" />
    <glyph glyph-name="aringacute.alt" horiz-adv-x="1380" 
d="M928 1319q55 0 95 48q40 49 40 105t-31 87t-86 31t-95 -49q-40 -48 -40 -104t31 -87t86 -31zM950 1694q106 0 168 -60t64 -158q0 -100 -76 -181t-182 -81t-168 60t-64 158q0 100 76 181t182 81zM646 242q118 0 218 112t101 269q0 104 -66 169q-67 64 -183 64t-214 -112
t-99 -273q0 -105 63 -167q62 -62 180 -62zM492 -20q-172 0 -291 126t-119 345q0 285 183 476t415 191t352 -180l41 160h311l-292 -1098h-312l33 119q-149 -139 -321 -139zM895 1763l326 301l258 -116l-330 -185h-254z" />
    <glyph glyph-name="aringacute.alt2" horiz-adv-x="1204" 
d="M774 1112q55 0 95 48t40 104t-30 88q-31 30 -86 30t-95 -48t-41 -104q0 -56 31 -87t86 -31zM481 193q80 1 158 65t104 156l9 28q-100 39 -202 39t-164 -47q-62 -48 -62 -112q0 -130 157 -129zM813 717q0 129 -207 129q-147 0 -293 -60l-49 246q141 59 311 74
q-37 49 -36 119q0 102 75 182q76 80 182 80q106 1 170 -59q62 -60 62 -150q0 -133 -108 -209q197 -80 196 -297q0 -72 -24 -166l-162 -606h-301l33 127q-138 -147 -328 -147q-141 0 -231 82q-89 83 -89 212q0 184 133 290t340 106q152 0 310 -49q16 56 16 96zM739 1556
l326 302l258 -117l-330 -185h-254z" />
    <glyph glyph-name="atilde.alt" horiz-adv-x="1380" 
d="M741 1532q85 0 181 -40t134 -40t66 24t62 76l166 -55q-63 -143 -128 -211t-150 -68t-181 40t-134 40t-66 -23q-27 -24 -62 -77l-166 55q63 143 128 211t150 68zM646 242q118 0 218 112t101 269q0 104 -66 169q-67 64 -183 64t-214 -112t-99 -273q0 -105 63 -167
q62 -62 180 -62zM492 -20q-172 0 -291 126t-119 345q0 285 183 476t415 191t352 -180l41 160h311l-292 -1098h-312l33 119q-149 -139 -321 -139z" />
    <glyph glyph-name="three.alt" horiz-adv-x="1271" 
d="M524 -25q-383 0 -551 275l234 176q137 -168 340 -168q121 0 191 56t69 130q0 150 -232 150h-155l69 260h166q115 0 193 48t78 134q0 60 -54 100t-139 40t-155 -35t-156 -113l-174 199q225 231 526 231q219 0 347 -108t128 -252q0 -287 -319 -379q82 -33 138 -108t56 -175
q0 -199 -166 -330t-434 -131z" />
    <glyph glyph-name="registered.alt" horiz-adv-x="1699" 
d="M762 748h174q63 0 99 30t36 82v4q0 115 -139 115h-170v-231zM588 344v789h350q158 0 244 -86q66 -66 65 -173v-4q0 -182 -170 -243l193 -283h-203l-168 254h-137v-254h-174zM891 57q279 0 468 193t189 467v4q0 275 -187 465t-466 190t-468 -192t-189 -467v-4
q0 -274 187 -465t466 -191zM891 -25q-309 0 -524 216t-215 522v4q0 305 217 523t526 218t524 -216t215 -521v-4q0 -305 -217 -523t-526 -219z" />
    <glyph glyph-name="NUL" horiz-adv-x="0" 
 />
    <glyph glyph-name="hfjslug" horiz-adv-x="1421" 
d="M872 580q-33 0 -32 34q0 12 9 24t23 11q14 0 24 -11t9 -24q0 -34 -33 -34zM997 612h-22v35h22q20 0 21 -16q-1 -19 -21 -19zM659 823q-33 0 -33 45t33 78l41 -80q-16 -43 -41 -43zM645 1056q0 30 29 29q27 -1 27 -35t-31 -69q-25 45 -25 75zM494 662l28 -97h17l22 70h2
l23 -70h16l29 97h-17l-20 -72h-2l-23 72h-14l-23 -72h-2l-20 72h-16zM270 662v-95h17v66l51 -66h14v95h-16v-66l-51 66h-15zM395 662v-95h70v15h-53v26h47v15h-47v24h53v15h-70zM750 567h16v35l37 60h-19l-26 -46l-27 46h-18l37 -60v-35zM872 565q20 1 34 15q33 33 1 68
q-15 16 -35 16t-34 -16t-14 -34q0 -20 14 -34t34 -15zM1034 631q0 31 -35 31h-41v-95h17v31h24l21 -31h18l-24 35q20 8 20 29zM1071 662v-95h16v25l17 16l31 -41h20l-41 54l37 41h-21l-40 -50h-3v50h-16zM729 1047q0 63 -55 63q-25 0 -41 -18q-35 -39 12 -125
q-47 -37 -47 -83q0 -91 59 -89q39 0 60 49h2l24 -49l25 12l-35 65q13 29 27 80l-27 6q-8 -37 -16 -61h-2l-33 64q47 43 47 86zM985 799q63 0 64 73v281h-33v-281q0 -45 -33 -45q-16 0 -41 11v-31q20 -8 43 -8zM377 1153v-352h31v162h96v-162h31v352h-31v-162h-96v162h-31z
M819 1153v-352h31v160h78v28h-78v135h88v29h-119zM1319 -410h-426l-16 29h-334l-17 -29h-424v621q29 0 48 19q18 19 18 46q0 26 -20 46t-46 20v1135h205l62 161h684l59 -161h207v-1887z" />
    <glyph glyph-name="i.dot" horiz-adv-x="618" 
d="M6 0l295 1098h311l-295 -1098h-311zM326 1219l75 276h328l-76 -276h-327z" />
    <glyph glyph-name="caron.alt" 
d="M915 1495v-6l-233 -420h-123l113 426h243z" />
    <glyph glyph-name="acute.cap" 
d="M551 1546l336 322l260 -117l-334 -205h-262z" />
    <glyph glyph-name="hungarumlaut.cap" 
d="M731 1546l336 322l250 -117l-334 -205h-252zM330 1546l336 322l249 -117l-333 -205h-252z" />
    <glyph glyph-name="grave.cap" 
d="M829 1868l160 -322h-213l-223 205z" />
    <glyph glyph-name="circumflex.cap" 
d="M375 1546l342 301h295l182 -301h-229l-131 115l-193 -115h-266z" />
    <glyph glyph-name="caron.cap" 
d="M1276 1847l-342 -301h-295l-182 301h229l131 -114l193 114h266z" />
    <glyph glyph-name="breve.cap" 
d="M786 1542q-166 0 -250 80t-59 225h199q12 -100 149 -100t203 100h227q-51 -145 -177 -225t-292 -80z" />
    <glyph glyph-name="tilde.cap" 
d="M642 1860q85 0 187 -40q103 -40 141 -40t68 24t62 76l166 -57q-61 -141 -128 -209t-152 -68t-187 40t-140 40t-68 -24t-63 -76l-166 57q61 141 128 209t152 68z" />
    <glyph glyph-name="macron.cap" 
d="M399 1556l60 220h778l-59 -220h-779z" />
    <glyph glyph-name="dieresis.cap" 
d="M414 1546l71 260h299l-71 -260h-299zM860 1546l72 260h299l-72 -260h-299z" />
    <glyph glyph-name="dotaccent.cap" 
d="M631 1546l71 260h308l-72 -260h-307z" />
    <glyph glyph-name="ring.cap" 
d="M504 1649q58 0 98 41t41 89q0 49 -32 77q-33 28 -91 28t-98 -41t-41 -89q0 -48 32 -76q33 -28 91 -29zM504 1540q-114 0 -182 58q-66 58 -66 152t75 169q75 74 189 74q114 -1 182 -59q66 -58 66 -152t-75 -168t-189 -74z" />
    </font>
</defs>
</svg>
