<?xml version="1.0" standalone="no"?>
<!DOCTYPE svg PUBLIC "-//W3C//DTD SVG 1.1//EN" "http://www.w3.org/Graphics/SVG/1.1/DTD/svg11.dtd" >
<svg xmlns="http://www.w3.org/2000/svg">
<metadata>
Created by FontPrep 20130207 at Wed Dec 14 14:35:21 2016
 By Denis Valcke
Copyright (C) 2000, 2007 Hoefler &#38; Frere-Jones. http://www.typography.com
</metadata>
<defs>
<font id="aabee2733b9e804ef6d288e82f81e260" horiz-adv-x='1024' >
  <font-face 
    font-family="Gotham-LightItalic"
    font-weight="300"
    font-style="italic"
    font-stretch="normal"
    units-per-em="2048"
    panose-1="0 0 0 0 0 0 0 0 0 0"
    ascent="1638"
    descent="-410"
    x-height="1044"
    cap-height="1434"
    bbox="-248 -461 2470 2019"
    underline-thickness="102"
    underline-position="-102"
    slope="-15"
    unicode-range="U+0020-FB04"
  />
<missing-glyph 
d="M512 492l-367 -799h734zM922 1384l-353 -770l353 -770v1540zM102 -156l353 770l-353 770v-1540zM145 1536l367 -799l367 799h-734zM0 -410v2048h1024v-2048h-1024z" />
    <glyph glyph-name="f_f" unicode="ff" horiz-adv-x="1482" 
d="M768 1495q117 0 209 -49l-25 -90q-104 49 -188 49q-176 0 -236 -231l-34 -130h376l-24 -92h-377l-256 -952h-100l256 952h-152l25 92h151l41 152q80 299 334 299zM1509 1495q117 0 209 -49l-24 -90q-104 49 -189 49q-174 0 -235 -231l-35 -130h377l-25 -92h-377
l-256 -952h-100l256 952h-152l25 92h152l41 152q80 299 333 299z" />
    <glyph glyph-name="fi" unicode="fi" horiz-adv-x="1253" 
d="M807 0l280 1044h101l-281 -1044h-100zM768 1495q117 0 209 -49l-25 -90q-104 49 -188 49q-176 0 -236 -231l-34 -130h376l-24 -92h-377l-256 -952h-100l256 952h-152l25 92h151l41 152q80 299 334 299zM1149 1317l37 137h125l-37 -137h-125z" />
    <glyph glyph-name="fl" unicode="fl" horiz-adv-x="1253" 
d="M768 1495q117 0 209 -49l-25 -90q-104 49 -188 49q-176 0 -236 -231l-34 -130h376l-24 -92h-377l-256 -952h-100l256 952h-152l25 92h151l41 152q80 299 334 299zM807 0l401 1495h101l-402 -1495h-100z" />
    <glyph glyph-name="f_f_i" unicode="ffi" horiz-adv-x="1994" 
d="M1548 0l281 1044h100l-280 -1044h-101zM768 1495q117 0 209 -49l-25 -90q-104 49 -188 49q-176 0 -236 -231l-34 -130h376l-24 -92h-377l-256 -952h-100l256 952h-152l25 92h151l41 152q80 299 334 299zM1509 1495q117 0 209 -49l-24 -90q-104 49 -189 49
q-174 0 -235 -231l-35 -130h377l-25 -92h-377l-256 -952h-100l256 952h-152l25 92h152l41 152q80 299 333 299zM1890 1317l37 137h125l-37 -137h-125z" />
    <glyph glyph-name="f_f_l" unicode="ffl" horiz-adv-x="1994" 
d="M768 1495q117 0 209 -49l-25 -90q-104 49 -188 49q-176 0 -236 -231l-34 -130h376l-24 -92h-377l-256 -952h-100l256 952h-152l25 92h151l41 152q80 299 334 299zM1509 1495q117 0 209 -49l-24 -90q-104 49 -189 49q-174 0 -235 -231l-35 -130h377l-25 -92h-377
l-256 -952h-100l256 952h-152l25 92h152l41 152q80 299 333 299zM1548 0l402 1495h100l-401 -1495h-101z" />
    <glyph glyph-name=".notdef" 
d="M512 492l-367 -799h734zM922 1384l-353 -770l353 -770v1540zM102 -156l353 770l-353 770v-1540zM145 1536l367 -799l367 799h-734zM0 -410v2048h1024v-2048h-1024z" />
    <glyph glyph-name=".null" horiz-adv-x="0" 
 />
    <glyph glyph-name="nonmarkingreturn" horiz-adv-x="681" 
 />
    <glyph glyph-name="space" unicode=" " horiz-adv-x="614" 
 />
    <glyph glyph-name="exclam" unicode="!" horiz-adv-x="514" 
d="M49 0l47 174h135l-47 -174h-135zM188 375l215 915l39 144h119l-39 -144l-276 -915h-58z" />
    <glyph glyph-name="quotedbl" unicode="&#x22;" horiz-adv-x="839" 
d="M526 1434v-11l-260 -510h-59l190 521h129zM895 1434v-11l-260 -510h-60l191 521h129z" />
    <glyph glyph-name="numbersign" unicode="#" horiz-adv-x="1388" 
d="M453 479h421l170 484h-423zM186 0l133 383h-247l24 96h256l170 484h-272l24 96h281l131 375h98l-131 -375h424l131 375h99l-131 -375h247l-24 -96h-256l-170 -484h272l-24 -96h-281l-133 -383h-98l133 383h-424l-133 -383h-99z" />
    <glyph glyph-name="dollar" unicode="$" horiz-adv-x="1265" 
d="M381 1061q0 -90 64 -149q65 -58 221 -115l145 536q-178 25 -304 -57t-126 -215zM995 395q0 87 -61 149t-211 122l-154 -570q184 -6 305 78t121 221zM272 1051q0 163 136 273t340 110q33 0 90 -4l32 122h101l-37 -137q207 -39 352 -182l-74 -74q-125 125 -313 164
l-149 -557q188 -68 271 -152t83 -208q0 -176 -146 -291t-376 -115h-39l-54 -201h-100l57 211q-279 43 -448 240l78 67q152 -176 405 -213l158 590q-201 76 -284 155t-83 202z" />
    <glyph glyph-name="percent" unicode="%" horiz-adv-x="1681" 
d="M1495 408q-1 232 -201 231q-102 0 -186 -110t-84 -224q0 -231 200 -231q102 0 187 110q84 110 84 224zM291 1028q1 -231 201 -231q102 -1 186 109t84 224q0 232 -201 232q-103 0 -187 -110t-83 -224zM1204 -14q-123 0 -202 85t-78 208q0 176 114 312q115 136 277 136
q123 0 202 -85t78 -208q-1 -176 -115 -312t-276 -136zM133 0l1397 1434h123l-1397 -1434h-123zM471 709q-123 0 -202 85t-79 207q0 177 115 313t277 136q124 0 202 -85t78 -208q0 -176 -114 -312t-277 -136z" />
    <glyph glyph-name="ampersand" unicode="&#x26;" horiz-adv-x="1413" 
d="M485 74q238 0 457 215l-326 461q-224 -54 -334 -160t-110 -236t85 -206q85 -74 228 -74zM840 1368q-108 0 -187 -79q-169 -167 15 -447q410 106 409 315q0 94 -64 153q-65 58 -173 58zM464 -20q-167 0 -284 96t-117 266t128 296t374 187q-96 156 -96 273q0 154 112 257
q113 103 265 103t244 -82t92 -215q0 -268 -463 -393l291 -412q119 135 237 342l80 -47q-139 -229 -260 -364l184 -262l-80 -54l-174 248q-125 -123 -245 -181t-288 -58z" />
    <glyph glyph-name="quotesingle" unicode="'" horiz-adv-x="471" 
d="M526 1434v-11l-260 -510h-59l190 521h129z" />
    <glyph glyph-name="parenleft" unicode="(" horiz-adv-x="880" 
d="M203 446q0 314 204 588t607 439l35 -76q-392 -169 -566 -422t-174 -526q0 -211 80 -368t227 -308l-57 -60q-356 317 -356 733z" />
    <glyph glyph-name="parenright" unicode=")" horiz-adv-x="880" 
d="M608 739q0 211 -80 368t-227 308l57 60q356 -317 357 -734q0 -315 -204 -589t-607 -437l-35 76q557 240 698 684q41 129 41 264z" />
    <glyph glyph-name="asterisk" unicode="*" horiz-adv-x="880" 
d="M553 831l-84 21l86 248l-248 -86l-24 84l264 49l-205 172l64 61l172 -198l49 256l84 -21l-86 -248l247 86l25 -84l-264 -49l205 -172l-64 -61l-172 198z" />
    <glyph glyph-name="plus" unicode="+" horiz-adv-x="1269" 
d="M506 231l119 441h-445l27 98h444l119 440h102l-118 -440h444l-27 -98h-444l-119 -441h-102z" />
    <glyph glyph-name="comma" unicode="," horiz-adv-x="473" 
d="M-66 -217l-14 49q141 49 164 168h-55l47 174h135l-41 -151q-31 -106 -82 -159q-52 -52 -154 -81z" />
    <glyph glyph-name="hyphen" unicode="-" horiz-adv-x="837" 
d="M152 551l30 115h549l-31 -115h-548z" />
    <glyph glyph-name="period" unicode="." horiz-adv-x="473" 
d="M29 0l47 174h135l-47 -174h-135z" />
    <glyph glyph-name="slash" unicode="/" 
d="M-248 -262l1467 1896h110l-1466 -1896h-111z" />
    <glyph glyph-name="zero" unicode="0" horiz-adv-x="1452" 
d="M646 72q171 0 317 125q145 125 229 321t84 396t-98 324t-270 124t-316 -125q-146 -125 -230 -321t-84 -396t99 -324q98 -124 269 -124zM917 1458q217 0 343 -148t126 -384t-94 -454t-266 -358t-389 -139t-343 149t-126 384t94 454t266 357t389 139z" />
    <glyph glyph-name="one" unicode="1" horiz-adv-x="684" 
d="M190 0l355 1321l-301 -94l-4 96l360 121h84l-387 -1444h-107z" />
    <glyph glyph-name="two" unicode="2" horiz-adv-x="1204" 
d="M1087 1116q1 102 -81 172t-226 70q-217 0 -409 -205l-76 66q227 236 489 235q182 0 298 -95t116 -247q0 -119 -73 -219t-224 -217l-741 -574h827l-26 -102h-1000l19 80l856 665q131 101 191 185t60 186z" />
    <glyph glyph-name="three" unicode="3" horiz-adv-x="1241" 
d="M512 -25q-178 0 -304 75t-188 206l89 49q121 -233 409 -233q190 0 316 101q124 101 124 247t-107 216q-108 69 -294 69h-59l-23 53l639 575h-768l29 101h921l-20 -76l-629 -567q182 -7 303 -99t121 -252q0 -201 -164 -333t-395 -132z" />
    <glyph glyph-name="four" unicode="4" horiz-adv-x="1320" 
d="M203 442h671l224 832zM756 0l94 350h-776l-17 80l1092 1014h98l-268 -1002h233l-24 -92h-234l-94 -350h-104z" />
    <glyph glyph-name="five" unicode="5" horiz-adv-x="1230" 
d="M516 -25q-313 0 -483 256l88 56q147 -219 401 -219q203 0 333 118t130 272t-96 236t-256 82t-322 -90l-67 53l227 695h774l-28 -103h-680l-177 -526q46 27 132 47t149 20q209 0 332 -108t123 -302q0 -196 -162 -342t-418 -145z" />
    <glyph glyph-name="six" unicode="6" horiz-adv-x="1310" 
d="M291 413q0 -147 97 -245t274 -98t300 118q122 119 121 285q0 127 -92 223t-272 96t-304 -115q-124 -116 -124 -264zM1194 458q0 -188 -156 -336t-377 -147q-221 0 -356 135t-135 378t79 440t208 325q205 205 461 205t415 -190l-78 -68q-143 162 -346 162t-370 -168
q-100 -100 -170 -248t-80 -297q71 106 185 174t261 68q209 0 334 -123q125 -122 125 -310z" />
    <glyph glyph-name="seven" unicode="7" horiz-adv-x="1183" 
d="M164 0l964 1331h-825l29 103h950l-22 -78l-973 -1356h-123z" />
    <glyph glyph-name="eight" unicode="8" horiz-adv-x="1312" 
d="M616 76q194 0 318 89q123 89 123 220t-114 218q-115 87 -309 87t-318 -94t-124 -226t116 -213q114 -81 308 -81zM785 778q173 0 282 91t109 212t-102 199t-271 78q-170 0 -281 -86q-110 -86 -110 -210t100 -204t273 -80zM610 -20q-236 0 -383 108q-145 108 -145 270
t123 268t315 134q-94 34 -156 114t-63 191q-1 165 147 277t359 112t345 -102t134 -256t-106 -253t-265 -128q105 -37 179 -123t73 -201q0 -178 -160 -295q-161 -116 -397 -116z" />
    <glyph glyph-name="nine" unicode="9" horiz-adv-x="1310" 
d="M689 623q181 -1 306 121t125 272t-98 248t-274 98t-298 -122t-124 -290q-2 -131 90 -229t273 -98zM493 -27q-257 0 -425 203l77 68q154 -174 357 -174t370 168q100 98 169 243t81 295q-170 -252 -450 -252q-209 0 -334 125t-123 317t160 341t377 149t354 -135t135 -377
t-79 -440q-79 -197 -208 -326q-204 -205 -461 -205z" />
    <glyph glyph-name="colon" unicode=":" horiz-adv-x="493" 
d="M39 0l47 174h135l-47 -174h-135zM272 870l47 174h136l-47 -174h-136z" />
    <glyph glyph-name="semicolon" unicode=";" horiz-adv-x="493" 
d="M-55 -217l-15 49q141 49 164 168h-55l47 174h135l-41 -151q-31 -107 -82 -159t-153 -81zM272 870l47 174h136l-47 -174h-136z" />
    <glyph glyph-name="less" unicode="&#x3c;" horiz-adv-x="1269" 
d="M987 186l-819 494l22 82l1084 493l-31 -120l-938 -422l711 -426z" />
    <glyph glyph-name="equal" unicode="=" horiz-adv-x="1269" 
d="M145 438l29 105h930l-29 -105h-930zM270 899l27 105h930l-27 -105h-930z" />
    <glyph glyph-name="greater" unicode="&#x3e;" horiz-adv-x="1269" 
d="M100 186l31 121l938 422l-711 426l29 100l819 -493l-22 -82z" />
    <glyph glyph-name="question" unicode="?" horiz-adv-x="1093" 
d="M262 0l47 174h135l-47 -174h-135zM985 1092q0 124 -88 194t-223 70q-221 0 -402 -180l-65 69q207 207 475 207q188 0 300 -100t112 -258q0 -193 -154 -312t-389 -151l-88 -256h-66l62 332l14 10q231 15 371 115t141 260z" />
    <glyph glyph-name="at" unicode="@" horiz-adv-x="2007" 
d="M911 242q156 0 289 132t133 292q1 118 -71 192t-191 74q-159 0 -273 -131t-114 -312q0 -115 64 -181t163 -66zM995 -330q-391 0 -625 220t-235 583q0 259 135 487q136 228 368 363t503 135q371 0 585 -205t216 -518q0 -270 -134 -428t-288 -157q-106 0 -170 54
q-63 54 -78 150q-162 -209 -381 -209q-137 -1 -229 93t-93 247q0 219 154 381t344 162q123 0 202 -62t113 -159l62 201l96 -27l-154 -496q-34 -111 4 -185t150 -75q112 0 220 135q110 135 110 375q0 283 -197 470t-532 188q-381 -1 -657 -275t-277 -645q0 -333 216 -535
t572 -202q221 0 424 92l29 -59q-215 -99 -453 -99z" />
    <glyph glyph-name="A" unicode="A" horiz-adv-x="1554" 
d="M410 498h755l-153 829zM-70 0l1055 1444h102l281 -1444h-108l-74 401h-846l-291 -401h-119z" />
    <glyph glyph-name="B" unicode="B" horiz-adv-x="1468" 
d="M725 98q223 0 352 86t129 238q0 120 -104 186t-275 66h-467l-153 -576h518zM829 772q217 0 349 90q131 90 131 236q0 117 -87 177t-243 60h-440l-152 -563h442zM989 1434q197 0 314 -87t117 -239t-107 -253q-106 -101 -273 -134q123 -33 199 -107t76 -192
q0 -186 -162 -304t-434 -118h-645l385 1434h530z" />
    <glyph glyph-name="C" unicode="C" horiz-adv-x="1511" 
d="M774 -27q-246 0 -416 159q-170 160 -170 406t114 455t313 337q201 128 409 128t342 -85t205 -224l-92 -49q-74 130 -177 196t-264 66q-303 0 -521 -246t-218 -557q0 -223 136 -355t349 -132q152 0 266 54t220 161l71 -66q-237 -248 -567 -248z" />
    <glyph glyph-name="D" unicode="D" horiz-adv-x="1579" 
d="M557 98q389 0 635 246q193 193 192 479q0 221 -133 351q-162 162 -477 161h-235l-332 -1237h350zM780 1434q365 0 557 -193q158 -158 158 -410q0 -332 -223 -555q-130 -132 -320 -204t-409 -72h-469l385 1434h321z" />
    <glyph glyph-name="E" unicode="E" horiz-adv-x="1329" 
d="M74 0l385 1434h1009l-26 -99h-903l-152 -563h811l-27 -98h-811l-153 -576h913l-26 -98h-1020z" />
    <glyph glyph-name="F" unicode="F" horiz-adv-x="1343" 
d="M74 0l385 1434h1009l-26 -99h-903l-158 -587h811l-27 -99h-811l-174 -649h-106z" />
    <glyph glyph-name="G" unicode="G" horiz-adv-x="1609" 
d="M811 -27q-270 0 -444 166t-174 439q1 220 113 422t316 330t445 128q354 0 524 -266l-84 -55q-72 109 -174 167q-101 58 -293 58t-368 -115t-272 -293t-97 -372q0 -238 141 -375t376 -137t411 116l131 459h-477l26 98h582l-176 -616q-236 -154 -506 -154z" />
    <glyph glyph-name="H" unicode="H" horiz-adv-x="1548" 
d="M74 0l385 1434h106l-178 -664h907l179 664h106l-385 -1434h-107l181 672h-908l-180 -672h-106z" />
    <glyph glyph-name="I" unicode="I" horiz-adv-x="561" 
d="M88 0l385 1434h107l-385 -1434h-107z" />
    <glyph glyph-name="J" unicode="J" horiz-adv-x="1101" 
d="M412 -20q-182 0 -282 90q-101 90 -140 239l94 33q82 -266 313 -266q305 0 420 420l252 938h107l-256 -953q-62 -241 -194 -371t-314 -130z" />
    <glyph glyph-name="K" unicode="K" horiz-adv-x="1462" 
d="M74 0l385 1434h106l-250 -932l1147 932h158l-797 -641l434 -793h-122l-400 731l-459 -373l-96 -358h-106z" />
    <glyph glyph-name="L" unicode="L" horiz-adv-x="1228" 
d="M74 0l385 1434h106l-358 -1336h842l-27 -98h-948z" />
    <glyph glyph-name="M" unicode="M" horiz-adv-x="1779" 
d="M74 0l385 1434h88l348 -848l803 848h112l-385 -1434h-106l334 1245l-789 -825h-8l-346 825l-334 -1245h-102z" />
    <glyph glyph-name="N" unicode="N" horiz-adv-x="1609" 
d="M74 0l385 1434h98l645 -1256l338 1256h102l-385 -1434h-77l-660 1282l-344 -1282h-102z" />
    <glyph glyph-name="O" unicode="O" horiz-adv-x="1732" 
d="M307 577q-1 -211 141 -359t353 -148t377 110t259 288q93 177 93 387t-141 358q-141 149 -353 149t-377 -111q-166 -111 -259 -287t-93 -387zM815 -27q-268 -1 -443 177t-175 440q0 221 109 422q110 202 301 324t415 122q268 0 443 -177t175 -439q0 -221 -110 -422
t-300 -324q-192 -123 -415 -123z" />
    <glyph glyph-name="P" unicode="P" horiz-adv-x="1357" 
d="M694 633q289 -1 444 107t154 304q0 117 -73 191q-100 100 -316 100h-364l-189 -702h344zM905 1434q266 0 395 -129q98 -98 99 -256q-1 -242 -191 -377t-518 -135h-364l-146 -537h-106l385 1434h446z" />
    <glyph glyph-name="Q" unicode="Q" horiz-adv-x="1732" 
d="M307 577q-1 -211 141 -359t360 -148t396 129l-239 266l77 67l234 -274q118 112 186 266t68 318q0 223 -141 371q-141 149 -353 149t-377 -111q-166 -111 -259 -287t-93 -387zM803 -27q-256 -1 -431 177t-175 440q0 221 109 422q110 202 301 324t415 122q268 0 443 -177
t175 -439q0 -184 -80 -358t-219 -300l154 -168l-78 -65l-147 174q-211 -152 -467 -152z" />
    <glyph glyph-name="R" unicode="R" horiz-adv-x="1460" 
d="M795 690q305 0 450 146q96 96 96 216t-63 185q-98 98 -309 98h-430l-174 -645h430zM973 1434q258 0 385 -127q90 -90 90 -248t-133 -291t-416 -164l315 -604h-122l-308 594h-444l-160 -594h-106l385 1434h514z" />
    <glyph glyph-name="S" unicode="S" horiz-adv-x="1306" 
d="M612 -20q-377 0 -571 274l82 59q94 -121 213 -179t291 -58t291 89t118 224q0 94 -69 158q-71 63 -271 141t-292 160q-91 82 -91 211q-1 167 143 281t371 114q156 0 286 -60t212 -159l-82 -66q-164 188 -426 189q-178 0 -287 -86q-108 -86 -108 -194t78 -170t274 -137
t283 -160q88 -85 88 -214q0 -177 -152 -297t-381 -120z" />
    <glyph glyph-name="T" unicode="T" horiz-adv-x="1259" 
d="M428 0l358 1335h-499l26 99h1106l-26 -99h-500l-358 -1335h-107z" />
    <glyph glyph-name="U" unicode="U" horiz-adv-x="1548" 
d="M714 -23q-251 0 -384 125t-133 326q0 111 28 221l209 785h107l-222 -834q-18 -74 -18 -164q1 -162 107 -262t311 -100t345 140t208 388l223 832h107l-230 -854q-72 -266 -227 -422q-180 -181 -431 -181z" />
    <glyph glyph-name="V" unicode="V" horiz-adv-x="1462" 
d="M530 -10l-239 1444h110l203 -1319l914 1319h120l-1013 -1444h-95z" />
    <glyph glyph-name="W" unicode="W" horiz-adv-x="2199" 
d="M440 -10l-133 1444h111l108 -1276l762 1280h82l78 -1280l793 1276h118l-907 -1444h-86l-86 1245l-754 -1245h-86z" />
    <glyph glyph-name="X" unicode="X" horiz-adv-x="1417" 
d="M-47 0l749 741l-380 693h114l342 -631l635 631h137l-721 -711l394 -723h-115l-354 662l-664 -662h-137z" />
    <glyph glyph-name="Y" unicode="Y" horiz-adv-x="1368" 
d="M479 0l156 582l-375 852h117l330 -770l745 770h143l-862 -879l-147 -555h-107z" />
    <glyph glyph-name="Z" unicode="Z" horiz-adv-x="1355" 
d="M-39 0l16 59l1303 1278h-926l27 97h1092l-17 -60l-1302 -1278h966l-26 -96h-1133z" />
    <glyph glyph-name="bracketleft" unicode="[" horiz-adv-x="880" 
d="M33 -266l456 1700h560l-23 -78h-465l-414 -1544h465l-20 -78h-559z" />
    <glyph glyph-name="backslash" unicode="\" 
d="M754 -262l-453 1896h90l453 -1896h-90z" />
    <glyph glyph-name="bracketright" unicode="]" horiz-adv-x="880" 
d="M-137 -266l22 78h465l414 1544h-465l20 78h560l-457 -1700h-559z" />
    <glyph glyph-name="asciicircum" unicode="^" 
d="M264 1010l438 430h91l208 -430h-96l-170 342l-354 -342h-117z" />
    <glyph glyph-name="underscore" unicode="_" horiz-adv-x="1228" 
d="M-233 -328l24 90h1239l-24 -90h-1239z" />
    <glyph glyph-name="grave" unicode="`" 
d="M754 1219l-162 211l127 61l106 -272h-71z" />
    <glyph glyph-name="a" unicode="a" horiz-adv-x="1169" 
d="M426 68q136 0 272 97t176 251l25 92q-197 49 -374 49t-274 -77t-97 -186t68 -168q68 -58 204 -58zM389 -25q-141 0 -242 77q-100 77 -100 216q0 172 131 276q132 104 328 103q196 0 414 -59l8 28q14 53 14 105q0 119 -81 182t-229 63t-308 -55l-19 90q166 59 343 59
t285 -86q108 -87 107 -239q0 -59 -20 -137l-160 -598h-98l47 180q-172 -205 -420 -205z" />
    <glyph glyph-name="b" unicode="b" horiz-adv-x="1339" 
d="M635 68q207 0 346 164t139 384q0 160 -90 260t-233 99q-197 0 -360 -168t-163 -375q0 -154 102 -259t259 -105zM639 -27q-162 0 -266 83t-150 210l-71 -266h-101l402 1495h100l-178 -655q193 229 434 229q182 0 301 -124t119 -316q0 -274 -176 -465t-414 -191z" />
    <glyph glyph-name="c" unicode="c" horiz-adv-x="1153" 
d="M557 -25q-182 0 -318 123t-137 328q0 258 184 451t431 192q150 0 253 -72t156 -180l-84 -47q-118 205 -324 205t-357 -164t-150 -379q0 -168 103 -265t249 -97q178 0 338 149l68 -65q-185 -179 -412 -179z" />
    <glyph glyph-name="d" unicode="d" horiz-adv-x="1339" 
d="M543 68q197 0 359 168t163 374q0 154 -101 259t-259 106q-207 0 -347 -164t-139 -385q1 -160 91 -259t233 -99zM530 -27q-182 0 -301 124t-118 317q0 274 176 464t413 191q162 0 266 -83t150 -210l193 719h100l-399 -1495h-101l54 203q-193 -230 -433 -230z" />
    <glyph glyph-name="e" unicode="e" horiz-adv-x="1193" 
d="M692 977q-158 0 -284 -115q-127 -115 -175 -284h758q8 37 8 86q0 135 -74 224q-75 89 -233 89zM211 418q0 -158 96 -253t266 -95t340 139l60 -72q-195 -162 -406 -162t-338 123t-127 316q0 252 178 454t427 201q188 0 291 -115t104 -284q0 -101 -29 -183h-858
q-4 -25 -4 -69z" />
    <glyph glyph-name="f" unicode="f" horiz-adv-x="741" 
d="M768 1495q117 0 209 -49l-25 -90q-104 49 -188 49q-176 0 -236 -231l-34 -130h376l-24 -92h-377l-256 -952h-100l256 952h-152l25 92h151l41 152q80 299 334 299z" />
    <glyph glyph-name="g" unicode="g" horiz-adv-x="1339" 
d="M578 172q196 0 348 144t151 323q0 133 -101 233t-278 100q-178 0 -322 -136q-144 -137 -145 -347q0 -149 103 -233t244 -84zM483 -332q-137 0 -268 52t-225 143l73 74q185 -175 407 -175t339 117q92 92 143 275l37 131q-195 -207 -430 -207q-176 0 -306 112t-130 293
q0 252 180 419t412 167q287 0 407 -278l68 253h100l-243 -915q-55 -203 -164 -311q-150 -150 -400 -150z" />
    <glyph glyph-name="h" unicode="h" horiz-adv-x="1247" 
d="M774 1069q156 0 249 -91t93 -241q0 -57 -22 -147l-156 -590h-100l159 598q16 61 17 129q0 117 -72 185t-203 67q-131 0 -258 -111t-172 -278l-157 -590h-101l402 1495h100l-174 -645q182 219 395 219z" />
    <glyph glyph-name="i" unicode="i" horiz-adv-x="512" 
d="M66 0l280 1044h100l-280 -1044h-100zM408 1317l36 137h125l-37 -137h-124z" />
    <glyph glyph-name="j" unicode="j" horiz-adv-x="509" 
d="M-96 -334q-78 0 -140 21l25 90q57 -16 96 -17q115 0 154 142l307 1142h100l-309 -1150q-29 -108 -92 -168t-141 -60zM408 1317l36 137h125l-37 -137h-124z" />
    <glyph glyph-name="k" unicode="k" horiz-adv-x="1146" 
d="M51 0l402 1495h100l-297 -1108l811 657h145l-581 -466l311 -578h-117l-278 516l-328 -262l-67 -254h-101z" />
    <glyph glyph-name="l" unicode="l" horiz-adv-x="512" 
d="M66 0l401 1495h100l-401 -1495h-100z" />
    <glyph glyph-name="m" unicode="m" horiz-adv-x="1947" 
d="M761 1069q124 0 202 -75t96 -181q156 256 438 256q141 0 233 -93t93 -239q0 -41 -27 -147l-156 -590h-100l160 598q16 61 16 129q0 115 -68 183t-187 69q-121 0 -243 -112t-165 -277l-156 -590h-100l159 598q16 61 17 129q0 115 -68 183q-67 68 -187 69q-120 0 -243 -112
t-166 -277l-157 -590h-101l279 1044h100l-51 -194q88 109 173 164t209 55z" />
    <glyph glyph-name="n" unicode="n" horiz-adv-x="1251" 
d="M774 1069q156 0 249 -91t93 -241q0 -57 -22 -147l-156 -590h-100l159 598q16 61 17 129q0 117 -72 185t-203 67q-131 0 -258 -111t-172 -278l-157 -590h-101l279 1044h100l-51 -194q182 219 395 219z" />
    <glyph glyph-name="o" unicode="o" horiz-adv-x="1296" 
d="M213 442q1 -174 101 -273t280 -99t334 160t153 372q0 174 -100 274t-266 99q-199 0 -351 -162t-151 -371zM569 -25q-207 0 -336 130t-129 333q0 250 186 440t435 191q207 0 336 -130t129 -333q0 -254 -188 -442t-433 -189z" />
    <glyph glyph-name="p" unicode="p" horiz-adv-x="1339" 
d="M635 68q207 0 346 164t139 384q0 160 -90 260t-233 99q-197 0 -360 -168t-163 -375q0 -154 102 -259t259 -105zM809 1069q182 0 301 -124t119 -316q0 -275 -176 -465t-414 -191q-162 0 -266 83t-150 210l-160 -594h-100l367 1372h100l-55 -204q193 229 434 229z" />
    <glyph glyph-name="q" unicode="q" horiz-adv-x="1339" 
d="M543 68q197 0 359 169t163 375q0 154 -101 258t-259 105q-207 0 -347 -164t-139 -385q1 -160 91 -259t233 -99zM700 1069q164 0 268 -83t148 -208l72 266h100l-366 -1372h-101l144 533q-193 -231 -435 -232q-182 0 -301 124t-118 317q0 274 176 464t413 191z" />
    <glyph glyph-name="r" unicode="r" horiz-adv-x="811" 
d="M852 950q-188 0 -355 -141t-231 -381l-114 -428h-101l279 1044h100l-78 -296q236 330 537 313l-29 -111h-8z" />
    <glyph glyph-name="s" unicode="s" horiz-adv-x="1013" 
d="M444 -23q-262 0 -442 181l72 71q166 -160 383 -159q104 0 187 58t83 148q0 62 -48 110q-47 48 -191 101t-213 115t-68 162q0 127 107 215q108 88 280 88q211 0 377 -139l-66 -76q-150 123 -321 123q-125 0 -198 -57t-73 -129t47 -115q47 -44 196 -102q150 -58 214 -121
t64 -158q0 -135 -115 -225t-275 -91z" />
    <glyph glyph-name="t" unicode="t" horiz-adv-x="811" 
d="M404 -18q-94 0 -162 52q-70 52 -70 154q0 47 12 101l178 663h-151l25 92h151l90 334h101l-91 -334h361l-25 -92h-360l-178 -665q-10 -45 -11 -88q0 -125 170 -125q66 0 152 32l-27 -98q-71 -26 -165 -26z" />
    <glyph glyph-name="u" unicode="u" horiz-adv-x="1247" 
d="M473 -25q-156 -1 -249 91t-93 241q0 57 23 148l155 589h101l-160 -598q-16 -61 -17 -129q0 -117 72 -185t203 -66q131 0 258 110t172 279l158 589h100l-278 -1044h-101l51 195q-182 -220 -395 -220z" />
    <glyph glyph-name="v" unicode="v" horiz-adv-x="1140" 
d="M367 -8l-185 1052h109l145 -931l641 931h121l-745 -1052h-86z" />
    <glyph glyph-name="w" unicode="w" horiz-adv-x="1730" 
d="M303 -8l-100 1052h102l76 -909l559 914h80l72 -914l563 909h110l-665 -1052h-88l-72 895l-553 -895h-84z" />
    <glyph glyph-name="x" unicode="x" horiz-adv-x="1144" 
d="M-59 0l581 541l-276 503h114l230 -440l459 440h135l-549 -512l289 -532h-115l-242 469l-491 -469h-135z" />
    <glyph glyph-name="y" unicode="y" horiz-adv-x="1163" 
d="M39 -334q-117 0 -219 72l55 82q74 -60 167 -60t172 56t173 190l-213 1038h107l182 -933l629 933h120l-743 -1081q-111 -161 -212 -229t-218 -68z" />
    <glyph glyph-name="z" unicode="z" horiz-adv-x="1118" 
d="M-35 0l17 57l972 897h-704l24 90h869l-17 -57l-972 -897h739l-25 -90h-903z" />
    <glyph glyph-name="braceleft" unicode="{" horiz-adv-x="983" 
d="M315 53q1 74 33 193t33 166q0 137 -195 137h-53l21 78h53q159 0 231 83t115 299q43 215 163 327t392 128l-6 -75q-214 -13 -314 -109t-139 -297t-107 -289t-204 -110q141 -43 141 -170q1 -55 -31 -163t-32 -190q0 -217 252 -286l-29 -64q-168 37 -246 129t-78 213z" />
    <glyph glyph-name="bar" unicode="|" horiz-adv-x="585" 
d="M289 -262v1896h90v-1896h-90z" />
    <glyph glyph-name="braceright" unicode="}" horiz-adv-x="983" 
d="M539 762q-1 55 31 163t32 189q0 217 -252 287l29 63q168 -37 246 -129t77 -213q0 -74 -32 -192t-33 -166q0 -137 194 -137h54l-21 -78h-53q-159 0 -231 -83t-116 -299t-163 -328t-391 -128l6 76q215 13 314 109q98 96 138 296t108 289q69 88 204 111q-141 43 -141 170z
" />
    <glyph glyph-name="asciitilde" unicode="~" horiz-adv-x="942" 
d="M825 688q-97 -196 -201 -196q-52 0 -80 16t-80 66t-85 50t-59 -28t-64 -94l-78 30q98 197 202 197q52 0 80 -16q28 -17 80 -67t84 -50q34 0 60 28t64 95z" />
    <glyph glyph-name="uni00A0" unicode="&#xa0;" horiz-adv-x="614" 
 />
    <glyph glyph-name="exclamdown" unicode="&#xa1;" horiz-adv-x="514" 
d="M57 0l39 143l277 916h57l-215 -916l-39 -143h-119zM387 1260l47 174h135l-47 -174h-135z" />
    <glyph glyph-name="cent" unicode="&#xa2;" horiz-adv-x="1142" 
d="M772 1178q-210 0 -360 -164t-150 -391q0 -111 51 -196t144 -124l344 875h-29zM778 1272q37 0 56 -2l69 176h103l-78 -193q195 -49 276 -231l-84 -47q-86 156 -233 190l-348 -886q35 -6 73 -7q201 0 367 150l68 -66q-193 -178 -441 -178q-45 0 -96 10l-80 -200h-102
l90 227q-121 51 -193 160t-71 246q0 267 184 459t440 192z" />
    <glyph glyph-name="sterling" unicode="&#xa3;" horiz-adv-x="1277" 
d="M936 1448q258 0 381 -225l-88 -54q-113 182 -299 183q-146 0 -244 -98t-147 -281l-68 -250h610l-26 -98h-611l-141 -529h766l-27 -96h-1046l14 51l187 41l143 533h-176l26 98h177l71 268q55 209 164 318q139 139 334 139z" />
    <glyph glyph-name="yen" unicode="&#xa5;" horiz-adv-x="1433" 
d="M514 0l68 256h-430l24 92h430l53 201h-430l25 92h389l-348 793h121l329 -770l746 770h139l-778 -793h377l-25 -92h-438l-53 -201h438l-25 -92h-438l-67 -256h-107z" />
    <glyph glyph-name="section" unicode="&#xa7;" horiz-adv-x="1294" 
d="M291 758q0 -68 62 -114q61 -48 197 -95t258 -47t208 53t86 121t-62 114q-62 48 -200 95t-258 47t-205 -53q-86 -53 -86 -121zM961 238q-1 -122 -107 -190t-252 -68t-270 48q-123 48 -195 119l68 76q68 -63 174 -107q107 -44 219 -44t184 44t72 111t-66 115t-245 110
t-269 128t-90 161q0 119 115 191t291 72q-158 70 -158 192t106 190t254 68q146 0 269 -48t194 -120l-67 -76q-68 64 -174 108t-219 44t-185 -44t-72 -112t66 -114q66 -47 245 -110q179 -62 269 -128t90 -174t-114 -178q-114 -72 -291 -72q158 -70 158 -192z" />
    <glyph glyph-name="dieresis" unicode="&#xa8;" 
d="M436 1219l45 163h142l-45 -163h-142zM770 1219l45 163h141l-45 -163h-141z" />
    <glyph glyph-name="copyright" unicode="&#xa9;" horiz-adv-x="1699" 
d="M910 340q-158 0 -266 113t-107 272v4q1 159 109 273t266 114t288 -125l-61 -63q-111 106 -231 106t-200 -89t-81 -214v-4q0 -125 83 -215q84 -90 204 -90t233 106l57 -57q-135 -131 -294 -131zM899 33q289 -1 485 199t197 485v4q0 283 -195 481q-196 198 -484 199
q-288 0 -484 -200t-197 -484v-4q1 -283 195 -481t483 -199zM899 -25q-309 0 -524 216t-215 522v4q0 305 217 523t526 218t524 -216t215 -521v-4q0 -305 -217 -523t-526 -219z" />
    <glyph glyph-name="ordfeminine" unicode="&#xaa;" horiz-adv-x="798" 
d="M303 1012q-1 -106 123 -107q64 1 140 57t96 132l8 28q-102 25 -184 25t-132 -41q-51 -40 -51 -94zM119 600l20 82h500l-21 -82h-499zM696 1247q0 119 -159 119q-78 0 -164 -31l-15 72q98 35 200 35t161 -48t59 -132q0 -27 -12 -80l-88 -330h-82l29 102
q-105 -114 -234 -114q-74 0 -124 42t-50 126t75 142q75 60 174 60t218 -30q12 36 12 67z" />
    <glyph glyph-name="guillemotleft" unicode="&#xab;" horiz-adv-x="1054" 
d="M305 86l-213 428l4 16l443 428l73 -57l-393 -393l170 -377zM723 86l-213 428l4 16l442 428l74 -57l-393 -393l170 -377z" />
    <glyph glyph-name="registered" unicode="&#xae;" horiz-adv-x="851" 
d="M504 1102h96q80 0 80 64t-80 65h-96v-129zM446 924v358h160q57 0 95 -30t38 -81q0 -82 -88 -108l101 -139h-72l-90 131h-86v-131h-58zM580 776q133 0 224 94t91 226v2q0 131 -91 224t-224 93q-132 0 -224 -94t-92 -225v-2q0 -131 91 -225q92 -93 225 -93zM936 1096
q0 -147 -104 -253t-254 -106q-148 1 -251 105t-104 252v2q1 146 105 252t253 106t252 -104t103 -252v-2z" />
    <glyph glyph-name="macron" unicode="&#xaf;" 
d="M401 1272l27 96h623l-27 -96h-623z" />
    <glyph glyph-name="degree" unicode="&#xb0;" horiz-adv-x="749" 
d="M272 1117q0 -91 50 -140t135 -49t157 74t72 166t-49 141t-135 49t-158 -75t-72 -166zM450 842q-126 0 -198 74t-72 197q0 124 102 227q102 104 226 104q125 0 198 -74q72 -74 72 -198t-101 -227q-102 -103 -227 -103z" />
    <glyph glyph-name="plusminus" unicode="&#xb1;" horiz-adv-x="1269" 
d="M971 0h-948l26 98h948zM1167 733h-424l-112 -416h-103l113 416h-424l27 98h424l110 416h103l-111 -416h424z" />
    <glyph glyph-name="acute" unicode="&#xb4;" 
d="M514 1219l254 272l127 -61l-277 -211h-104z" />
    <glyph glyph-name="paragraph" unicode="&#xb6;" horiz-adv-x="995" 
d="M209 913q0 244 178 382t490 139h149l-385 -1434h-109l144 539q-207 12 -337 102t-130 272z" />
    <glyph glyph-name="periodcentered" unicode="&#xb7;" horiz-adv-x="473" 
d="M168 522l47 174h135l-47 -174h-135z" />
    <glyph glyph-name="cedilla" unicode="&#xb8;" 
d="M242 -303l-99 53l256 270h88z" />
    <glyph glyph-name="ordmasculine" unicode="&#xba;" horiz-adv-x="798" 
d="M517 909q91 0 165 80q74 81 74 177t-51 149t-143 53t-167 -80q-73 -80 -73 -176t52 -150t143 -53zM123 600l20 82h549l-20 -82h-549zM844 1168q0 -126 -102 -230t-230 -104q-129 0 -203 74q-73 74 -73 201q0 126 101 230q101 105 229 105t204 -75q74 -75 74 -201z" />
    <glyph glyph-name="guillemotright" unicode="&#xbb;" horiz-adv-x="1054" 
d="M96 84l-73 57l393 394l-170 376l84 45l213 -428l-4 -16zM514 84l-74 57l394 394l-170 376l84 45l213 -428l-5 -16z" />
    <glyph glyph-name="questiondown" unicode="&#xbf;" horiz-adv-x="1093" 
d="M516 -18q-188 0 -300 100t-112 258q0 194 154 312t389 151l88 256h66l-62 -332l-14 -10q-231 -15 -371 -115t-141 -260q0 -125 88 -195t223 -69q221 0 402 180l65 -70q-207 -206 -475 -206zM754 1260l47 174h135l-47 -174h-135z" />
    <glyph glyph-name="Agrave" unicode="&#xc0;" horiz-adv-x="1554" 
d="M958 1829l127 -242h-75l-170 185zM410 498h755l-153 829zM-70 0l1055 1444h102l281 -1444h-108l-74 401h-846l-291 -401h-119z" />
    <glyph glyph-name="Aacute" unicode="&#xc1;" horiz-adv-x="1554" 
d="M1016 1587l254 242l123 -57l-269 -185h-108zM410 498h755l-153 829zM-70 0l1055 1444h102l281 -1444h-108l-74 401h-846l-291 -401h-119z" />
    <glyph glyph-name="Acircumflex" unicode="&#xc2;" horiz-adv-x="1554" 
d="M805 1587l270 219h94l152 -219h-102l-115 125l-184 -125h-115zM410 498h755l-153 829zM-70 0l1055 1444h102l281 -1444h-108l-74 401h-846l-291 -401h-119z" />
    <glyph glyph-name="Atilde" unicode="&#xc3;" horiz-adv-x="1554" 
d="M1419 1765q-83 -178 -187 -178q-50 0 -137 39t-121 39t-59 -20q-24 -21 -57 -76l-74 20q84 180 188 180q50 -1 137 -39t121 -38t58 20t58 74zM410 498h755l-153 829zM-70 0l1055 1444h102l281 -1444h-108l-74 401h-846l-291 -401h-119z" />
    <glyph glyph-name="Adieresis" unicode="&#xc4;" horiz-adv-x="1554" 
d="M823 1587l43 156h152l-43 -156h-152zM1184 1587l43 156h149l-43 -156h-149zM410 498h755l-153 829zM-70 0l1055 1444h102l281 -1444h-108l-74 401h-846l-291 -401h-119z" />
    <glyph glyph-name="Aring" unicode="&#xc5;" horiz-adv-x="1554" 
d="M920 1530q0 -57 34 -87t91 -30q58 0 107 42q48 41 48 97t-32 88t-92 31q-60 0 -108 -42t-48 -99zM410 498h755l-153 829zM840 1514q0 96 74 159q75 63 166 63q92 0 146 -47q54 -48 54 -122t-50 -132t-126 -79l264 -1356h-108l-74 401h-846l-291 -401h-119l1002 1370
q-92 48 -92 144z" />
    <glyph glyph-name="AE" unicode="&#xc6;" horiz-adv-x="2187" 
d="M496 498h557l225 839h-55zM-66 0l1252 1434h1108l-27 -99h-883l-151 -563h790l-26 -98h-791l-153 -576h893l-27 -98h-999l108 401h-616l-349 -401h-129z" />
    <glyph glyph-name="Ccedilla" unicode="&#xc7;" horiz-adv-x="1511" 
d="M1024 1458q208 0 342 -85t205 -224l-92 -49q-74 130 -177 196t-264 66q-303 0 -521 -246t-218 -557q0 -223 136 -355t349 -132q152 0 266 54t220 161l71 -66q-238 -248 -567 -248h-10l-209 -276l-98 53l217 232q-211 30 -348 184q-138 154 -138 386t114 441t313 337
q201 128 409 128z" />
    <glyph glyph-name="Egrave" unicode="&#xc8;" horiz-adv-x="1329" 
d="M868 1808l127 -241h-75l-170 184zM74 0l385 1434h1009l-26 -99h-903l-152 -563h811l-27 -98h-811l-153 -576h913l-26 -98h-1020z" />
    <glyph glyph-name="Eacute" unicode="&#xc9;" horiz-adv-x="1329" 
d="M926 1567l254 241l123 -57l-269 -184h-108zM74 0l385 1434h1009l-26 -99h-903l-152 -563h811l-27 -98h-811l-153 -576h913l-26 -98h-1020z" />
    <glyph glyph-name="Ecircumflex" unicode="&#xca;" horiz-adv-x="1329" 
d="M715 1567l270 219h94l152 -219h-103l-114 125l-185 -125h-114zM74 0l385 1434h1009l-26 -99h-903l-152 -563h811l-27 -98h-811l-153 -576h913l-26 -98h-1020z" />
    <glyph glyph-name="Edieresis" unicode="&#xcb;" horiz-adv-x="1329" 
d="M731 1567l43 155h152l-43 -155h-152zM1092 1567l43 155h149l-43 -155h-149zM74 0l385 1434h1009l-26 -99h-903l-152 -563h811l-27 -98h-811l-153 -576h913l-26 -98h-1020z" />
    <glyph glyph-name="Igrave" unicode="&#xcc;" horiz-adv-x="561" 
d="M442 1808l127 -241h-75l-170 184zM88 0l385 1434h107l-385 -1434h-107z" />
    <glyph glyph-name="Iacute" unicode="&#xcd;" horiz-adv-x="561" 
d="M500 1567l254 241l123 -57l-269 -184h-108zM88 0l385 1434h107l-385 -1434h-107z" />
    <glyph glyph-name="Icircumflex" unicode="&#xce;" horiz-adv-x="561" 
d="M289 1567l270 219h94l152 -219h-103l-114 125l-185 -125h-114zM88 0l385 1434h107l-385 -1434h-107z" />
    <glyph glyph-name="Idieresis" unicode="&#xcf;" horiz-adv-x="561" 
d="M305 1567l43 155h152l-43 -155h-152zM666 1567l43 155h149l-43 -155h-149zM88 0l385 1434h107l-385 -1434h-107z" />
    <glyph glyph-name="Eth" unicode="&#xd0;" horiz-adv-x="1640" 
d="M618 98q389 0 635 246q193 193 193 479q0 221 -133 351q-162 162 -477 161h-236l-151 -565h475l-27 -98h-475l-154 -574h350zM842 1434q365 0 557 -193q158 -158 157 -410q0 -332 -223 -555q-131 -132 -320 -204t-409 -72h-469l180 672h-153l26 98h154l178 664h322z" />
    <glyph glyph-name="Ntilde" unicode="&#xd1;" horiz-adv-x="1609" 
d="M1425 1735q-84 -179 -187 -179q-50 0 -137 39t-121 39t-58 -20t-58 -76l-73 21q84 180 187 180q50 0 137 -39t121 -39t58 20t58 74zM74 0l385 1434h98l645 -1256l338 1256h102l-385 -1434h-77l-660 1282l-344 -1282h-102z" />
    <glyph glyph-name="Ograve" unicode="&#xd2;" horiz-adv-x="1732" 
d="M1006 1829l127 -242h-76l-170 185zM307 577q-1 -211 141 -359t353 -148t377 110t259 288q93 177 93 387t-141 358q-141 149 -353 149t-377 -111q-166 -111 -259 -287t-93 -387zM815 -27q-268 -1 -443 177t-175 440q0 221 109 422q110 202 301 324t415 122q268 0 443 -177
t175 -439q0 -221 -110 -422t-300 -324q-192 -123 -415 -123z" />
    <glyph glyph-name="Oacute" unicode="&#xd3;" horiz-adv-x="1732" 
d="M1063 1587l254 242l123 -57l-269 -185h-108zM307 577q-1 -211 141 -359t353 -148t377 110t259 288q93 177 93 387t-141 358q-141 149 -353 149t-377 -111q-166 -111 -259 -287t-93 -387zM815 -27q-268 -1 -443 177t-175 440q0 221 109 422q110 202 301 324t415 122
q268 0 443 -177t175 -439q0 -221 -110 -422t-300 -324q-192 -123 -415 -123z" />
    <glyph glyph-name="Ocircumflex" unicode="&#xd4;" horiz-adv-x="1732" 
d="M852 1587l270 219h95l151 -219h-102l-115 125l-184 -125h-115zM307 577q-1 -211 141 -359t353 -148t377 110t259 288q93 177 93 387t-141 358q-141 149 -353 149t-377 -111q-166 -111 -259 -287t-93 -387zM815 -27q-268 -1 -443 177t-175 440q0 221 109 422
q110 202 301 324t415 122q268 0 443 -177t175 -439q0 -221 -110 -422t-300 -324q-192 -123 -415 -123z" />
    <glyph glyph-name="Otilde" unicode="&#xd5;" horiz-adv-x="1732" 
d="M1466 1765q-83 -178 -187 -178q-50 0 -137 39t-121 39q-35 -1 -59 -21t-57 -75l-74 20q84 180 188 180q50 -1 137 -39t121 -38q35 0 59 20t57 74zM307 577q-1 -211 141 -359t353 -148t377 110t259 288q93 177 93 387t-141 358q-141 149 -353 149t-377 -111
q-166 -111 -259 -287t-93 -387zM815 -27q-268 -1 -443 177t-175 440q0 221 109 422q110 202 301 324t415 122q268 0 443 -177t175 -439q0 -221 -110 -422t-300 -324q-192 -123 -415 -123z" />
    <glyph glyph-name="Odieresis" unicode="&#xd6;" horiz-adv-x="1732" 
d="M868 1587l43 156h152l-43 -156h-152zM1229 1587l43 156h149l-43 -156h-149zM307 577q-1 -211 141 -359t353 -148t377 110t259 288q93 177 93 387t-141 358q-141 149 -353 149t-377 -111q-166 -111 -259 -287t-93 -387zM815 -27q-268 -1 -443 177t-175 440q0 221 109 422
q110 202 301 324t415 122q268 0 443 -177t175 -439q0 -221 -110 -422t-300 -324q-192 -123 -415 -123z" />
    <glyph glyph-name="multiply" unicode="&#xd7;" horiz-adv-x="1269" 
d="M946 283l-270 372l-473 -376l-56 75l476 375l-275 369l84 63l270 -373l474 377l55 -78l-475 -372l274 -369z" />
    <glyph glyph-name="Oslash" unicode="&#xd8;" horiz-adv-x="1732" 
d="M307 612q0 -174 62 -286l1038 868q-141 168 -385 168q-197 0 -363 -111t-259 -287q-93 -178 -93 -352zM815 70q197 0 363 110t259 288t93 354t-70 298l-1042 -870q141 -180 397 -180zM197 610q0 200 109 402q110 202 301 324t415 122q287 0 463 -198l221 184h141
l-307 -256q100 -156 100 -362t-110 -406q-110 -201 -300 -324q-191 -123 -415 -123q-297 0 -475 211l-234 -194h-141l322 268q-90 152 -90 352z" />
    <glyph glyph-name="Ugrave" unicode="&#xd9;" horiz-adv-x="1548" 
d="M911 1798l127 -242h-75l-170 185zM714 -23q-251 0 -384 125t-133 326q0 111 28 221l209 785h107l-222 -834q-18 -74 -18 -164q1 -162 107 -262t311 -100t345 140t208 388l223 832h107l-230 -854q-72 -266 -227 -422q-180 -181 -431 -181z" />
    <glyph glyph-name="Uacute" unicode="&#xda;" horiz-adv-x="1548" 
d="M969 1556l254 242l123 -57l-269 -185h-108zM714 -23q-251 0 -384 125t-133 326q0 111 28 221l209 785h107l-222 -834q-18 -74 -18 -164q1 -162 107 -262t311 -100t345 140t208 388l223 832h107l-230 -854q-72 -266 -227 -422q-180 -181 -431 -181z" />
    <glyph glyph-name="Ucircumflex" unicode="&#xdb;" horiz-adv-x="1548" 
d="M758 1556l270 220h94l152 -220h-103l-114 125l-185 -125h-114zM714 -23q-251 0 -384 125t-133 326q0 111 28 221l209 785h107l-222 -834q-18 -74 -18 -164q1 -162 107 -262t311 -100t345 140t208 388l223 832h107l-230 -854q-72 -266 -227 -422q-180 -181 -431 -181z" />
    <glyph glyph-name="Udieresis" unicode="&#xdc;" horiz-adv-x="1548" 
d="M776 1556l43 156h152l-43 -156h-152zM1137 1556l43 156h149l-43 -156h-149zM714 -23q-251 0 -384 125t-133 326q0 111 28 221l209 785h107l-222 -834q-18 -74 -18 -164q1 -162 107 -262t311 -100t345 140t208 388l223 832h107l-230 -854q-72 -266 -227 -422
q-180 -181 -431 -181z" />
    <glyph glyph-name="Yacute" unicode="&#xdd;" horiz-adv-x="1368" 
d="M870 1556l254 242l123 -57l-268 -185h-109zM479 0l156 582l-375 852h117l330 -770l745 770h143l-862 -879l-147 -555h-107z" />
    <glyph glyph-name="Thorn" unicode="&#xde;" horiz-adv-x="1368" 
d="M625 373q289 -1 443 107t155 304q0 117 -74 191q-100 100 -315 100h-365l-188 -702h344zM836 1174q266 0 395 -130q98 -98 98 -256q0 -242 -190 -376t-518 -136h-365l-76 -276h-106l385 1434h104l-67 -260h340z" />
    <glyph glyph-name="germandbls" unicode="&#xdf;" horiz-adv-x="1269" 
d="M1010 414q0 219 -371 286l25 93q455 106 454 383q0 106 -76 173t-216 67t-248 -112t-160 -311l-266 -993h-101l275 1024q59 223 178 342q142 143 324 143t290 -93t109 -236q0 -311 -434 -432q326 -86 325 -336q0 -182 -180 -300t-487 -116l24 90q266 2 401 95
q134 93 134 233z" />
    <glyph glyph-name="agrave" unicode="&#xe0;" horiz-adv-x="1169" 
d="M672 1219l-162 211l127 61l106 -272h-71zM426 68q136 0 272 97t176 251l25 92q-197 49 -374 49t-274 -77t-97 -186t68 -168q68 -58 204 -58zM389 -25q-141 0 -242 77q-100 77 -100 216q0 172 131 276q132 104 328 103q196 0 414 -59l8 28q14 53 14 105q0 119 -81 182
t-229 63t-308 -55l-19 90q166 59 343 59t285 -86q108 -87 107 -239q0 -59 -20 -137l-160 -598h-98l47 180q-172 -205 -420 -205z" />
    <glyph glyph-name="aacute" unicode="&#xe1;" horiz-adv-x="1169" 
d="M670 1219l254 272l127 -61l-277 -211h-104zM426 68q136 0 272 97t176 251l25 92q-197 49 -374 49t-274 -77t-97 -186t68 -168q68 -58 204 -58zM389 -25q-141 0 -242 77q-100 77 -100 216q0 172 131 276q132 104 328 103q196 0 414 -59l8 28q14 53 14 105q0 119 -81 182
t-229 63t-308 -55l-19 90q166 59 343 59t285 -86q108 -87 107 -239q0 -59 -20 -137l-160 -598h-98l47 180q-172 -205 -420 -205z" />
    <glyph glyph-name="acircumflex" unicode="&#xe2;" horiz-adv-x="1169" 
d="M475 1219l273 249h81l138 -249h-90l-107 139l-197 -139h-98zM426 68q136 0 272 97t176 251l25 92q-197 49 -374 49t-274 -77t-97 -186t68 -168q68 -58 204 -58zM389 -25q-141 0 -242 77q-100 77 -100 216q0 172 131 276q132 104 328 103q196 0 414 -59l8 28q14 53 14 105
q0 119 -81 182t-229 63t-308 -55l-19 90q166 59 343 59t285 -86q108 -87 107 -239q0 -59 -20 -137l-160 -598h-98l47 180q-172 -205 -420 -205z" />
    <glyph glyph-name="atilde" unicode="&#xe3;" horiz-adv-x="1169" 
d="M624 1409q52 0 138 -42t122 -42t62 22t58 80l71 -18q-47 -109 -93 -149t-98 -41q-52 0 -139 42t-121 42t-60 -22t-58 -81l-72 19q47 109 93 149q45 40 97 41zM426 68q136 0 272 97t176 251l25 92q-197 49 -374 49t-274 -77t-97 -186t68 -168q68 -58 204 -58zM389 -25
q-141 0 -242 77q-100 77 -100 216q0 172 131 276q132 104 328 103q196 0 414 -59l8 28q14 53 14 105q0 119 -81 182t-229 63t-308 -55l-19 90q166 59 343 59t285 -86q108 -87 107 -239q0 -59 -20 -137l-160 -598h-98l47 180q-172 -205 -420 -205z" />
    <glyph glyph-name="adieresis" unicode="&#xe4;" horiz-adv-x="1169" 
d="M492 1219l45 163h141l-45 -163h-141zM825 1219l45 163h142l-45 -163h-142zM426 68q136 0 272 97t176 251l25 92q-197 49 -374 49t-274 -77t-97 -186t68 -168q68 -58 204 -58zM389 -25q-141 0 -242 77q-100 77 -100 216q0 172 131 276q132 104 328 103q196 0 414 -59l8 28
q14 53 14 105q0 119 -81 182t-229 63t-308 -55l-19 90q166 59 343 59t285 -86q108 -87 107 -239q0 -59 -20 -137l-160 -598h-98l47 180q-172 -205 -420 -205z" />
    <glyph glyph-name="aring" unicode="&#xe5;" horiz-adv-x="1169" 
d="M772 1280q64 0 113 45t49 103t-36 95q-36 36 -100 36q-64 1 -114 -45q-49 -46 -49 -104t36 -94q37 -36 101 -36zM768 1214q-92 0 -150 54t-57 140q0 85 74 151q74 65 166 65t149 -54q58 -54 58 -139t-74 -151t-166 -66zM426 68q136 0 272 97t176 251l25 92
q-197 49 -374 49t-274 -77t-97 -186t68 -168q68 -58 204 -58zM389 -25q-141 0 -242 77q-100 77 -100 216q0 172 131 276q132 104 328 103q196 0 414 -59l8 28q14 53 14 105q0 119 -81 182t-229 63t-308 -55l-19 90q166 59 343 59t285 -86q108 -87 107 -239q0 -59 -20 -137
l-160 -598h-98l47 180q-172 -205 -420 -205z" />
    <glyph glyph-name="ae" unicode="&#xe6;" horiz-adv-x="1976" 
d="M512 557q-156 0 -257 -76t-101 -184t69 -169q70 -60 195 -60q252 0 487 256q-8 41 -8 92t6 94q-166 47 -391 47zM1786 664q0 135 -75 224t-231 89q-156 -1 -285 -115q-128 -114 -175 -284h758q8 37 8 86zM410 -25q-158 0 -260 80t-102 236t134 256q135 100 339 100
t399 -59l8 28q14 53 14 105q0 119 -81 182t-229 63t-308 -55l-19 90q166 59 330 59t267 -65q103 -66 130 -182q86 117 206 187t255 69q187 0 291 -115t104 -284q0 -100 -28 -183h-859q-4 -45 -4 -69q1 -158 97 -253t266 -95t340 139l59 -72q-195 -162 -409 -162
q-154 1 -262 69t-156 187q-246 -256 -522 -256z" />
    <glyph glyph-name="ccedilla" unicode="&#xe7;" horiz-adv-x="1153" 
d="M718 975q-206 0 -357 -164t-150 -379q0 -168 103 -265t249 -97q178 0 338 149l68 -65q-184 -178 -412 -179h-6l-211 -278l-98 53l221 236q-154 30 -257 146t-104 294q0 258 184 451t431 192q150 0 253 -72t156 -180l-84 -47q-118 205 -324 205z" />
    <glyph glyph-name="egrave" unicode="&#xe8;" horiz-adv-x="1193" 
d="M731 1219l-162 211l127 61l107 -272h-72zM692 977q-158 0 -284 -115q-127 -115 -175 -284h758q8 37 8 86q0 135 -74 224q-75 89 -233 89zM211 418q0 -158 96 -253t266 -95t340 139l60 -72q-195 -162 -406 -162t-338 123t-127 316q0 252 178 454t427 201q188 0 291 -115
t104 -284q0 -101 -29 -183h-858q-4 -25 -4 -69z" />
    <glyph glyph-name="eacute" unicode="&#xe9;" horiz-adv-x="1193" 
d="M729 1219l254 272l127 -61l-276 -211h-105zM692 977q-158 0 -284 -115q-127 -115 -175 -284h758q8 37 8 86q0 135 -74 224q-75 89 -233 89zM211 418q0 -158 96 -253t266 -95t340 139l60 -72q-195 -162 -406 -162t-338 123t-127 316q0 252 178 454t427 201q188 0 291 -115
t104 -284q0 -101 -29 -183h-858q-4 -25 -4 -69z" />
    <glyph glyph-name="ecircumflex" unicode="&#xea;" horiz-adv-x="1193" 
d="M532 1219l273 249h82l137 -249h-90l-107 139l-196 -139h-99zM692 977q-158 0 -284 -115q-127 -115 -175 -284h758q8 37 8 86q0 135 -74 224q-75 89 -233 89zM211 418q0 -158 96 -253t266 -95t340 139l60 -72q-195 -162 -406 -162t-338 123t-127 316q0 252 178 454
t427 201q188 0 291 -115t104 -284q0 -101 -29 -183h-858q-4 -25 -4 -69z" />
    <glyph glyph-name="edieresis" unicode="&#xeb;" horiz-adv-x="1193" 
d="M551 1219l45 163h141l-45 -163h-141zM885 1219l45 163h141l-45 -163h-141zM692 977q-158 0 -284 -115q-127 -115 -175 -284h758q8 37 8 86q0 135 -74 224q-75 89 -233 89zM211 418q0 -158 96 -253t266 -95t340 139l60 -72q-195 -162 -406 -162t-338 123t-127 316
q0 252 178 454t427 201q188 0 291 -115t104 -284q0 -101 -29 -183h-858q-4 -25 -4 -69z" />
    <glyph glyph-name="igrave" unicode="&#xec;" horiz-adv-x="512" 
d="M385 1219l-162 211l127 61l107 -272h-72zM66 0l280 1044h100l-280 -1044h-100z" />
    <glyph glyph-name="iacute" unicode="&#xed;" horiz-adv-x="512" 
d="M383 1219l254 272l127 -61l-277 -211h-104zM66 0l280 1044h100l-280 -1044h-100z" />
    <glyph glyph-name="icircumflex" unicode="&#xee;" horiz-adv-x="512" 
d="M186 1219l273 249h82l137 -249h-90l-107 139l-196 -139h-99zM66 0l280 1044h100l-280 -1044h-100z" />
    <glyph glyph-name="idieresis" unicode="&#xef;" horiz-adv-x="512" 
d="M205 1219l45 163h141l-45 -163h-141zM539 1219l45 163h141l-45 -163h-141zM66 0l280 1044h100l-280 -1044h-100z" />
    <glyph glyph-name="eth" unicode="&#xf0;" horiz-adv-x="1273" 
d="M211 468q0 -186 98 -292q97 -106 281 -106t333 149q148 150 148 354q0 162 -108 272q-109 109 -295 109t-321 -150q-136 -150 -136 -336zM102 446q0 244 171 421t412 177t390 -225q-63 209 -250 477l-286 -129l-41 80l274 125q-47 61 -98 123h131l59 -82l221 100l41 -79
l-211 -97q265 -401 265 -699t-182 -480t-433 -183q-209 1 -336 135t-127 336z" />
    <glyph glyph-name="ntilde" unicode="&#xf1;" horiz-adv-x="1251" 
d="M706 1409q52 0 138 -42t121 -42t61 22t57 80l72 -18q-47 -109 -93 -149t-98 -41q-52 0 -137 42t-121 42t-62 -22t-58 -81l-72 19q47 109 93 149q47 40 99 41zM774 1069q156 0 249 -91t93 -241q0 -57 -22 -147l-156 -590h-100l159 598q16 61 17 129q0 117 -72 185t-203 67
q-131 0 -258 -111t-172 -278l-157 -590h-101l279 1044h100l-51 -194q182 219 395 219z" />
    <glyph glyph-name="ograve" unicode="&#xf2;" horiz-adv-x="1296" 
d="M764 1219l-162 211l127 61l107 -272h-72zM213 442q1 -174 101 -273t280 -99t334 160t153 372q0 174 -100 274t-266 99q-199 0 -351 -162t-151 -371zM569 -25q-207 0 -336 130t-129 333q0 250 186 440t435 191q207 0 336 -130t129 -333q0 -254 -188 -442t-433 -189z" />
    <glyph glyph-name="oacute" unicode="&#xf3;" horiz-adv-x="1296" 
d="M762 1219l254 272l127 -61l-277 -211h-104zM213 442q1 -174 101 -273t280 -99t334 160t153 372q0 174 -100 274t-266 99q-199 0 -351 -162t-151 -371zM569 -25q-207 0 -336 130t-129 333q0 250 186 440t435 191q207 0 336 -130t129 -333q0 -254 -188 -442t-433 -189z" />
    <glyph glyph-name="ocircumflex" unicode="&#xf4;" horiz-adv-x="1296" 
d="M565 1219l273 249h82l137 -249h-90l-107 139l-196 -139h-99zM213 442q1 -174 101 -273t280 -99t334 160t153 372q0 174 -100 274t-266 99q-199 0 -351 -162t-151 -371zM569 -25q-207 0 -336 130t-129 333q0 250 186 440t435 191q207 0 336 -130t129 -333
q0 -254 -188 -442t-433 -189z" />
    <glyph glyph-name="otilde" unicode="&#xf5;" horiz-adv-x="1296" 
d="M718 1409q52 0 138 -42t121 -42t61 22t58 80l71 -18q-47 -109 -93 -149t-97 -41q-51 0 -137 42t-122 42t-62 -22t-58 -81l-72 19q48 109 94 149t98 41zM213 442q1 -174 101 -273t280 -99t334 160t153 372q0 174 -100 274t-266 99q-199 0 -351 -162t-151 -371zM569 -25
q-207 0 -336 130t-129 333q0 250 186 440t435 191q207 0 336 -130t129 -333q0 -254 -188 -442t-433 -189z" />
    <glyph glyph-name="odieresis" unicode="&#xf6;" horiz-adv-x="1296" 
d="M584 1219l45 163h141l-45 -163h-141zM918 1219l45 163h141l-45 -163h-141zM213 442q1 -174 101 -273t280 -99t334 160t153 372q0 174 -100 274t-266 99q-199 0 -351 -162t-151 -371zM569 -25q-207 0 -336 130t-129 333q0 250 186 440t435 191q207 0 336 -130t129 -333
q0 -254 -188 -442t-433 -189z" />
    <glyph glyph-name="divide" unicode="&#xf7;" horiz-adv-x="1269" 
d="M477 236l49 182h164l-49 -182h-164zM1171 672h-991l27 98h991zM688 1024l49 182h164l-49 -182h-164z" />
    <glyph glyph-name="oslash" unicode="&#xf8;" horiz-adv-x="1296" 
d="M213 442q0 -104 39 -188l741 608q-97 113 -287 113t-342 -162t-151 -371zM586 70q190 0 342 160q154 160 153 372q0 104 -39 189l-743 -609q97 -112 287 -112zM104 438q0 250 186 440t435 191q215 0 346 -143l162 133h137l-246 -201q66 -109 66 -252q0 -254 -188 -442
t-420 -188q-230 0 -361 141l-155 -127h-138l242 196q-66 109 -66 252z" />
    <glyph glyph-name="ugrave" unicode="&#xf9;" horiz-adv-x="1247" 
d="M727 1219l-162 211l127 61l107 -272h-72zM473 -25q-156 -1 -249 91t-93 241q0 57 23 148l155 589h101l-160 -598q-16 -61 -17 -129q0 -117 72 -185t203 -66q131 0 258 110t172 279l158 589h100l-278 -1044h-101l51 195q-182 -220 -395 -220z" />
    <glyph glyph-name="uacute" unicode="&#xfa;" horiz-adv-x="1247" 
d="M725 1219l254 272l127 -61l-277 -211h-104zM473 -25q-156 -1 -249 91t-93 241q0 57 23 148l155 589h101l-160 -598q-16 -61 -17 -129q0 -117 72 -185t203 -66q131 0 258 110t172 279l158 589h100l-278 -1044h-101l51 195q-182 -220 -395 -220z" />
    <glyph glyph-name="ucircumflex" unicode="&#xfb;" horiz-adv-x="1247" 
d="M530 1219l273 249h82l137 -249h-90l-107 139l-196 -139h-99zM473 -25q-156 -1 -249 91t-93 241q0 57 23 148l155 589h101l-160 -598q-16 -61 -17 -129q0 -117 72 -185t203 -66q131 0 258 110t172 279l158 589h100l-278 -1044h-101l51 195q-182 -220 -395 -220z" />
    <glyph glyph-name="udieresis" unicode="&#xfc;" horiz-adv-x="1247" 
d="M547 1219l45 163h141l-45 -163h-141zM881 1219l45 163h141l-45 -163h-141zM473 -25q-156 -1 -249 91t-93 241q0 57 23 148l155 589h101l-160 -598q-16 -61 -17 -129q0 -117 72 -185t203 -66q131 0 258 110t172 279l158 589h100l-278 -1044h-101l51 195
q-182 -220 -395 -220z" />
    <glyph glyph-name="yacute" unicode="&#xfd;" horiz-adv-x="1163" 
d="M649 1219l254 272l127 -61l-276 -211h-105zM39 -334q-117 0 -219 72l55 82q74 -60 167 -60t172 56t173 190l-213 1038h107l182 -933l629 933h120l-743 -1081q-111 -161 -212 -229t-218 -68z" />
    <glyph glyph-name="thorn" unicode="&#xfe;" horiz-adv-x="1339" 
d="M635 68q207 0 346 164t139 384q0 160 -90 260t-233 99q-197 0 -360 -168t-163 -375q0 -154 102 -259t259 -105zM809 1069q182 0 301 -124t119 -316q0 -275 -176 -465t-414 -191q-162 0 -266 83t-150 210l-160 -594h-100l490 1823h100l-178 -655q193 229 434 229z" />
    <glyph glyph-name="ydieresis" unicode="&#xff;" horiz-adv-x="1163" 
d="M471 1219l45 163h141l-45 -163h-141zM805 1219l45 163h141l-45 -163h-141zM39 -334q-117 0 -219 72l55 82q74 -60 167 -60t172 56t173 190l-213 1038h107l182 -933l629 933h120l-743 -1081q-111 -161 -212 -229t-218 -68z" />
    <glyph glyph-name="Amacron" unicode="&#x100;" horiz-adv-x="1554" 
d="M776 1640l27 101h635l-27 -101h-635zM410 498h755l-153 829zM-70 0l1055 1444h102l281 -1444h-108l-74 401h-846l-291 -401h-119z" />
    <glyph glyph-name="amacron" unicode="&#x101;" horiz-adv-x="1169" 
d="M434 1272l27 96h622l-26 -96h-623zM426 68q136 0 272 97t176 251l25 92q-197 49 -374 49t-274 -77t-97 -186t68 -168q68 -58 204 -58zM389 -25q-141 0 -242 77q-100 77 -100 216q0 172 131 276q132 104 328 103q196 0 414 -59l8 28q14 53 14 105q0 119 -81 182t-229 63
t-308 -55l-19 90q166 59 343 59t285 -86q108 -87 107 -239q0 -59 -20 -137l-160 -598h-98l47 180q-172 -205 -420 -205z" />
    <glyph glyph-name="Abreve" unicode="&#x102;" horiz-adv-x="1554" 
d="M1085 1583q-115 0 -175 54t-42 151h86q2 -53 37 -80t117 -27q145 0 211 107h94q-33 -96 -123 -150t-205 -55zM410 498h755l-153 829zM-70 0l1055 1444h102l281 -1444h-108l-74 401h-846l-291 -401h-119z" />
    <glyph glyph-name="abreve" unicode="&#x103;" horiz-adv-x="1169" 
d="M735 1214q-117 0 -174 62t-37 168h78q-2 -66 34 -98t120 -33q147 0 225 131h88q-37 -106 -127 -168t-207 -62zM426 68q136 0 272 97t176 251l25 92q-197 49 -374 49t-274 -77t-97 -186t68 -168q68 -58 204 -58zM389 -25q-141 0 -242 77q-100 77 -100 216q0 172 131 276
q132 104 328 103q196 0 414 -59l8 28q14 53 14 105q0 119 -81 182t-229 63t-308 -55l-19 90q166 59 343 59t285 -86q108 -87 107 -239q0 -59 -20 -137l-160 -598h-98l47 180q-172 -205 -420 -205z" />
    <glyph glyph-name="Aogonek" unicode="&#x104;" horiz-adv-x="1554" 
d="M410 498h755l-153 829zM1077 -201q0 102 178 217l-69 385h-846l-291 -401h-119l1055 1444h102l281 -1444h-22q-164 -106 -164 -184q0 -61 135 -78l-19 -74q-221 14 -221 135z" />
    <glyph glyph-name="aogonek" unicode="&#x105;" horiz-adv-x="1169" 
d="M426 68q136 0 272 97t176 251l25 92q-197 49 -374 49t-274 -77t-97 -186t68 -168q68 -58 204 -58zM584 -201q0 104 182 219l43 162q-172 -205 -420 -205q-141 0 -242 77q-100 77 -100 216q0 172 131 276q132 104 328 103q196 0 414 -59l8 28q14 53 14 105q0 119 -81 182
t-229 63t-308 -55l-19 90q166 59 343 59t285 -86q108 -87 107 -239q0 -59 -20 -137l-160 -598h-8q-164 -106 -164 -184q0 -61 135 -78l-18 -74q-221 14 -221 135z" />
    <glyph glyph-name="Cacute" unicode="&#x106;" horiz-adv-x="1511" 
d="M1018 1587l254 242l123 -57l-269 -185h-108zM774 -27q-246 0 -416 159q-170 160 -170 406t114 455t313 337q201 128 409 128t342 -85t205 -224l-92 -49q-74 130 -177 196t-264 66q-303 0 -521 -246t-218 -557q0 -223 136 -355t349 -132q152 0 266 54t220 161l71 -66
q-237 -248 -567 -248z" />
    <glyph glyph-name="cacute" unicode="&#x107;" horiz-adv-x="1153" 
d="M707 1219l254 272l126 -61l-276 -211h-104zM557 -25q-182 0 -318 123t-137 328q0 258 184 451t431 192q150 0 253 -72t156 -180l-84 -47q-118 205 -324 205t-357 -164t-150 -379q0 -168 103 -265t249 -97q178 0 338 149l68 -65q-185 -179 -412 -179z" />
    <glyph glyph-name="Cdotaccent" unicode="&#x10a;" horiz-adv-x="1511" 
d="M1001 1587l43 156h156l-43 -156h-156zM774 -27q-246 0 -416 159q-170 160 -170 406t114 455t313 337q201 128 409 128t342 -85t205 -224l-92 -49q-74 130 -177 196t-264 66q-303 0 -521 -246t-218 -557q0 -223 136 -355t349 -132q152 0 266 54t220 161l71 -66
q-237 -248 -567 -248z" />
    <glyph glyph-name="cdotaccent" unicode="&#x10b;" horiz-adv-x="1153" 
d="M698 1214l47 175h136l-47 -175h-136zM557 -25q-182 0 -318 123t-137 328q0 258 184 451t431 192q150 0 253 -72t156 -180l-84 -47q-118 205 -324 205t-357 -164t-150 -379q0 -168 103 -265t249 -97q178 0 338 149l68 -65q-185 -179 -412 -179z" />
    <glyph glyph-name="Ccaron" unicode="&#x10c;" horiz-adv-x="1511" 
d="M1411 1806l-270 -219h-94l-152 219h102l115 -125l184 125h115zM774 -27q-246 0 -416 159q-170 160 -170 406t114 455t313 337q201 128 409 128t342 -85t205 -224l-92 -49q-74 130 -177 196t-264 66q-303 0 -521 -246t-218 -557q0 -223 136 -355t349 -132q152 0 266 54
t220 161l71 -66q-237 -248 -567 -248z" />
    <glyph glyph-name="ccaron" unicode="&#x10d;" horiz-adv-x="1153" 
d="M1044 1468l-272 -249h-82l-137 249h90l107 -139l196 139h98zM557 -25q-182 0 -318 123t-137 328q0 258 184 451t431 192q150 0 253 -72t156 -180l-84 -47q-118 205 -324 205t-357 -164t-150 -379q0 -168 103 -265t249 -97q178 0 338 149l68 -65q-185 -179 -412 -179z" />
    <glyph glyph-name="Dcaron" unicode="&#x10e;" horiz-adv-x="1579" 
d="M1323 1786l-270 -219h-95l-151 219h102l115 -125l184 125h115zM557 98q389 0 635 246q193 193 192 479q0 221 -133 351q-162 162 -477 161h-235l-332 -1237h350zM780 1434q365 0 557 -193q158 -158 158 -410q0 -332 -223 -555q-130 -132 -320 -204t-409 -72h-469
l385 1434h321z" />
    <glyph glyph-name="dcaron" unicode="&#x10f;" horiz-adv-x="1339" 
d="M1714 1495v-6l-180 -299h-59l114 305h125zM543 68q197 0 359 168t163 374q0 154 -101 259t-259 106q-207 0 -347 -164t-139 -385q1 -160 91 -259t233 -99zM530 -27q-182 0 -301 124t-118 317q0 274 176 464t413 191q162 0 266 -83t150 -210l193 719h100l-399 -1495h-101
l54 203q-193 -230 -433 -230z" />
    <glyph glyph-name="Dcroat" unicode="&#x110;" horiz-adv-x="1640" 
d="M618 98q389 0 635 246q193 193 193 479q0 221 -133 351q-162 162 -477 161h-236l-151 -565h475l-27 -98h-475l-154 -574h350zM842 1434q365 0 557 -193q158 -158 157 -410q0 -332 -223 -555q-131 -132 -320 -204t-409 -72h-469l180 672h-153l26 98h154l178 664h322z" />
    <glyph glyph-name="dcroat" unicode="&#x111;" horiz-adv-x="1339" 
d="M543 68q197 0 359 168t163 374q0 154 -101 259t-259 106q-207 0 -347 -164t-139 -385q1 -160 91 -259t233 -99zM700 1069q162 0 266 -83t150 -210l131 490h-379l25 92h379l37 137h100l-37 -137h144l-25 -92h-143l-338 -1266h-101l54 203q-193 -229 -433 -230
q-182 0 -301 124t-118 317q0 274 176 464t413 191z" />
    <glyph glyph-name="Emacron" unicode="&#x112;" horiz-adv-x="1329" 
d="M686 1620l27 100h635l-27 -100h-635zM74 0l385 1434h1009l-26 -99h-903l-152 -563h811l-27 -98h-811l-153 -576h913l-26 -98h-1020z" />
    <glyph glyph-name="emacron" unicode="&#x113;" horiz-adv-x="1193" 
d="M492 1272l26 96h623l-27 -96h-622zM692 977q-158 0 -284 -115q-127 -115 -175 -284h758q8 37 8 86q0 135 -74 224q-75 89 -233 89zM211 418q0 -158 96 -253t266 -95t340 139l60 -72q-195 -162 -406 -162t-338 123t-127 316q0 252 178 454t427 201q188 0 291 -115
t104 -284q0 -101 -29 -183h-858q-4 -25 -4 -69z" />
    <glyph glyph-name="Ebreve" unicode="&#x114;" horiz-adv-x="1329" 
d="M993 1563q-115 0 -175 54t-42 150h86q2 -53 37 -79t117 -27q143 0 211 106h94q-33 -96 -123 -150t-205 -54zM74 0l385 1434h1009l-26 -99h-903l-152 -563h811l-27 -98h-811l-153 -576h913l-26 -98h-1020z" />
    <glyph glyph-name="ebreve" unicode="&#x115;" horiz-adv-x="1193" 
d="M793 1214q-117 0 -175 62t-36 168h77q-2 -66 34 -98t120 -33q147 0 225 131h88q-36 -106 -126 -168t-207 -62zM692 977q-158 0 -284 -115q-127 -115 -175 -284h758q8 37 8 86q0 135 -74 224q-75 89 -233 89zM211 418q0 -158 96 -253t266 -95t340 139l60 -72
q-195 -162 -406 -162t-338 123t-127 316q0 252 178 454t427 201q188 0 291 -115t104 -284q0 -101 -29 -183h-858q-4 -25 -4 -69z" />
    <glyph glyph-name="Edotaccent" unicode="&#x116;" horiz-adv-x="1329" 
d="M909 1567l43 155h156l-43 -155h-156zM74 0l385 1434h1009l-26 -99h-903l-152 -563h811l-27 -98h-811l-153 -576h913l-26 -98h-1020z" />
    <glyph glyph-name="edotaccent" unicode="&#x117;" horiz-adv-x="1193" 
d="M721 1214l47 175h135l-47 -175h-135zM692 977q-158 0 -284 -115q-127 -115 -175 -284h758q8 37 8 86q0 135 -74 224q-75 89 -233 89zM211 418q0 -158 96 -253t266 -95t340 139l60 -72q-195 -162 -406 -162t-338 123t-127 316q0 252 178 454t427 201q188 0 291 -115
t104 -284q0 -101 -29 -183h-858q-4 -25 -4 -69z" />
    <glyph glyph-name="Eogonek" unicode="&#x118;" horiz-adv-x="1329" 
d="M926 -184q0 -61 135 -78l-19 -74q-221 14 -221 135q0 96 154 201h-901l385 1434h1009l-26 -99h-903l-152 -563h811l-27 -98h-811l-153 -576h913l-26 -98h-4q-164 -106 -164 -184z" />
    <glyph glyph-name="eogonek" unicode="&#x119;" horiz-adv-x="1193" 
d="M692 977q-158 0 -284 -115q-127 -115 -175 -284h758q8 37 8 86q0 135 -74 224q-75 89 -233 89zM557 -25q-201 0 -328 123t-127 316q0 252 178 454t427 201q188 0 291 -115t104 -284q0 -100 -29 -183h-858q-4 -25 -4 -69q0 -158 96 -253t266 -95t340 139l60 -72l-178 -135
q-86 -66 -122 -106t-36 -80q0 -61 135 -78l-18 -74q-221 14 -222 135q0 92 132 185q-66 -9 -107 -9z" />
    <glyph glyph-name="Ecaron" unicode="&#x11a;" horiz-adv-x="1329" 
d="M1319 1786l-270 -219h-95l-151 219h102l115 -125l184 125h115zM74 0l385 1434h1009l-26 -99h-903l-152 -563h811l-27 -98h-811l-153 -576h913l-26 -98h-1020z" />
    <glyph glyph-name="ecaron" unicode="&#x11b;" horiz-adv-x="1193" 
d="M1067 1468l-272 -249h-82l-138 249h91l106 -139l197 139h98zM692 977q-158 0 -284 -115q-127 -115 -175 -284h758q8 37 8 86q0 135 -74 224q-75 89 -233 89zM211 418q0 -158 96 -253t266 -95t340 139l60 -72q-195 -162 -406 -162t-338 123t-127 316q0 252 178 454
t427 201q188 0 291 -115t104 -284q0 -101 -29 -183h-858q-4 -25 -4 -69z" />
    <glyph glyph-name="Gbreve" unicode="&#x11e;" horiz-adv-x="1609" 
d="M1112 1583q-115 0 -175 54t-42 151h86q2 -53 37 -80t117 -27q143 0 211 107h94q-33 -96 -123 -150t-205 -55zM811 -27q-270 0 -444 166t-174 439q1 220 113 422t316 330t445 128q354 0 524 -266l-84 -55q-72 109 -174 167q-101 58 -293 58t-368 -115t-272 -293t-97 -372
q0 -238 141 -375t376 -137t411 116l131 459h-477l26 98h582l-176 -616q-236 -154 -506 -154z" />
    <glyph glyph-name="gbreve" unicode="&#x11f;" horiz-adv-x="1339" 
d="M854 1214q-117 0 -174 62t-37 168h78q-4 -131 148 -131t231 131h88q-37 -106 -127 -168t-207 -62zM578 172q196 0 348 144t151 323q0 133 -101 233t-278 100q-178 0 -322 -136q-144 -137 -145 -347q0 -149 103 -233t244 -84zM483 -332q-137 0 -268 52t-225 143l73 74
q185 -175 407 -175t339 117q92 92 143 275l37 131q-195 -207 -430 -207q-176 0 -306 112t-130 293q0 252 180 419t412 167q287 0 407 -278l68 253h100l-243 -915q-55 -203 -164 -311q-150 -150 -400 -150z" />
    <glyph glyph-name="Gdotaccent" unicode="&#x120;" horiz-adv-x="1609" 
d="M1028 1587l43 156h156l-43 -156h-156zM811 -27q-270 0 -444 166t-174 439q1 220 113 422t316 330t445 128q354 0 524 -266l-84 -55q-72 109 -174 167q-101 58 -293 58t-368 -115t-272 -293t-97 -372q0 -238 141 -375t376 -137t411 116l131 459h-477l26 98h582l-176 -616
q-236 -154 -506 -154z" />
    <glyph glyph-name="gdotaccent" unicode="&#x121;" horiz-adv-x="1339" 
d="M782 1214l47 175h136l-47 -175h-136zM578 172q196 0 348 144t151 323q0 133 -101 233t-278 100q-178 0 -322 -136q-144 -137 -145 -347q0 -149 103 -233t244 -84zM483 -332q-137 0 -268 52t-225 143l73 74q185 -175 407 -175t339 117q92 92 143 275l37 131
q-195 -207 -430 -207q-176 0 -306 112t-130 293q0 252 180 419t412 167q287 0 407 -278l68 253h100l-243 -915q-55 -203 -164 -311q-150 -150 -400 -150z" />
    <glyph glyph-name="Gcommaaccent" unicode="&#x122;" horiz-adv-x="1609" 
d="M508 -461v49q66 12 98 38t47 77h-65l39 145h147l-35 -127q-25 -90 -78 -131t-153 -51zM811 -27q-270 0 -444 166t-174 439q1 220 113 422t316 330t445 128q354 0 524 -266l-84 -55q-72 109 -174 167q-101 58 -293 58t-368 -115t-272 -293t-97 -372q0 -238 141 -375
t376 -137t411 116l131 459h-477l26 98h582l-176 -616q-236 -154 -506 -154z" />
    <glyph glyph-name="gcommaaccent" unicode="&#x123;" horiz-adv-x="1339" 
d="M1036 1524v-49q-66 -12 -98 -38t-47 -77h65l-38 -146h-148l35 127q25 89 78 131t153 52zM578 172q196 0 348 144t151 323q0 133 -101 233t-278 100q-178 0 -322 -136q-144 -137 -145 -347q0 -149 103 -233t244 -84zM483 -332q-137 0 -268 52t-225 143l73 74
q185 -175 407 -175t339 117q92 92 143 275l37 131q-195 -207 -430 -207q-176 0 -306 112t-130 293q0 252 180 419t412 167q287 0 407 -278l68 253h100l-243 -915q-55 -203 -164 -311q-150 -150 -400 -150z" />
    <glyph glyph-name="Hbar" unicode="&#x126;" horiz-adv-x="1548" 
d="M385 760h907l76 282h-907zM201 1042l24 93h152l82 299h106l-80 -299h908l80 299h106l-80 -299h154l-25 -93h-153l-281 -1042h-107l179 662h-908l-178 -662h-106l278 1042h-151z" />
    <glyph glyph-name="hbar" unicode="&#x127;" horiz-adv-x="1247" 
d="M774 1069q156 0 249 -91t93 -241q0 -57 -22 -147l-156 -590h-100l159 598q16 61 17 129q0 117 -72 185t-203 67q-131 0 -258 -111t-172 -278l-157 -590h-101l340 1266h-143l24 92h144l37 137h100l-37 -137h379l-25 -92h-378l-113 -416q182 219 395 219z" />
    <glyph glyph-name="Imacron" unicode="&#x12a;" horiz-adv-x="561" 
d="M260 1620l27 100h635l-27 -100h-635zM88 0l385 1434h107l-385 -1434h-107z" />
    <glyph glyph-name="imacron" unicode="&#x12b;" horiz-adv-x="512" 
d="M145 1272l27 96h623l-27 -96h-623zM66 0l280 1044h100l-280 -1044h-100z" />
    <glyph glyph-name="Ibreve" unicode="&#x12c;" horiz-adv-x="561" 
d="M567 1563q-115 0 -175 54t-42 150h86q2 -53 37 -79t117 -27q143 0 211 106h94q-33 -96 -123 -150t-205 -54zM88 0l385 1434h107l-385 -1434h-107z" />
    <glyph glyph-name="ibreve" unicode="&#x12d;" horiz-adv-x="512" 
d="M447 1214q-117 0 -175 62t-36 168h77q-2 -66 34 -98t120 -33q147 0 225 131h88q-36 -106 -126 -168t-207 -62zM66 0l280 1044h100l-280 -1044h-100z" />
    <glyph glyph-name="Iogonek" unicode="&#x12e;" horiz-adv-x="561" 
d="M-80 -201q0 98 170 211l383 1424h107l-385 -1434h-7q-164 -106 -163 -184q0 -61 135 -78l-19 -74q-221 14 -221 135z" />
    <glyph glyph-name="iogonek" unicode="&#x12f;" horiz-adv-x="512" 
d="M408 1317l36 137h125l-37 -137h-124zM-109 -201q0 102 179 217l276 1028h100l-280 -1044h-6q-164 -106 -164 -184q0 -61 135 -78l-18 -74q-222 14 -222 135z" />
    <glyph glyph-name="Idotaccent" unicode="&#x130;" horiz-adv-x="561" 
d="M483 1567l43 155h156l-43 -155h-156zM88 0l385 1434h107l-385 -1434h-107z" />
    <glyph glyph-name="dotlessi" unicode="&#x131;" horiz-adv-x="512" 
d="M66 0l280 1044h100l-280 -1044h-100z" />
    <glyph glyph-name="Kcommaaccent" unicode="&#x136;" horiz-adv-x="1462" 
d="M399 -451v50q66 11 99 37t47 77h-66l39 146h148l-35 -127q-25 -90 -79 -132t-153 -51zM74 0l385 1434h106l-250 -932l1147 932h158l-797 -641l434 -793h-122l-400 731l-459 -373l-96 -358h-106z" />
    <glyph glyph-name="kcommaaccent" unicode="&#x137;" horiz-adv-x="1146" 
d="M229 -461v49q66 12 99 38t47 77h-66l39 145h148l-35 -127q-25 -90 -79 -131t-153 -51zM51 0l402 1495h100l-297 -1108l811 657h145l-581 -466l311 -578h-117l-278 516l-328 -262l-67 -254h-101z" />
    <glyph glyph-name="Lacute" unicode="&#x139;" horiz-adv-x="1228" 
d="M518 1567l254 241l123 -57l-268 -184h-109zM74 0l385 1434h106l-358 -1336h842l-27 -98h-948z" />
    <glyph glyph-name="lacute" unicode="&#x13a;" horiz-adv-x="512" 
d="M506 1614l254 241l123 -57l-269 -184h-108zM66 0l401 1495h100l-401 -1495h-100z" />
    <glyph glyph-name="Lcommaaccent" unicode="&#x13b;" horiz-adv-x="1228" 
d="M291 -461v49q67 12 99 38t46 77h-65l39 145h147l-35 -127q-25 -90 -78 -131t-153 -51zM74 0l385 1434h106l-358 -1336h842l-27 -98h-948z" />
    <glyph glyph-name="lcommaaccent" unicode="&#x13c;" horiz-adv-x="512" 
d="M-100 -461v49q66 12 98 38t47 77h-65l38 145h148l-35 -127q-25 -90 -78 -131t-153 -51zM66 0l401 1495h100l-401 -1495h-100z" />
    <glyph glyph-name="Lcaron" unicode="&#x13d;" horiz-adv-x="1228" 
d="M895 1434v-7l-180 -299h-60l115 306h125zM74 0l385 1434h106l-358 -1336h842l-27 -98h-948z" />
    <glyph glyph-name="lcaron" unicode="&#x13e;" horiz-adv-x="512" 
d="M872 1495v-6l-180 -299h-59l115 305h124zM66 0l401 1495h100l-401 -1495h-100z" />
    <glyph glyph-name="Ldot" unicode="&#x13f;" horiz-adv-x="1267" 
d="M76 0l385 1434h106l-358 -1336h842l-27 -98h-948zM901 659l45 166h148l-45 -166h-148z" />
    <glyph glyph-name="ldot" unicode="&#x140;" horiz-adv-x="634" 
d="M66 0l401 1495h100l-401 -1495h-100zM539 666l43 165h147l-43 -165h-147z" />
    <glyph glyph-name="Lslash" unicode="&#x141;" horiz-adv-x="1331" 
d="M963 821l-498 -143l-156 -580h842l-27 -98h-948l174 645l-164 -45l25 98l166 47l184 689h107l-176 -656l497 142z" />
    <glyph glyph-name="lslash" unicode="&#x142;" horiz-adv-x="632" 
d="M590 766l-170 -49l-193 -717h-100l184 686l-166 -47l27 102l166 47l190 707h101l-183 -676l172 49z" />
    <glyph glyph-name="Nacute" unicode="&#x143;" horiz-adv-x="1609" 
d="M1022 1556l254 242l123 -57l-269 -185h-108zM74 0l385 1434h98l645 -1256l338 1256h102l-385 -1434h-77l-660 1282l-344 -1282h-102z" />
    <glyph glyph-name="nacute" unicode="&#x144;" horiz-adv-x="1251" 
d="M750 1219l254 272l126 -61l-276 -211h-104zM774 1069q156 0 249 -91t93 -241q0 -57 -22 -147l-156 -590h-100l159 598q16 61 17 129q0 117 -72 185t-203 67q-131 0 -258 -111t-172 -278l-157 -590h-101l279 1044h100l-51 -194q182 219 395 219z" />
    <glyph glyph-name="Ncommaaccent" unicode="&#x145;" horiz-adv-x="1609" 
d="M453 -451v50q67 11 99 37t46 77h-66l39 146h148l-35 -127q-25 -90 -78 -132t-153 -51zM74 0l385 1434h98l645 -1256l338 1256h102l-385 -1434h-77l-660 1282l-344 -1282h-102z" />
    <glyph glyph-name="ncommaaccent" unicode="&#x146;" horiz-adv-x="1251" 
d="M268 -461v49q66 12 99 38t47 77h-66l39 145h148l-35 -127q-24 -90 -78 -131t-154 -51zM774 1069q156 0 249 -91t93 -241q0 -57 -22 -147l-156 -590h-100l159 598q16 61 17 129q0 117 -72 185t-203 67q-131 0 -258 -111t-172 -278l-157 -590h-101l279 1044h100l-51 -194
q182 219 395 219z" />
    <glyph glyph-name="Ncaron" unicode="&#x147;" horiz-adv-x="1609" 
d="M1413 1776l-270 -220h-94l-152 220h102l115 -125l184 125h115zM74 0l385 1434h98l645 -1256l338 1256h102l-385 -1434h-77l-660 1282l-344 -1282h-102z" />
    <glyph glyph-name="ncaron" unicode="&#x148;" horiz-adv-x="1251" 
d="M1090 1468l-273 -249h-82l-137 249h90l107 -139l196 139h99zM774 1069q156 0 249 -91t93 -241q0 -57 -22 -147l-156 -590h-100l159 598q16 61 17 129q0 117 -72 185t-203 67q-131 0 -258 -111t-172 -278l-157 -590h-101l279 1044h100l-51 -194q182 219 395 219z" />
    <glyph glyph-name="Omacron" unicode="&#x14c;" horiz-adv-x="1732" 
d="M823 1640l27 101h635l-27 -101h-635zM307 577q-1 -211 141 -359t353 -148t377 110t259 288q93 177 93 387t-141 358q-141 149 -353 149t-377 -111q-166 -111 -259 -287t-93 -387zM815 -27q-268 -1 -443 177t-175 440q0 221 109 422q110 202 301 324t415 122
q268 0 443 -177t175 -439q0 -221 -110 -422t-300 -324q-192 -123 -415 -123z" />
    <glyph glyph-name="omacron" unicode="&#x14d;" horiz-adv-x="1296" 
d="M524 1272l27 96h623l-27 -96h-623zM213 442q1 -174 101 -273t280 -99t334 160t153 372q0 174 -100 274t-266 99q-199 0 -351 -162t-151 -371zM569 -25q-207 0 -336 130t-129 333q0 250 186 440t435 191q207 0 336 -130t129 -333q0 -254 -188 -442t-433 -189z" />
    <glyph glyph-name="Obreve" unicode="&#x14e;" horiz-adv-x="1732" 
d="M1130 1583q-115 0 -175 54t-42 151h86q2 -53 37 -80t117 -27q145 0 211 107h94q-33 -96 -123 -150t-205 -55zM307 577q-1 -211 141 -359t353 -148t377 110t259 288q93 177 93 387t-141 358q-141 149 -353 149t-377 -111q-166 -111 -259 -287t-93 -387zM815 -27
q-268 -1 -443 177t-175 440q0 221 109 422q110 202 301 324t415 122q268 0 443 -177t175 -439q0 -221 -110 -422t-300 -324q-192 -123 -415 -123z" />
    <glyph glyph-name="obreve" unicode="&#x14f;" horiz-adv-x="1296" 
d="M825 1214q-117 0 -174 62t-37 168h78q-2 -66 34 -98t120 -33q147 0 225 131h88q-37 -106 -127 -168t-207 -62zM213 442q1 -174 101 -273t280 -99t334 160t153 372q0 174 -100 274t-266 99q-199 0 -351 -162t-151 -371zM569 -25q-207 0 -336 130t-129 333q0 250 186 440
t435 191q207 0 336 -130t129 -333q0 -254 -188 -442t-433 -189z" />
    <glyph glyph-name="Ohungarumlaut" unicode="&#x150;" horiz-adv-x="1732" 
d="M1178 1587l254 242l122 -57l-268 -185h-108zM891 1587l254 242l123 -57l-269 -185h-108zM307 577q-1 -211 141 -359t353 -148t377 110t259 288q93 177 93 387t-141 358q-141 149 -353 149t-377 -111q-166 -111 -259 -287t-93 -387zM815 -27q-268 -1 -443 177t-175 440
q0 221 109 422q110 202 301 324t415 122q268 0 443 -177t175 -439q0 -221 -110 -422t-300 -324q-192 -123 -415 -123z" />
    <glyph glyph-name="ohungarumlaut" unicode="&#x151;" horiz-adv-x="1296" 
d="M592 1219l256 272l96 -59l-264 -213h-88zM903 1219l256 272l96 -59l-264 -213h-88zM213 442q1 -174 101 -273t280 -99t334 160t153 372q0 174 -100 274t-266 99q-199 0 -351 -162t-151 -371zM569 -25q-207 0 -336 130t-129 333q0 250 186 440t435 191q207 0 336 -130
t129 -333q0 -254 -188 -442t-433 -189z" />
    <glyph glyph-name="OE" unicode="&#x152;" horiz-adv-x="2363" 
d="M909 98h215l332 1237h-330q-389 0 -634 -245q-193 -193 -193 -480q0 -217 133 -350q162 -162 477 -162zM903 0q-365 0 -557 193q-158 158 -158 409q0 332 224 555q131 131 320 204t409 73h1329l-27 -99h-880l-152 -563h789l-27 -98h-789l-153 -576h891l-27 -98h-1192z
" />
    <glyph glyph-name="oe" unicode="&#x153;" horiz-adv-x="2142" 
d="M213 442q1 -174 101 -273t280 -99t334 158t154 350q0 194 -101 295t-283 101t-334 -161q-152 -162 -151 -371zM1952 664q0 135 -75 224t-231 89q-156 -1 -285 -115q-128 -114 -175 -284h758q8 37 8 86zM1163 418q1 -158 97 -253t266 -95t340 139l59 -72
q-195 -162 -409 -162q-166 0 -283 87t-150 231q-84 -139 -217 -228q-134 -89 -318 -89t-314 130q-130 131 -130 332q0 250 186 440t435 191q172 0 285 -94t145 -240q180 334 504 334q187 0 291 -115t104 -284q0 -100 -29 -183h-858q-4 -45 -4 -69z" />
    <glyph glyph-name="Racute" unicode="&#x154;" horiz-adv-x="1460" 
d="M874 1567l254 241l123 -57l-268 -184h-109zM795 690q305 0 450 146q96 96 96 216t-63 185q-98 98 -309 98h-430l-174 -645h430zM973 1434q258 0 385 -127q90 -90 90 -248t-133 -291t-416 -164l315 -604h-122l-308 594h-444l-160 -594h-106l385 1434h514z" />
    <glyph glyph-name="racute" unicode="&#x155;" horiz-adv-x="811" 
d="M526 1219l254 272l127 -61l-276 -211h-105zM852 950q-188 0 -355 -141t-231 -381l-114 -428h-101l279 1044h100l-78 -296q236 330 537 313l-29 -111h-8z" />
    <glyph glyph-name="Rcommaaccent" unicode="&#x156;" horiz-adv-x="1460" 
d="M375 -451v50q67 11 99 37t46 77h-65l39 146h147l-35 -127q-25 -90 -78 -132t-153 -51zM795 690q305 0 450 146q96 96 96 216t-63 185q-98 98 -309 98h-430l-174 -645h430zM973 1434q258 0 385 -127q90 -90 90 -248t-133 -291t-416 -164l315 -604h-122l-308 594h-444
l-160 -594h-106l385 1434h514z" />
    <glyph glyph-name="rcommaaccent" unicode="&#x157;" horiz-adv-x="811" 
d="M-100 -461v49q66 12 98 38t47 77h-65l38 145h148l-35 -127q-25 -90 -78 -131t-153 -51zM852 950q-188 0 -355 -141t-231 -381l-114 -428h-101l279 1044h100l-78 -296q236 330 537 313l-29 -111h-8z" />
    <glyph glyph-name="Rcaron" unicode="&#x158;" horiz-adv-x="1460" 
d="M1268 1786l-271 -219h-94l-151 219h102l115 -125l184 125h115zM795 690q305 0 450 146q96 96 96 216t-63 185q-98 98 -309 98h-430l-174 -645h430zM973 1434q258 0 385 -127q90 -90 90 -248t-133 -291t-416 -164l315 -604h-122l-308 594h-444l-160 -594h-106l385 1434
h514z" />
    <glyph glyph-name="rcaron" unicode="&#x159;" horiz-adv-x="811" 
d="M864 1468l-272 -249h-82l-137 249h90l106 -139l197 139h98zM852 950q-188 0 -355 -141t-231 -381l-114 -428h-101l279 1044h100l-78 -296q236 330 537 313l-29 -111h-8z" />
    <glyph glyph-name="Sacute" unicode="&#x15a;" horiz-adv-x="1306" 
d="M854 1587l254 242l123 -57l-268 -185h-109zM612 -20q-377 0 -571 274l82 59q94 -121 213 -179t291 -58t291 89t118 224q0 94 -69 158q-71 63 -271 141t-292 160q-91 82 -91 211q-1 167 143 281t371 114q156 0 286 -60t212 -159l-82 -66q-164 188 -426 189
q-178 0 -287 -86q-108 -86 -108 -194t78 -170t274 -137t283 -160q88 -85 88 -214q0 -177 -152 -297t-381 -120z" />
    <glyph glyph-name="sacute" unicode="&#x15b;" horiz-adv-x="1013" 
d="M612 1219l254 272l127 -61l-276 -211h-105zM444 -23q-262 0 -442 181l72 71q166 -160 383 -159q104 0 187 58t83 148q0 62 -48 110q-47 48 -191 101t-213 115t-68 162q0 127 107 215q108 88 280 88q211 0 377 -139l-66 -76q-150 123 -321 123q-125 0 -198 -57t-73 -129
t47 -115q47 -44 196 -102q150 -58 214 -121t64 -158q0 -135 -115 -225t-275 -91z" />
    <glyph glyph-name="Scedilla" unicode="&#x15e;" horiz-adv-x="1306" 
d="M627 76q172 0 291 89t118 224q0 94 -69 158q-71 63 -271 141t-292 160q-91 82 -91 211q-1 167 143 281t371 114q156 0 286 -60t212 -159l-82 -66q-164 188 -426 189q-178 0 -287 -86q-108 -86 -108 -194t78 -170t274 -137t283 -160q88 -85 88 -214q0 -176 -152 -297
t-381 -120h-22l-215 -283l-99 53l224 238q-297 37 -459 266l82 59q94 -121 213 -179t291 -58z" />
    <glyph glyph-name="scedilla" unicode="&#x15f;" horiz-adv-x="1013" 
d="M727 276q0 62 -48 110q-47 48 -191 101t-213 115t-68 162q0 127 107 215q108 88 280 88q211 0 377 -139l-66 -76q-150 123 -321 123q-125 0 -198 -57t-73 -129t47 -115q47 -44 196 -102q150 -58 214 -121t64 -158q0 -135 -115 -225t-275 -91h-22l-213 -280l-98 53
l223 238q-195 33 -332 170l72 71q166 -160 383 -159q104 0 187 58t83 148z" />
    <glyph glyph-name="Scaron" unicode="&#x160;" horiz-adv-x="1306" 
d="M1245 1806l-270 -219h-94l-152 219h102l115 -125l184 125h115zM612 -20q-377 0 -571 274l82 59q94 -121 213 -179t291 -58t291 89t118 224q0 94 -69 158q-71 63 -271 141t-292 160q-91 82 -91 211q-1 167 143 281t371 114q156 0 286 -60t212 -159l-82 -66
q-164 188 -426 189q-178 0 -287 -86q-108 -86 -108 -194t78 -170t274 -137t283 -160q88 -85 88 -214q0 -177 -152 -297t-381 -120z" />
    <glyph glyph-name="scaron" unicode="&#x161;" horiz-adv-x="1013" 
d="M950 1468l-272 -249h-82l-137 249h90l106 -139l197 139h98zM444 -23q-262 0 -442 181l72 71q166 -160 383 -159q104 0 187 58t83 148q0 62 -48 110q-47 48 -191 101t-213 115t-68 162q0 127 107 215q108 88 280 88q211 0 377 -139l-66 -76q-150 123 -321 123
q-125 0 -198 -57t-73 -129t47 -115q47 -44 196 -102q150 -58 214 -121t64 -158q0 -135 -115 -225t-275 -91z" />
    <glyph glyph-name="Tcommaaccent" unicode="&#x162;" horiz-adv-x="1259" 
d="M266 -461v49q66 12 99 38t47 77h-66l39 145h147l-34 -127q-24 -90 -78 -131t-154 -51zM428 0l358 1335h-499l26 99h1106l-26 -99h-500l-358 -1335h-107z" />
    <glyph glyph-name="tcommaaccent" unicode="&#x163;" horiz-adv-x="811" 
d="M113 -461v49q67 12 99 38t46 77h-65l38 145h148l-35 -127q-25 -90 -78 -131t-153 -51zM404 -18q-94 0 -162 52q-70 52 -70 154q0 47 12 101l178 663h-151l25 92h151l90 334h101l-91 -334h361l-25 -92h-360l-178 -665q-10 -45 -11 -88q0 -125 170 -125q66 0 152 32
l-27 -98q-71 -26 -165 -26z" />
    <glyph glyph-name="Tcaron" unicode="&#x164;" horiz-adv-x="1259" 
d="M1233 1786l-270 -219h-95l-151 219h102l115 -125l184 125h115zM428 0l358 1335h-499l26 99h1106l-26 -99h-500l-358 -1335h-107z" />
    <glyph glyph-name="tcaron" unicode="&#x165;" horiz-adv-x="811" 
d="M952 1507v-6l-180 -299h-59l114 305h125zM404 -18q-94 0 -162 52q-70 52 -70 154q0 47 12 101l178 663h-151l25 92h151l90 334h101l-91 -334h361l-25 -92h-360l-178 -665q-10 -45 -11 -88q0 -125 170 -125q66 0 152 32l-27 -98q-71 -26 -165 -26z" />
    <glyph glyph-name="Umacron" unicode="&#x16a;" horiz-adv-x="1548" 
d="M729 1610l27 100h635l-27 -100h-635zM714 -23q-251 0 -384 125t-133 326q0 111 28 221l209 785h107l-222 -834q-18 -74 -18 -164q1 -162 107 -262t311 -100t345 140t208 388l223 832h107l-230 -854q-72 -266 -227 -422q-180 -181 -431 -181z" />
    <glyph glyph-name="umacron" unicode="&#x16b;" horiz-adv-x="1247" 
d="M489 1272l27 96h623l-27 -96h-623zM473 -25q-156 -1 -249 91t-93 241q0 57 23 148l155 589h101l-160 -598q-16 -61 -17 -129q0 -117 72 -185t203 -66q131 0 258 110t172 279l158 589h100l-278 -1044h-101l51 195q-182 -220 -395 -220z" />
    <glyph glyph-name="Ubreve" unicode="&#x16c;" horiz-adv-x="1548" 
d="M1038 1552q-115 0 -175 54t-42 151h86q2 -53 37 -80t117 -26q143 0 211 106h94q-33 -97 -123 -151t-205 -54zM714 -23q-251 0 -384 125t-133 326q0 111 28 221l209 785h107l-222 -834q-18 -74 -18 -164q1 -162 107 -262t311 -100t345 140t208 388l223 832h107l-230 -854
q-72 -266 -227 -422q-180 -181 -431 -181z" />
    <glyph glyph-name="ubreve" unicode="&#x16d;" horiz-adv-x="1247" 
d="M791 1214q-117 0 -175 62t-36 168h77q-2 -66 34 -98t120 -33q147 0 225 131h88q-36 -106 -126 -168t-207 -62zM473 -25q-156 -1 -249 91t-93 241q0 57 23 148l155 589h101l-160 -598q-16 -61 -17 -129q0 -117 72 -185t203 -66q131 0 258 110t172 279l158 589h100
l-278 -1044h-101l51 195q-182 -220 -395 -220z" />
    <glyph glyph-name="Uring" unicode="&#x16e;" horiz-adv-x="1548" 
d="M1068 1597q58 0 107 42q48 41 48 97t-32 88t-92 32t-109 -42q-48 -42 -48 -100t34 -87q34 -30 92 -30zM1062 1532q-91 0 -146 48q-54 48 -54 131t75 147t166 63q91 0 145 -48t54 -131q0 -82 -74 -146q-75 -64 -166 -64zM714 -23q-251 0 -384 125t-133 326q0 111 28 221
l209 785h107l-222 -834q-18 -74 -18 -164q1 -162 107 -262t311 -100t345 140t208 388l223 832h107l-230 -854q-72 -266 -227 -422q-180 -181 -431 -181z" />
    <glyph glyph-name="uring" unicode="&#x16f;" horiz-adv-x="1247" 
d="M824 1270q64 0 114 45q49 45 49 103t-36 94q-37 36 -101 36t-113 -45t-49 -103t36 -94t100 -36zM854 1614q92 0 150 -54t57 -140q0 -86 -74 -150q-74 -66 -166 -66t-149 54q-58 54 -58 140t74 150q74 66 166 66zM473 -25q-156 -1 -249 91t-93 241q0 57 23 148l155 589
h101l-160 -598q-16 -61 -17 -129q0 -117 72 -185t203 -66q131 0 258 110t172 279l158 589h100l-278 -1044h-101l51 195q-182 -220 -395 -220z" />
    <glyph glyph-name="Uhungarumlaut" unicode="&#x170;" horiz-adv-x="1548" 
d="M1083 1556l254 242l123 -57l-268 -185h-109zM797 1556l254 242l123 -57l-269 -185h-108zM714 -23q-251 0 -384 125t-133 326q0 111 28 221l209 785h107l-222 -834q-18 -74 -18 -164q1 -162 107 -262t311 -100t345 140t208 388l223 832h107l-230 -854q-72 -266 -227 -422
q-180 -181 -431 -181z" />
    <glyph glyph-name="uhungarumlaut" unicode="&#x171;" horiz-adv-x="1247" 
d="M555 1219l256 272l96 -59l-264 -213h-88zM866 1219l256 272l97 -59l-265 -213h-88zM473 -25q-156 -1 -249 91t-93 241q0 57 23 148l155 589h101l-160 -598q-16 -61 -17 -129q0 -117 72 -185t203 -66q131 0 258 110t172 279l158 589h100l-278 -1044h-101l51 195
q-182 -220 -395 -220z" />
    <glyph glyph-name="Uogonek" unicode="&#x172;" horiz-adv-x="1548" 
d="M459 -201q0 92 135 189q-195 30 -296 148t-101 292q0 111 28 221l209 785h107l-222 -834q-18 -74 -18 -164q1 -162 107 -262t311 -100t345 140t208 388l223 832h107l-230 -854q-72 -266 -227 -422q-180 -180 -432 -181h-19q-131 -92 -131 -161q0 -61 135 -78l-18 -74
q-221 14 -221 135z" />
    <glyph glyph-name="uogonek" unicode="&#x173;" horiz-adv-x="1247" 
d="M641 -201q0 102 180 219l47 177q-182 -219 -395 -220q-156 -1 -249 91t-93 241q0 57 23 148l155 589h101l-160 -598q-16 -61 -17 -129q0 -117 72 -185t203 -66q131 0 258 110t172 279l158 589h100l-278 -1044h-9q-164 -106 -164 -184q0 -61 136 -78l-19 -74
q-221 14 -221 135z" />
    <glyph glyph-name="Wcircumflex" unicode="&#x174;" horiz-adv-x="2199" 
d="M1085 1567l271 219h94l152 -219h-103l-115 125l-184 -125h-115zM440 -10l-133 1444h111l108 -1276l762 1280h82l78 -1280l793 1276h118l-907 -1444h-86l-86 1245l-754 -1245h-86z" />
    <glyph glyph-name="wcircumflex" unicode="&#x175;" horiz-adv-x="1730" 
d="M774 1219l273 249h81l138 -249h-90l-107 139l-197 -139h-98zM303 -8l-100 1052h102l76 -909l559 914h80l72 -914l563 909h110l-665 -1052h-88l-72 895l-553 -895h-84z" />
    <glyph glyph-name="Ycircumflex" unicode="&#x176;" horiz-adv-x="1368" 
d="M657 1556l271 220h94l152 -220h-103l-115 125l-184 -125h-115zM479 0l156 582l-375 852h117l330 -770l745 770h143l-862 -879l-147 -555h-107z" />
    <glyph glyph-name="ycircumflex" unicode="&#x177;" horiz-adv-x="1163" 
d="M453 1219l272 249h82l137 -249h-90l-106 139l-197 -139h-98zM39 -334q-117 0 -219 72l55 82q74 -60 167 -60t172 56t173 190l-213 1038h107l182 -933l629 933h120l-743 -1081q-111 -161 -212 -229t-218 -68z" />
    <glyph glyph-name="Ydieresis" unicode="&#x178;" horiz-adv-x="1368" 
d="M676 1556l43 156h151l-43 -156h-151zM1036 1556l43 156h150l-43 -156h-150zM479 0l156 582l-375 852h117l330 -770l745 770h143l-862 -879l-147 -555h-107z" />
    <glyph glyph-name="Zacute" unicode="&#x179;" horiz-adv-x="1355" 
d="M846 1567l254 241l123 -57l-269 -184h-108zM-39 0l16 59l1303 1278h-926l27 97h1092l-17 -60l-1302 -1278h966l-26 -96h-1133z" />
    <glyph glyph-name="zacute" unicode="&#x17a;" horiz-adv-x="1118" 
d="M645 1219l254 272l127 -61l-276 -211h-105zM-35 0l17 57l972 897h-704l24 90h869l-17 -57l-972 -897h739l-25 -90h-903z" />
    <glyph glyph-name="Zdotaccent" unicode="&#x17b;" horiz-adv-x="1355" 
d="M829 1567l43 155h156l-43 -155h-156zM-39 0l16 59l1303 1278h-926l27 97h1092l-17 -60l-1302 -1278h966l-26 -96h-1133z" />
    <glyph glyph-name="zdotaccent" unicode="&#x17c;" horiz-adv-x="1118" 
d="M637 1214l47 175h135l-47 -175h-135zM-35 0l17 57l972 897h-704l24 90h869l-17 -57l-972 -897h739l-25 -90h-903z" />
    <glyph glyph-name="Zcaron" unicode="&#x17d;" horiz-adv-x="1355" 
d="M1239 1786l-270 -219h-95l-151 219h102l115 -125l184 125h115zM-39 0l16 59l1303 1278h-926l27 97h1092l-17 -60l-1302 -1278h966l-26 -96h-1133z" />
    <glyph glyph-name="zcaron" unicode="&#x17e;" horiz-adv-x="1118" 
d="M983 1468l-272 -249h-82l-137 249h90l106 -139l197 139h98zM-35 0l17 57l972 897h-704l24 90h869l-17 -57l-972 -897h739l-25 -90h-903z" />
    <glyph glyph-name="florin" unicode="&#x192;" horiz-adv-x="1077" 
d="M68 -20q-61 0 -115 16l27 88q44 -14 106 -14q124 0 221 219l219 497h-219l25 93h233l121 274q131 301 365 301q88 0 170 -31l-31 -86q-76 27 -143 27q-164 0 -269 -236l-110 -249h331l-24 -93h-346l-230 -522q-69 -156 -147 -220t-184 -64z" />
    <glyph glyph-name="Aringacute" unicode="&#x1fa;" horiz-adv-x="1554" 
d="M1071 1798l250 221l117 -57l-258 -164h-109zM920 1530q0 -57 34 -87t91 -30q58 0 107 42q48 41 48 97t-32 88t-92 31q-60 0 -108 -42t-48 -99zM410 498h755l-153 829zM840 1514q0 96 74 159q75 63 166 63q92 0 146 -47q54 -48 54 -122t-50 -132t-126 -79l264 -1356h-108
l-74 401h-846l-291 -401h-119l1002 1370q-92 48 -92 144z" />
    <glyph glyph-name="aringacute" unicode="&#x1fb;" horiz-adv-x="1169" 
d="M778 1280q64 0 113 45t49 103t-36 95q-36 36 -100 36q-64 1 -114 -45q-49 -46 -49 -104t36 -94q37 -36 101 -36zM774 1214q-92 0 -149 54t-57 140q0 85 73 151q74 65 166 65t149 -54q58 -54 58 -139t-74 -151t-166 -66zM426 68q136 0 272 97t176 251l25 92
q-197 49 -374 49t-274 -77t-97 -186t68 -168q68 -58 204 -58zM389 -25q-141 0 -242 77q-100 77 -100 216q0 172 131 276q132 104 328 103q196 0 414 -59l8 28q14 53 14 105q0 119 -81 182t-229 63t-308 -55l-19 90q166 59 343 59t285 -86q108 -87 107 -239q0 -59 -20 -137
l-160 -598h-98l47 180q-172 -205 -420 -205zM807 1679l248 242l112 -61l-262 -181h-98z" />
    <glyph glyph-name="AEacute" unicode="&#x1fc;" horiz-adv-x="2187" 
d="M1485 1567l254 241l123 -57l-269 -184h-108zM496 498h557l225 839h-55zM-66 0l1252 1434h1108l-27 -99h-883l-151 -563h790l-26 -98h-791l-153 -576h893l-27 -98h-999l108 401h-616l-349 -401h-129z" />
    <glyph glyph-name="aeacute" unicode="&#x1fd;" horiz-adv-x="1976" 
d="M1065 1219l254 272l127 -61l-277 -211h-104zM512 557q-156 0 -257 -76t-101 -184t69 -169q70 -60 195 -60q252 0 487 256q-8 41 -8 92t6 94q-166 47 -391 47zM1786 664q0 135 -75 224t-231 89q-156 -1 -285 -115q-128 -114 -175 -284h758q8 37 8 86zM410 -25
q-158 0 -260 80t-102 236t134 256q135 100 339 100t399 -59l8 28q14 53 14 105q0 119 -81 182t-229 63t-308 -55l-19 90q166 59 330 59t267 -65q103 -66 130 -182q86 117 206 187t255 69q187 0 291 -115t104 -284q0 -100 -28 -183h-859q-4 -45 -4 -69q1 -158 97 -253
t266 -95t340 139l59 -72q-195 -162 -409 -162q-154 1 -262 69t-156 187q-246 -256 -522 -256z" />
    <glyph glyph-name="Oslashacute" unicode="&#x1fe;" horiz-adv-x="1732" 
d="M1063 1587l254 242l123 -57l-269 -185h-108zM307 612q0 -174 62 -286l1038 868q-141 168 -385 168q-197 0 -363 -111t-259 -287q-93 -178 -93 -352zM815 70q197 0 363 110t259 288t93 354t-70 298l-1042 -870q141 -180 397 -180zM197 610q0 200 109 402q110 202 301 324
t415 122q287 0 463 -198l221 184h141l-307 -256q100 -156 100 -362t-110 -406q-110 -201 -300 -324q-191 -123 -415 -123q-297 0 -475 211l-234 -194h-141l322 268q-90 152 -90 352z" />
    <glyph glyph-name="oslashacute" unicode="&#x1ff;" horiz-adv-x="1296" 
d="M762 1219l254 272l127 -61l-277 -211h-104zM213 442q0 -104 39 -188l741 608q-97 113 -287 113t-342 -162t-151 -371zM586 70q190 0 342 160q154 160 153 372q0 104 -39 189l-743 -609q97 -112 287 -112zM104 438q0 250 186 440t435 191q215 0 346 -143l162 133h137
l-246 -201q66 -109 66 -252q0 -254 -188 -442t-420 -188q-230 0 -361 141l-155 -127h-138l242 196q-66 109 -66 252z" />
    <glyph glyph-name="Scommaaccent" unicode="&#x218;" horiz-adv-x="1306" 
d="M274 -461v49q66 12 99 38t47 77h-66l39 145h148l-35 -127q-24 -90 -78 -131t-154 -51zM612 -20q-377 0 -571 274l82 59q94 -121 213 -179t291 -58t291 89t118 224q0 94 -69 158q-71 63 -271 141t-292 160q-91 82 -91 211q-1 167 143 281t371 114q156 0 286 -60t212 -159
l-82 -66q-164 188 -426 189q-178 0 -287 -86q-108 -86 -108 -194t78 -170t274 -137t283 -160q88 -85 88 -214q0 -177 -152 -297t-381 -120z" />
    <glyph glyph-name="scommaaccent" unicode="&#x219;" horiz-adv-x="1013" 
d="M129 -461v49q67 12 99 38t46 77h-65l39 145h147l-35 -127q-25 -90 -78 -131t-153 -51zM444 -23q-262 0 -442 181l72 71q166 -160 383 -159q104 0 187 58t83 148q0 62 -48 110q-47 48 -191 101t-213 115t-68 162q0 127 107 215q108 88 280 88q211 0 377 -139l-66 -76
q-150 123 -321 123q-125 0 -198 -57t-73 -129t47 -115q47 -44 196 -102q150 -58 214 -121t64 -158q0 -135 -115 -225t-275 -91z" />
    <glyph glyph-name="schwa" unicode="&#x259;" horiz-adv-x="1193" 
d="M195 381q1 -135 75 -224t230 -89t284 114q127 114 177 285h-758q-8 -37 -8 -86zM92 375q0 100 29 182h858q4 45 4 70q0 158 -96 253t-266 95t-340 -139l-60 71q195 162 406 162t338 -123t127 -315q0 -252 -178 -454t-427 -202q-187 0 -291 115t-104 285z" />
    <glyph glyph-name="circumflex" unicode="&#x2c6;" 
d="M455 1219l272 249h82l137 -249h-90l-106 139l-197 -139h-98z" />
    <glyph glyph-name="caron" unicode="&#x2c7;" 
d="M1012 1468l-273 -249h-82l-137 249h90l107 -139l196 139h99z" />
    <glyph glyph-name="breve" unicode="&#x2d8;" 
d="M694 1214q-117 0 -174 62t-37 168h78q-2 -66 34 -98t120 -33q147 0 225 131h88q-37 -106 -127 -168t-207 -62z" />
    <glyph glyph-name="dotaccent" unicode="&#x2d9;" 
d="M629 1214l47 175h135l-47 -175h-135z" />
    <glyph glyph-name="ring" unicode="&#x2da;" 
d="M742 1280q64 0 114 45q49 45 49 103t-36 95q-37 36 -101 36q-64 1 -113 -45t-49 -104t36 -94t100 -36zM739 1214q-92 0 -149 54q-58 54 -58 140q0 85 74 151q74 65 166 65t150 -54t57 -139q0 -85 -74 -151t-166 -66z" />
    <glyph glyph-name="ogonek" unicode="&#x2db;" 
d="M209 -201q0 61 54 117t157 121l61 -35q-168 -111 -168 -186q0 -61 136 -78l-19 -74q-221 14 -221 135z" />
    <glyph glyph-name="tilde" unicode="&#x2dc;" 
d="M591 1409q52 0 138 -42t121 -42q34 0 60 22t59 80l71 -18q-47 -109 -93 -149t-97 -41q-51 0 -137 42t-122 42q-35 0 -61 -22t-59 -81l-72 19q47 109 93 149t99 41z" />
    <glyph glyph-name="hungarumlaut" unicode="&#x2dd;" 
d="M393 1219l256 272l96 -59l-264 -213h-88zM705 1219l256 272l96 -59l-264 -213h-88z" />
    <glyph glyph-name="commaaccent" unicode="&#x326;" 
d="M139 -461v49q66 12 99 38t47 77h-66l39 145h148l-35 -127q-25 -90 -79 -131t-153 -51z" />
    <glyph glyph-name="Wgrave" unicode="&#x1e80;" horiz-adv-x="2199" 
d="M1241 1808l127 -241h-76l-170 184zM440 -10l-133 1444h111l108 -1276l762 1280h82l78 -1280l793 1276h118l-907 -1444h-86l-86 1245l-754 -1245h-86z" />
    <glyph glyph-name="wgrave" unicode="&#x1e81;" horiz-adv-x="1730" 
d="M971 1219l-162 211l127 61l106 -272h-71zM303 -8l-100 1052h102l76 -909l559 914h80l72 -914l563 909h110l-665 -1052h-88l-72 895l-553 -895h-84z" />
    <glyph glyph-name="Wacute" unicode="&#x1e82;" horiz-adv-x="2199" 
d="M1298 1567l254 241l123 -57l-268 -184h-109zM440 -10l-133 1444h111l108 -1276l762 1280h82l78 -1280l793 1276h118l-907 -1444h-86l-86 1245l-754 -1245h-86z" />
    <glyph glyph-name="wacute" unicode="&#x1e83;" horiz-adv-x="1730" 
d="M969 1219l254 272l127 -61l-277 -211h-104zM303 -8l-100 1052h102l76 -909l559 914h80l72 -914l563 909h110l-665 -1052h-88l-72 895l-553 -895h-84z" />
    <glyph glyph-name="Wdieresis" unicode="&#x1e84;" horiz-adv-x="2199" 
d="M1104 1567l43 155h151l-43 -155h-151zM1464 1567l43 155h150l-43 -155h-150zM440 -10l-133 1444h111l108 -1276l762 1280h82l78 -1280l793 1276h118l-907 -1444h-86l-86 1245l-754 -1245h-86z" />
    <glyph glyph-name="wdieresis" unicode="&#x1e85;" horiz-adv-x="1730" 
d="M791 1219l45 163h141l-45 -163h-141zM1124 1219l45 163h142l-45 -163h-142zM303 -8l-100 1052h102l76 -909l559 914h80l72 -914l563 909h110l-665 -1052h-88l-72 895l-553 -895h-84z" />
    <glyph glyph-name="Ygrave" unicode="&#x1ef2;" horiz-adv-x="1368" 
d="M813 1798l127 -242h-76l-170 185zM479 0l156 582l-375 852h117l330 -770l745 770h143l-862 -879l-147 -555h-107z" />
    <glyph glyph-name="ygrave" unicode="&#x1ef3;" horiz-adv-x="1163" 
d="M651 1219l-162 211l127 61l107 -272h-72zM39 -334q-117 0 -219 72l55 82q74 -60 167 -60t172 56t173 190l-213 1038h107l182 -933l629 933h120l-743 -1081q-111 -161 -212 -229t-218 -68z" />
    <glyph glyph-name="enspace" unicode="&#x2002;" 
 />
    <glyph glyph-name="emspace" unicode="&#x2003;" horiz-adv-x="2048" 
 />
    <glyph glyph-name="threeperemspace" unicode="&#x2004;" horiz-adv-x="681" 
 />
    <glyph glyph-name="fourperemspace" unicode="&#x2005;" horiz-adv-x="512" 
 />
    <glyph glyph-name="thinspace" unicode="&#x2009;" horiz-adv-x="272" 
 />
    <glyph glyph-name="hairspace" unicode="&#x200a;" horiz-adv-x="153" 
 />
    <glyph glyph-name="endash" unicode="&#x2013;" horiz-adv-x="1081" 
d="M152 555l28 107h795l-29 -107h-794z" />
    <glyph glyph-name="emdash" unicode="&#x2014;" horiz-adv-x="1839" 
d="M152 555l28 107h1553l-29 -107h-1552z" />
    <glyph glyph-name="quoteleft" unicode="&#x2018;" horiz-adv-x="473" 
d="M301 1051l41 151q29 106 81 158t155 82l14 -49q-141 -49 -164 -168h55l-47 -174h-135z" />
    <glyph glyph-name="quoteright" unicode="&#x2019;" horiz-adv-x="473" 
d="M262 1042l-14 50q141 49 164 168h-56l47 174h136l-41 -152q-31 -106 -82 -159q-52 -52 -154 -81z" />
    <glyph glyph-name="quotesinglbase" unicode="&#x201a;" horiz-adv-x="473" 
d="M-66 -217l-14 49q141 49 164 168h-55l47 174h135l-41 -151q-31 -106 -82 -159q-52 -52 -154 -81z" />
    <glyph glyph-name="quotedblleft" unicode="&#x201c;" horiz-adv-x="841" 
d="M299 1051l41 151q29 106 81 158t154 82l15 -49q-141 -49 -164 -168h55l-47 -174h-135zM668 1051l41 151q29 106 81 158t154 82l14 -49q-141 -49 -163 -168h55l-47 -174h-135z" />
    <glyph glyph-name="quotedblright" unicode="&#x201d;" horiz-adv-x="841" 
d="M260 1042l-14 50q141 49 164 168h-56l47 174h136l-41 -152q-31 -106 -82 -159q-52 -52 -154 -81zM629 1042l-15 50q141 49 164 168h-55l47 174h135l-41 -152q-31 -106 -82 -158t-153 -82z" />
    <glyph glyph-name="quotedblbase" unicode="&#x201e;" horiz-adv-x="843" 
d="M-66 -217l-14 49q141 49 164 168h-55l47 174h135l-41 -151q-31 -106 -82 -159q-52 -52 -154 -81zM305 -217l-14 49q141 49 164 168h-56l47 174h136l-41 -151q-31 -106 -82 -159q-52 -52 -154 -81z" />
    <glyph glyph-name="dagger" unicode="&#x2020;" horiz-adv-x="839" 
d="M328 487l166 586l-258 -14l24 92l250 -14l65 297h103l-94 -297l258 14l-25 -92l-254 14l-145 -586h-90z" />
    <glyph glyph-name="daggerdbl" unicode="&#x2021;" horiz-adv-x="880" 
d="M211 0l94 297l-258 -14l25 92l252 -15l86 357l104 356l-258 -14l25 92l249 -14l66 297h102l-94 -297l258 14l-24 -92l-254 14l-84 -356l-107 -357l260 15l-24 -92l-250 14l-66 -297h-102z" />
    <glyph glyph-name="bullet" unicode="&#x2022;" horiz-adv-x="962" 
d="M488 455q-106 0 -167 60t-61 174t87 206t193 92t168 -60q60 -60 60 -174t-87 -206t-193 -92z" />
    <glyph glyph-name="ellipsis" unicode="&#x2026;" horiz-adv-x="1398" 
d="M29 0l47 174h135l-47 -174h-135zM492 0l47 174h135l-47 -174h-135zM954 0l47 174h136l-47 -174h-136z" />
    <glyph glyph-name="perthousand" unicode="&#x2030;" horiz-adv-x="2463" 
d="M1495 408q-1 232 -201 231q-102 0 -186 -110t-84 -224q0 -231 200 -231q102 0 187 110q84 110 84 224zM2277 408q-1 232 -201 231q-102 0 -186 -110t-84 -224q0 -231 202 -231q102 0 186 110t83 224zM291 1028q1 -231 201 -231q102 -1 186 109t84 224q0 232 -201 232
q-103 0 -187 -110t-83 -224zM1204 -14q-123 0 -202 85t-78 208q0 176 114 312q115 136 277 136q123 0 202 -85t78 -208q-1 -176 -115 -312t-276 -136zM1987 -14q-123 0 -202 85t-79 208q0 176 115 312t276 136q123 0 202 -85t79 -208q0 -176 -114 -312t-277 -136zM133 0
l1397 1434h123l-1397 -1434h-123zM471 709q-123 0 -202 85t-79 207q0 177 115 313t277 136q124 0 202 -85t78 -208q0 -176 -114 -312t-277 -136z" />
    <glyph glyph-name="guilsinglleft" unicode="&#x2039;" horiz-adv-x="636" 
d="M305 86l-213 428l4 16l443 428l73 -57l-393 -393l170 -377z" />
    <glyph glyph-name="guilsinglright" unicode="&#x203a;" horiz-adv-x="636" 
d="M96 84l-73 57l393 394l-170 376l84 45l213 -428l-4 -16z" />
    <glyph glyph-name="fraction" unicode="&#x2044;" horiz-adv-x="1126" 
d="M-170 -201l1427 1753h121l-1427 -1753h-121z" />
    <glyph glyph-name="Euro" unicode="&#x20ac;" horiz-adv-x="1400" 
d="M762 -25q-211 1 -349 143t-149 384h-188l26 98h164q6 133 43 252h-141l27 98h149q92 228 267 368t399 140q170 0 284 -90t164 -235l-92 -37q-55 130 -142 198t-244 68t-299 -113t-224 -299h616l-26 -98h-627q-39 -127 -45 -252h606l-27 -98h-579q10 -195 112 -313
t277 -117q231 0 412 200l71 -61q-211 -236 -485 -236z" />
    <glyph glyph-name="published" unicode="&#x2117;" horiz-adv-x="1699" 
d="M748 705h186q98 0 156 41q57 42 57 118v4q0 156 -207 156h-192v-319zM657 358v750h289q135 0 214 -61t79 -175v-4q0 -120 -88 -184t-219 -63h-184v-263h-91zM899 33q289 -1 485 199t197 485v4q0 283 -195 481q-196 198 -484 199q-288 0 -484 -200t-197 -484v-4
q1 -283 195 -481t483 -199zM899 -25q-309 0 -524 216t-215 522v4q0 305 217 523t526 218t524 -216t215 -521v-4q0 -305 -217 -523t-526 -219z" />
    <glyph glyph-name="servicemark" unicode="&#x2120;" horiz-adv-x="1449" 
d="M431 793q-180 0 -269 122l53 43q86 -102 211 -102q70 0 115 34t45 78t-28 70t-112 59t-124 69q-41 36 -41 105t66 121q67 52 167 52q143 0 223 -98l-51 -48q-76 82 -178 82q-68 0 -111 -34t-43 -74q0 -41 32 -66q32 -26 113 -56t121 -69t39 -96q-1 -82 -69 -137t-159 -55
zM774 803l180 631h66l147 -375l344 375h84l-180 -631h-72l146 504l-342 -365h-10l-146 365l-145 -504h-72z" />
    <glyph glyph-name="trademark" unicode="&#x2122;" horiz-adv-x="1413" 
d="M315 803l160 561h-207l21 70h485l-20 -70h-207l-160 -561h-72zM737 803l181 631h65l147 -375l345 375h84l-181 -631h-71l145 504l-342 -365h-10l-146 365l-145 -504h-72z" />
    <glyph glyph-name="minus" unicode="&#x2212;" horiz-adv-x="1269" 
d="M1171 670h-991l27 102h991z" />
    <glyph glyph-name="Q.alt" horiz-adv-x="1732" 
d="M307 577q-1 -211 141 -359t360 -148t396 129l-239 266l77 67l234 -274q118 112 186 266t68 318q0 223 -141 371q-141 149 -353 149t-377 -111q-166 -111 -259 -287t-93 -387zM803 -27q-256 -1 -431 177t-175 440q0 221 109 422q110 202 301 324t415 122q268 0 443 -177
t175 -439q0 -184 -80 -358t-219 -300l154 -168l-78 -65l-147 174q-211 -152 -467 -152z" />
    <glyph glyph-name="a.alt" horiz-adv-x="1339" 
d="M543 68q197 0 359 168t163 374q0 154 -101 259t-259 106q-207 0 -347 -164t-139 -385q1 -160 91 -259t233 -99zM530 -27q-182 0 -301 124t-118 317q0 274 176 464t413 191q162 0 266 -83t150 -210l72 268h100l-278 -1044h-101l54 203q-193 -230 -433 -230z" />
    <glyph glyph-name="aacute.alt" horiz-adv-x="1339" 
d="M760 1219l254 272l127 -61l-277 -211h-104zM543 68q197 0 359 168t163 374q0 154 -101 259t-259 106q-207 0 -347 -164t-139 -385q1 -160 91 -259t233 -99zM530 -27q-182 0 -301 124t-118 317q0 274 176 464t413 191q162 0 266 -83t150 -210l72 268h100l-278 -1044h-101
l54 203q-193 -230 -433 -230z" />
    <glyph glyph-name="abreve.alt" horiz-adv-x="1339" 
d="M823 1214q-117 0 -174 62t-37 168h78q-2 -66 34 -98t120 -33q147 0 225 131h88q-37 -106 -127 -168t-207 -62zM543 68q197 0 359 168t163 374q0 154 -101 259t-259 106q-207 0 -347 -164t-139 -385q1 -160 91 -259t233 -99zM530 -27q-182 0 -301 124t-118 317
q0 274 176 464t413 191q162 0 266 -83t150 -210l72 268h100l-278 -1044h-101l54 203q-193 -230 -433 -230z" />
    <glyph glyph-name="acircumflex.alt" horiz-adv-x="1339" 
d="M565 1219l273 249h82l137 -249h-90l-107 139l-196 -139h-99zM543 68q197 0 359 168t163 374q0 154 -101 259t-259 106q-207 0 -347 -164t-139 -385q1 -160 91 -259t233 -99zM530 -27q-182 0 -301 124t-118 317q0 274 176 464t413 191q162 0 266 -83t150 -210l72 268h100
l-278 -1044h-101l54 203q-193 -230 -433 -230z" />
    <glyph glyph-name="adieresis.alt" horiz-adv-x="1339" 
d="M582 1219l45 163h141l-45 -163h-141zM915 1219l46 163h141l-45 -163h-142zM543 68q197 0 359 168t163 374q0 154 -101 259t-259 106q-207 0 -347 -164t-139 -385q1 -160 91 -259t233 -99zM530 -27q-182 0 -301 124t-118 317q0 274 176 464t413 191q162 0 266 -83
t150 -210l72 268h100l-278 -1044h-101l54 203q-193 -230 -433 -230z" />
    <glyph glyph-name="agrave.alt" horiz-adv-x="1339" 
d="M762 1219l-162 211l127 61l107 -272h-72zM543 68q197 0 359 168t163 374q0 154 -101 259t-259 106q-207 0 -347 -164t-139 -385q1 -160 91 -259t233 -99zM530 -27q-182 0 -301 124t-118 317q0 274 176 464t413 191q162 0 266 -83t150 -210l72 268h100l-278 -1044h-101
l54 203q-193 -230 -433 -230z" />
    <glyph glyph-name="amacron.alt" horiz-adv-x="1339" 
d="M524 1272l27 96h623l-27 -96h-623zM543 68q197 0 359 168t163 374q0 154 -101 259t-259 106q-207 0 -347 -164t-139 -385q1 -160 91 -259t233 -99zM530 -27q-182 0 -301 124t-118 317q0 274 176 464t413 191q162 0 266 -83t150 -210l72 268h100l-278 -1044h-101l54 203
q-193 -230 -433 -230z" />
    <glyph glyph-name="aogonek.alt" horiz-adv-x="1339" 
d="M543 68q197 0 359 168t163 374q0 154 -101 259t-259 106q-207 0 -347 -164t-139 -385q1 -160 91 -259t233 -99zM733 -201q0 102 180 219l50 185q-193 -229 -433 -230q-182 0 -301 124t-118 317q0 274 176 464t413 191q162 0 266 -83t150 -210l72 268h100l-278 -1044h-9
q-164 -106 -163 -184q0 -61 135 -78l-19 -74q-221 14 -221 135z" />
    <glyph glyph-name="aring.alt" horiz-adv-x="1339" 
d="M862 1280q64 0 113 45t49 103t-36 95q-36 36 -100 36q-64 1 -114 -45q-49 -46 -49 -104t36 -94q37 -36 101 -36zM858 1214q-92 0 -149 54t-57 140q0 85 73 151q74 65 166 65t149 -54q58 -54 58 -139t-74 -151t-166 -66zM543 68q197 0 359 168t163 374q0 154 -101 259
t-259 106q-207 0 -347 -164t-139 -385q1 -160 91 -259t233 -99zM530 -27q-182 0 -301 124t-118 317q0 274 176 464t413 191q162 0 266 -83t150 -210l72 268h100l-278 -1044h-101l54 203q-193 -230 -433 -230z" />
    <glyph glyph-name="aring.alt2" horiz-adv-x="1169" 
d="M720 1059q64 0 114 45q49 45 49 103q0 59 -36 95q-37 36 -101 36t-113 -46q-49 -45 -49 -103t36 -94t100 -36zM426 68q136 0 272 97t176 251l25 92q-197 49 -374 49t-274 -77t-97 -186t68 -168q68 -58 204 -58zM389 -25q-141 0 -242 77q-100 77 -100 216q0 172 131 276
q132 104 328 103q196 0 414 -59l8 28q14 53 14 105q0 119 -81 182t-229 63t-308 -55l-19 90q135 47 254 56q-49 53 -49 134t74 147t166 65q92 0 149 -54t57 -135q0 -123 -122 -186q207 -76 206 -293q0 -59 -20 -137l-160 -598h-98l47 180q-172 -205 -420 -205z" />
    <glyph glyph-name="aringacute.alt" horiz-adv-x="1339" 
d="M862 1280q64 0 113 45t49 103t-36 95q-36 36 -100 36q-64 1 -114 -45q-49 -46 -49 -104t36 -94q37 -36 101 -36zM858 1214q-92 0 -149 54t-57 140q0 85 73 151q74 65 166 65t149 -54q58 -54 58 -139t-74 -151t-166 -66zM543 68q197 0 359 168t163 374q0 154 -101 259
t-259 106q-207 0 -347 -164t-139 -385q1 -160 91 -259t233 -99zM530 -27q-182 0 -301 124t-118 317q0 274 176 464t413 191q162 0 266 -83t150 -210l72 268h100l-278 -1044h-101l54 203q-193 -230 -433 -230zM891 1679l248 242l112 -61l-262 -181h-98z" />
    <glyph glyph-name="aringacute.alt2" horiz-adv-x="1169" 
d="M720 1059q64 0 114 45q49 45 49 103q0 59 -36 95q-37 36 -101 36t-113 -46q-49 -45 -49 -103t36 -94t100 -36zM426 68q136 0 272 97t176 251l25 92q-197 49 -374 49t-274 -77t-97 -186t68 -168q68 -58 204 -58zM389 -25q-141 0 -242 77q-100 77 -100 216q0 172 131 276
q132 104 328 103q196 0 414 -59l8 28q14 53 14 105q0 119 -81 182t-229 63t-308 -55l-19 90q135 47 254 56q-49 53 -49 134t74 147t166 65q92 0 149 -54t57 -135q0 -123 -122 -186q207 -76 206 -293q0 -59 -20 -137l-160 -598h-98l47 180q-172 -205 -420 -205zM760 1483
l248 241l112 -61l-262 -180h-98z" />
    <glyph glyph-name="atilde.alt" horiz-adv-x="1339" 
d="M714 1409q52 0 138 -42t122 -42t62 22t58 80l71 -18q-47 -109 -93 -149t-98 -41q-52 0 -138 42t-121 42t-61 -22t-58 -81l-72 19q47 109 93 149q45 40 97 41zM543 68q197 0 359 168t163 374q0 154 -101 259t-259 106q-207 0 -347 -164t-139 -385q1 -160 91 -259t233 -99z
M530 -27q-182 0 -301 124t-118 317q0 274 176 464t413 191q162 0 266 -83t150 -210l72 268h100l-278 -1044h-101l54 203q-193 -230 -433 -230z" />
    <glyph glyph-name="three.alt" horiz-adv-x="1228" 
d="M532 -25q-178 0 -312 71t-206 187l92 56q143 -217 433 -217q182 0 298 91q115 91 115 230t-123 211t-319 72h-61l24 94h82q254 0 398 86t145 238q0 120 -94 192t-242 72q-209 0 -389 -141l-66 71q203 166 455 166q188 0 318 -95t130 -256t-114 -258t-318 -130
q127 -37 207 -118t80 -206q0 -176 -155 -296t-378 -120z" />
    <glyph glyph-name="registered.alt" horiz-adv-x="1699" 
d="M705 745h233q88 0 143 38t56 106v4q-1 61 -51 98t-138 37h-243v-283zM616 362v750h336q143 0 219 -76q57 -57 58 -139v-4q0 -88 -55 -142t-150 -73l250 -316h-115l-237 302h-217v-302h-89zM899 33q289 -1 485 199t197 485v4q0 283 -195 481q-196 198 -484 199
q-288 0 -484 -200t-197 -484v-4q1 -283 195 -481t483 -199zM899 -25q-309 0 -524 216t-215 522v4q0 305 217 523t526 218t524 -216t215 -521v-4q0 -305 -217 -523t-526 -219z" />
    <glyph glyph-name="NUL" horiz-adv-x="0" 
 />
    <glyph glyph-name="hfjslug" horiz-adv-x="1421" 
d="M872 580q-33 0 -32 34q0 12 9 24t23 11q14 0 24 -11t9 -24q0 -34 -33 -34zM997 612h-22v35h22q20 0 21 -16q-1 -19 -21 -19zM659 823q-33 0 -33 45t33 78l41 -80q-16 -43 -41 -43zM645 1056q0 30 29 29q27 -1 27 -35t-31 -69q-25 45 -25 75zM494 662l28 -97h17l22 70h2
l23 -70h16l29 97h-17l-20 -72h-2l-23 72h-14l-23 -72h-2l-20 72h-16zM270 662v-95h17v66l51 -66h14v95h-16v-66l-51 66h-15zM395 662v-95h70v15h-53v26h47v15h-47v24h53v15h-70zM750 567h16v35l37 60h-19l-26 -46l-27 46h-18l37 -60v-35zM872 565q20 1 34 15q33 33 1 68
q-15 16 -35 16t-34 -16t-14 -34q0 -20 14 -34t34 -15zM1034 631q0 31 -35 31h-41v-95h17v31h24l21 -31h18l-24 35q20 8 20 29zM1071 662v-95h16v25l17 16l31 -41h20l-41 54l37 41h-21l-40 -50h-3v50h-16zM729 1047q0 63 -55 63q-25 0 -41 -18q-35 -39 12 -125
q-47 -37 -47 -83q0 -91 59 -89q39 0 60 49h2l24 -49l25 12l-35 65q13 29 27 80l-27 6q-8 -37 -16 -61h-2l-33 64q47 43 47 86zM985 799q63 0 64 73v281h-33v-281q0 -45 -33 -45q-16 0 -41 11v-31q20 -8 43 -8zM377 1153v-352h31v162h96v-162h31v352h-31v-162h-96v162h-31z
M819 1153v-352h31v160h78v28h-78v135h88v29h-119zM1319 -410h-426l-16 29h-334l-17 -29h-424v621q29 0 48 19q18 19 18 46q0 26 -20 46t-46 20v1135h205l62 161h684l59 -161h207v-1887z" />
    <glyph glyph-name="i.dot" horiz-adv-x="512" 
d="M66 0l280 1044h100l-280 -1044h-100zM408 1317l36 137h125l-37 -137h-124z" />
    <glyph glyph-name="caron.alt" 
d="M854 1495v-6l-180 -299h-60l115 305h125z" />
    <glyph glyph-name="acute.cap" 
d="M662 1567l253 241l123 -57l-268 -184h-108z" />
    <glyph glyph-name="hungarumlaut.cap" 
d="M774 1567l254 241l123 -57l-268 -184h-109zM487 1567l254 241l123 -57l-268 -184h-109z" />
    <glyph glyph-name="grave.cap" 
d="M778 1808l127 -241h-76l-170 184z" />
    <glyph glyph-name="circumflex.cap" 
d="M532 1567l271 219h94l152 -219h-103l-115 125l-184 -125h-115z" />
    <glyph glyph-name="caron.cap" 
d="M1108 1786l-270 -219h-95l-151 219h102l115 -125l184 125h115z" />
    <glyph glyph-name="breve.cap" 
d="M788 1563q-115 0 -175 54t-42 150h86q2 -53 37 -79t117 -27q145 0 211 106h94q-33 -96 -123 -150t-205 -54z" />
    <glyph glyph-name="tilde.cap" 
d="M1124 1745q-83 -178 -187 -178q-50 0 -137 39t-121 39q-35 0 -59 -21t-57 -76l-74 21q84 180 188 180q50 0 137 -39t121 -39q35 1 59 21t57 73z" />
    <glyph glyph-name="macron.cap" 
d="M489 1620l27 100h635l-27 -100h-635z" />
    <glyph glyph-name="dieresis.cap" 
d="M535 1567l43 155h151l-43 -155h-151zM895 1567l43 155h149l-43 -155h-149z" />
    <glyph glyph-name="dotaccent.cap" 
d="M713 1567l43 155h155l-43 -155h-155z" />
    <glyph glyph-name="ring.cap" 
d="M826 1628q58 0 107 42q48 42 48 98t-32 86q-32 32 -92 32t-108 -42q-49 -42 -49 -99t34 -87t92 -30zM1061 1773q0 -83 -75 -147t-166 -63q-91 0 -145 48t-54 131t74 146q75 64 166 64t145 -48t55 -131z" />
    </font>
</defs>
</svg>
