<?xml version="1.0" standalone="no"?>
<!DOCTYPE svg PUBLIC "-//W3C//DTD SVG 1.1//EN" "http://www.w3.org/Graphics/SVG/1.1/DTD/svg11.dtd" >
<svg xmlns="http://www.w3.org/2000/svg">
<metadata>
Created by FontPrep 20130207 at Wed Dec 14 14:35:22 2016
 By Denis Valcke
Copyright (C) 2000, 2007 Hoefler &#38; Frere-Jones. http://www.typography.com
</metadata>
<defs>
<font id="bdc473fae2f64b1c45b8886bcff81bae" horiz-adv-x='1024' >
  <font-face 
    font-family="Gotham-Medium"
    font-weight="350"
    font-stretch="normal"
    units-per-em="2048"
    panose-1="2 0 6 4 3 0 0 2 0 4"
    ascent="1638"
    descent="-410"
    x-height="1081"
    cap-height="1434"
    bbox="-98 -563 2417 2064"
    underline-thickness="40"
    underline-position="-231"
    unicode-range="U+0020-FB04"
  />
<missing-glyph 
d="M512 492l-367 -799h734zM922 1384l-353 -770l353 -770v1540zM102 -156l353 770l-353 770v-1540zM145 1536l367 -799l367 799h-734zM0 -410v2048h1024v-2048h-1024z" />
    <glyph glyph-name="f_f" unicode="ff" horiz-adv-x="1540" 
d="M211 0v868h-137v207h137v78q0 180 87 267t245 87q104 0 200 -28v-209q-80 27 -145 26q-143 0 -143 -163v-60h286v-205h-282v-868h-248zM981 0v868h-137v207h137v78q0 180 87 267t243 87q106 0 202 -28v-209q-80 27 -145 26q-143 0 -143 -163v-60h286v-205h-282v-868h-248
z" />
    <glyph glyph-name="fi" unicode="fi" horiz-adv-x="1355" 
d="M940 0v1081h248v-1081h-248zM211 0v868h-137v207h137v78q0 180 87 267t245 87q104 0 200 -28v-209q-80 27 -145 26q-143 0 -143 -163v-60h286v-205h-282v-868h-248zM930 1247v236h266v-236h-266z" />
    <glyph glyph-name="fl" unicode="fl" horiz-adv-x="1355" 
d="M940 0v1495h248v-1495h-248zM211 0v868h-137v207h137v78q0 180 87 267t245 87q104 0 200 -28v-209q-80 27 -145 26q-143 0 -143 -163v-60h286v-205h-282v-868h-248z" />
    <glyph glyph-name="f_f_i" unicode="ffi" horiz-adv-x="2125" 
d="M1708 0v1081h250v-1081h-250zM211 0v868h-137v207h137v78q0 180 87 267t245 87q104 0 200 -28v-209q-80 27 -145 26q-143 0 -143 -163v-60h286v-205h-282v-868h-248zM981 0v868h-137v207h137v78q0 180 87 267t243 87q106 0 202 -28v-209q-80 27 -145 26q-143 0 -143 -163
v-60h286v-205h-282v-868h-248zM1700 1247v236h266v-236h-266z" />
    <glyph glyph-name="f_f_l" unicode="ffl" horiz-adv-x="2125" 
d="M1708 0v1495h250v-1495h-250zM211 0v868h-137v207h137v78q0 180 87 267t245 87q104 0 200 -28v-209q-80 27 -145 26q-143 0 -143 -163v-60h286v-205h-282v-868h-248zM981 0v868h-137v207h137v78q0 180 87 267t243 87q106 0 202 -28v-209q-80 27 -145 26q-143 0 -143 -163
v-60h286v-205h-282v-868h-248z" />
    <glyph glyph-name=".notdef" 
d="M512 492l-367 -799h734zM922 1384l-353 -770l353 -770v1540zM102 -156l353 770l-353 770v-1540zM145 1536l367 -799l367 799h-734zM0 -410v2048h1024v-2048h-1024z" />
    <glyph glyph-name=".null" horiz-adv-x="0" 
 />
    <glyph glyph-name="nonmarkingreturn" horiz-adv-x="681" 
 />
    <glyph glyph-name="space" unicode=" " horiz-adv-x="614" 
 />
    <glyph glyph-name="exclam" unicode="!" horiz-adv-x="618" 
d="M174 0v281h272v-281h-272zM164 1434h291v-72l-76 -909h-137l-78 909v72z" />
    <glyph glyph-name="quotedbl" unicode="&#x22;" horiz-adv-x="997" 
d="M451 1434v-11l-199 -602h-129l47 613h281zM901 1434v-11l-201 -602h-129l50 613h280z" />
    <glyph glyph-name="numbersign" unicode="#" horiz-adv-x="1433" 
d="M518 543h336l61 356h-335zM80 330v213h221l59 356h-204v213h241l56 322h219l-56 -322h336l54 322h219l-56 -322h183v-213h-219l-60 -356h205v-213h-242l-57 -330h-219l57 330h-336l-55 -330h-219l57 330h-184z" />
    <glyph glyph-name="dollar" unicode="$" horiz-adv-x="1314" 
d="M956 383v4q0 70 -44 114t-158 79v-371q96 8 149 54t53 120zM395 1057v-4q0 -68 42 -111t155 -76v361q-94 -9 -146 -55t-51 -115zM584 -201v205q-266 31 -484 203l131 186q184 -150 361 -176v401q-230 60 -334 156t-104 264v4q0 164 117 270q118 105 313 122v118h178v-122
q211 -27 385 -156l-115 -193q-133 100 -278 131v-389q232 -59 338 -158t106 -264v-4q0 -166 -120 -272t-316 -123v-203h-178z" />
    <glyph glyph-name="percent" unicode="%" horiz-adv-x="1738" 
d="M1147 350q0 -88 45 -148t114 -61q68 -1 110 59t42 146v4q0 88 -45 148t-114 61q-69 0 -111 -59t-41 -146v-4zM281 1083q1 -89 45 -149t113 -60t111 60t42 145v4q0 89 -45 149t-114 60t-111 -59t-41 -146v-4zM1302 -16q-148 0 -243 105q-94 105 -94 257v4q0 152 95 260
q96 108 244 107q148 1 242 -105t94 -258v-4q0 -152 -95 -259t-243 -107zM244 0l1048 1434h203l-1049 -1434h-202zM436 717q-148 0 -243 105q-94 105 -95 257v4q0 151 96 259t243 108q149 0 243 -105t94 -258v-4q0 -152 -95 -259t-243 -107z" />
    <glyph glyph-name="ampersand" unicode="&#x26;" horiz-adv-x="1425" 
d="M573 188q139 0 271 125l-320 326q-190 -82 -190 -238v-4q0 -89 68 -149t171 -60zM836 1098q0 72 -46 116t-120 46q-74 0 -121 -48t-47 -125v-4q-1 -94 108 -213q225 82 226 224v4zM547 -20q-203 0 -335 112t-132 297v4q0 270 305 402q-119 152 -119 299v4q0 150 113 255
t290 105t283 -99t107 -247v-4q0 -254 -316 -373l246 -250q78 117 154 277l190 -100q-98 -197 -194 -328l225 -230l-186 -133l-191 195q-201 -186 -440 -186z" />
    <glyph glyph-name="quotesingle" unicode="'" horiz-adv-x="550" 
d="M455 1434v-11l-201 -602h-131l47 613h285z" />
    <glyph glyph-name="parenleft" unicode="(" horiz-adv-x="901" 
d="M129 588q0 566 567 876l109 -166q-221 -145 -325 -315t-103 -395q0 -225 103 -395t325 -316l-109 -166q-567 311 -567 877z" />
    <glyph glyph-name="parenright" unicode=")" horiz-adv-x="901" 
d="M526 588q0 225 -103 395t-325 315l109 166q567 -312 567 -876t-567 -877l-109 166q220 145 324 315t104 396z" />
    <glyph glyph-name="asterisk" unicode="*" horiz-adv-x="880" 
d="M369 782l28 250l-204 -149l-74 125l233 102l-233 102l74 125l204 -149l-28 250h143l-29 -250l205 149l74 -125l-234 -102l234 -102l-74 -125l-205 149l29 -250h-143z" />
    <glyph glyph-name="plus" unicode="+" horiz-adv-x="1298" 
d="M532 217v391h-393v228h393v389h234v-389h393v-228h-393v-391h-234z" />
    <glyph glyph-name="comma" unicode="," horiz-adv-x="550" 
d="M139 0v281h273v-238q0 -166 -78 -247t-238 -93l-26 104q188 37 174 193h-105z" />
    <glyph glyph-name="hyphen" unicode="-" horiz-adv-x="835" 
d="M115 506v244h606v-244h-606z" />
    <glyph glyph-name="period" unicode="." horiz-adv-x="550" 
d="M139 0v281h273v-281h-273z" />
    <glyph glyph-name="slash" unicode="/" horiz-adv-x="1067" 
d="M-51 -262l925 1896h216l-926 -1896h-215z" />
    <glyph glyph-name="zero" unicode="0" horiz-adv-x="1482" 
d="M743 203q164 0 264 146q99 146 99 364v4q0 217 -102 365t-264 148t-263 -144q-100 -146 -100 -365v-4q0 -217 101 -365t265 -149zM739 -25q-276 0 -449 212t-173 526v4q0 313 175 527t451 214q275 0 449 -212t174 -525v-4q0 -313 -175 -528q-176 -214 -452 -214z" />
    <glyph glyph-name="one" unicode="1" horiz-adv-x="811" 
d="M365 0v1188l-259 -72l-53 205l385 123h176v-1444h-249z" />
    <glyph glyph-name="two" unicode="2" horiz-adv-x="1255" 
d="M100 0v199l494 419q152 127 210 210q58 84 58 182t-65 158q-66 60 -163 60t-172 -50q-75 -51 -163 -164l-178 139q111 157 229 229t314 72t327 -118t131 -310v-4q0 -160 -82 -272t-290 -283l-295 -246h682v-221h-1037z" />
    <glyph glyph-name="three" unicode="3" horiz-adv-x="1265" 
d="M637 -25q-342 0 -549 252l176 164q160 -188 377 -188q106 0 177 60t71 157v4q0 104 -89 162t-241 59h-117l-41 158l387 411h-620v220h948v-189l-399 -409q184 -25 303 -122t119 -282v-4q-1 -199 -141 -326t-361 -127z" />
    <glyph glyph-name="four" unicode="4" horiz-adv-x="1394" 
d="M844 528v568l-471 -568h471zM844 0v322h-723l-47 180l796 942h215v-916h205v-206h-205v-322h-241z" />
    <glyph glyph-name="five" unicode="5" horiz-adv-x="1273" 
d="M623 -25q-301 0 -527 220l156 182q184 -172 369 -172q129 -1 207 67t77 181v4q0 109 -83 173t-213 64t-265 -63l-151 100l40 703h857v-224h-639l-23 -336q113 41 227 41q219 0 359 -115q139 -116 139 -335v-4q0 -219 -146 -353t-384 -133z" />
    <glyph glyph-name="six" unicode="6" horiz-adv-x="1343" 
d="M387 451q0 -111 82 -185t214 -73q132 -1 210 73t78 187v4q0 109 -81 179t-212 71q-131 0 -211 -73t-80 -179v-4zM1223 463q0 -211 -153 -349q-154 -138 -390 -139q-236 0 -389 150q-86 88 -130 215t-44 334v4q0 342 161 561t453 219q240 0 438 -160l-135 -194
q-162 125 -314 125t-242 -126q-89 -126 -99 -329q147 144 353 144t348 -121t143 -330v-4z" />
    <glyph glyph-name="seven" unicode="7" horiz-adv-x="1247" 
d="M139 1212v222h1008v-191l-647 -1243h-283l643 1212h-721z" />
    <glyph glyph-name="eight" unicode="8" horiz-adv-x="1290" 
d="M645 190q137 0 219 62t82 154v4q0 96 -86 156t-215 60t-215 -60t-86 -156v-4q0 -90 82 -153t219 -63zM645 827q111 -1 183 59t73 152v4q0 84 -72 142q-73 58 -185 59q-112 0 -184 -57t-71 -142v-4q1 -94 73 -154t183 -59zM1192 395q0 -187 -154 -301t-392 -114
q-240 0 -394 114t-154 295v4q0 242 258 350q-209 111 -209 320v4q-1 167 141 277t357 110t356 -111t142 -276v-4q0 -209 -209 -320q258 -119 258 -344v-4z" />
    <glyph glyph-name="nine" unicode="9" horiz-adv-x="1343" 
d="M666 715q133 0 212 75t78 183v4q0 115 -82 189t-215 75q-133 0 -209 -76t-77 -190v-4q0 -113 80 -185t213 -71zM612 -25q-252 0 -458 172l137 193q159 -135 321 -135t254 124t99 326q-127 -151 -346 -151t-359 124q-139 124 -139 330v5q0 213 149 354q150 141 390 141
t393 -151q174 -174 174 -547v-4q0 -350 -165 -566t-450 -215z" />
    <glyph glyph-name="colon" unicode=":" horiz-adv-x="571" 
d="M150 0v281h272v-281h-272zM150 801v280h272v-280h-272z" />
    <glyph glyph-name="semicolon" unicode=";" horiz-adv-x="571" 
d="M150 0v281h272v-238q0 -166 -78 -247t-238 -93l-26 104q188 37 174 193h-104zM150 801v280h272v-280h-272z" />
    <glyph glyph-name="less" unicode="&#x3c;" horiz-adv-x="1298" 
d="M1116 158l-979 452v221l979 453v-235l-733 -326l733 -328v-237z" />
    <glyph glyph-name="equal" unicode="=" horiz-adv-x="1298" 
d="M156 350v230h987v-230h-987zM156 862v230h987v-230h-987z" />
    <glyph glyph-name="greater" unicode="&#x3e;" horiz-adv-x="1298" 
d="M184 158v235l731 326l-731 328v237l979 -453v-221z" />
    <glyph glyph-name="question" unicode="?" horiz-adv-x="1107" 
d="M365 0v281h274v-281h-274zM772 1024v4q0 88 -63 141t-172 54q-182 0 -334 -162l-154 164q201 227 494 227q217 0 348 -113t131 -303v-4q0 -182 -113 -281t-299 -133l-20 -165h-166l-41 331l10 11q379 14 379 229z" />
    <glyph glyph-name="at" unicode="@" horiz-adv-x="2007" 
d="M719 552q-1 -120 59 -178q60 -59 166 -59q106 -1 190 95q85 96 85 212q1 116 -61 176q-62 62 -166 62t-188 -94q-85 -94 -85 -214zM1022 -332q-389 0 -651 261t-262 631t261 634t636 264q184 0 351 -68t285 -179q118 -112 187 -259q70 -147 69 -305q0 -246 -114 -378
t-283 -132q-213 0 -303 144q-139 -143 -307 -143t-275 107q-106 108 -106 279q0 213 141 363q141 149 327 149t286 -151l24 123l199 -31l-90 -516q-10 -61 -11 -88q0 -68 44 -107t116 -39q115 0 193 110t78 310q0 291 -236 512q-237 221 -579 221t-577 -238
q-235 -239 -235 -582q0 -342 236 -578t596 -236q268 0 506 137l37 -61q-252 -154 -543 -154z" />
    <glyph glyph-name="A" unicode="A" horiz-adv-x="1617" 
d="M559 569h494l-248 574zM61 0l631 1444h234l630 -1444h-266l-145 346h-678l-148 -346h-258z" />
    <glyph glyph-name="B" unicode="B" horiz-adv-x="1478" 
d="M432 223h418q131 0 204 50t72 147v4q0 193 -295 192h-399v-393zM432 829h344q125 -1 198 49t73 146v4q0 86 -66 134t-186 48h-363v-381zM184 0v1434h643q248 0 375 -127q96 -96 96 -238v-4q0 -213 -204 -320q285 -96 284 -348v-4q0 -189 -143 -291t-387 -102h-664z" />
    <glyph glyph-name="C" unicode="C" horiz-adv-x="1511" 
d="M850 -25q-311 0 -520 213t-209 525v4q0 311 209 526t530 215q186 0 316 -57t245 -166l-161 -186q-193 178 -399 178q-206 -1 -341 -147t-135 -359v-4q0 -213 135 -361t338 -149q123 0 217 46t195 140l162 -164q-120 -127 -256 -191t-326 -63z" />
    <glyph glyph-name="D" unicode="D" horiz-adv-x="1601" 
d="M436 229h283q223 -1 360 135t138 349v4q1 213 -137 350t-361 137h-283v-975zM184 0v1434h535q334 0 548 -204t214 -509v-4q0 -307 -214 -512t-548 -205h-535z" />
    <glyph glyph-name="E" unicode="E" horiz-adv-x="1372" 
d="M184 0v1434h1063v-226h-811v-372h719v-226h-719v-385h821v-225h-1073z" />
    <glyph glyph-name="F" unicode="F" horiz-adv-x="1343" 
d="M184 0v1434h1067v-230h-815v-391h723v-229h-723v-584h-252z" />
    <glyph glyph-name="G" unicode="G" horiz-adv-x="1605" 
d="M867 -25q-335 0 -541 210t-205 528v4q0 307 210 524t529 217q180 0 307 -48t244 -146l-160 -191q-90 78 -181 116t-220 38q-197 -1 -331 -149t-134 -357v-4q0 -223 135 -367t344 -145q209 0 355 108v269h-367v219h610v-602q-260 -224 -595 -224z" />
    <glyph glyph-name="H" unicode="H" horiz-adv-x="1556" 
d="M184 0v1434h252v-596h684v596h252v-1434h-252v604h-684v-604h-252z" />
    <glyph glyph-name="I" unicode="I" horiz-adv-x="649" 
d="M199 0v1434h252v-1434h-252z" />
    <glyph glyph-name="J" unicode="J" horiz-adv-x="1144" 
d="M502 -20q-289 0 -459 231l166 170q133 -168 289 -168q104 0 166 71q61 71 61 210v940h258v-947q0 -247 -130 -377t-351 -130z" />
    <glyph glyph-name="K" unicode="K" horiz-adv-x="1484" 
d="M184 0v1434h252v-721l682 721h309l-596 -617l623 -817h-305l-490 645l-223 -229v-416h-252z" />
    <glyph glyph-name="L" unicode="L" horiz-adv-x="1267" 
d="M184 0v1434h252v-1205h754v-229h-1006z" />
    <glyph glyph-name="M" unicode="M" horiz-adv-x="1777" 
d="M184 0v1434h269l436 -678l436 678h268v-1434h-252v1028l-452 -676h-8l-449 672v-1024h-248z" />
    <glyph glyph-name="N" unicode="N" horiz-adv-x="1617" 
d="M184 0v1434h234l768 -992v992h248v-1434h-211l-791 1020v-1020h-248z" />
    <glyph glyph-name="O" unicode="O" horiz-adv-x="1740" 
d="M872 207q211 0 348 146q136 146 136 360v4q0 213 -138 361t-350 148t-347 -146q-136 -146 -136 -359v-4q0 -213 138 -361t349 -149zM868 -25q-326 0 -536 215t-211 523v4q0 307 213 524q212 217 538 217t537 -215t211 -522v-4q0 -307 -213 -525t-539 -217z" />
    <glyph glyph-name="P" unicode="P" horiz-adv-x="1368" 
d="M436 688h293q141 0 225 72t84 184v4q0 123 -83 190t-226 66h-293v-516zM184 0v1434h566q250 0 397 -131t147 -349v-4q0 -231 -162 -360t-411 -129h-285v-461h-252z" />
    <glyph glyph-name="Q" unicode="Q" horiz-adv-x="1740" 
d="M872 207q137 0 246 69l-246 209l162 185l248 -226q74 113 74 269v4q0 213 -138 361t-350 148t-347 -146q-136 -146 -136 -359v-4q0 -213 138 -361t349 -149zM121 713v4q0 307 213 524q212 217 538 217t537 -215t211 -522v-4q0 -248 -145 -441l163 -139l-161 -180
l-172 154q-190 -135 -437 -136q-326 0 -536 215t-211 523z" />
    <glyph glyph-name="R" unicode="R" horiz-adv-x="1480" 
d="M436 723h369q135 -1 215 65t80 175v4q0 115 -78 176t-219 61h-367v-481zM184 0v1434h639q266 0 414 -144q119 -123 119 -309v-4q0 -170 -92 -280t-250 -154l387 -543h-297l-352 500h-316v-500h-252z" />
    <glyph glyph-name="S" unicode="S" horiz-adv-x="1310" 
d="M686 -20q-342 0 -598 229l152 180q215 -186 452 -186q117 0 186 49t68 131v4q0 80 -65 127t-223 85t-240 69q-190 72 -243 199q-30 71 -30 167v4q-1 184 137 300t353 116q295 0 520 -180l-135 -191q-199 147 -389 148q-105 0 -169 -48t-65 -122v-4q0 -84 69 -130
q69 -45 289 -99q219 -54 331 -149t112 -267v-4q0 -199 -141 -314q-142 -114 -371 -114z" />
    <glyph glyph-name="T" unicode="T" horiz-adv-x="1327" 
d="M537 0v1200h-455v234h1163v-234h-454v-1200h-254z" />
    <glyph glyph-name="U" unicode="U" horiz-adv-x="1550" 
d="M1389 621q0 -313 -164 -479t-451 -165q-288 0 -450 162t-162 469v826h252v-816q0 -197 96 -303t266 -106t265 102t96 297v826h252v-813z" />
    <glyph glyph-name="V" unicode="V" horiz-adv-x="1536" 
d="M657 -10l-596 1444h279l432 -1102l430 1102h273l-596 -1444h-222z" />
    <glyph glyph-name="W" unicode="W" horiz-adv-x="2285" 
d="M573 -10l-499 1444h272l342 -1063l352 1067h213l353 -1067l342 1063h264l-500 -1444h-217l-352 1030l-352 -1030h-218z" />
    <glyph glyph-name="X" unicode="X" horiz-adv-x="1492" 
d="M76 0l522 729l-502 705h297l357 -514l358 514h289l-500 -701l520 -733h-297l-377 543l-378 -543h-289z" />
    <glyph glyph-name="Y" unicode="Y" horiz-adv-x="1466" 
d="M606 0v565l-569 869h297l401 -635l406 635h289l-570 -863v-571h-254z" />
    <glyph glyph-name="Z" unicode="Z" horiz-adv-x="1437" 
d="M133 0v186l846 1024h-819v224h1147v-187l-846 -1024h846v-223h-1174z" />
    <glyph glyph-name="bracketleft" unicode="[" horiz-adv-x="929" 
d="M180 -266v1700h629v-195h-393v-1311h393v-194h-629z" />
    <glyph glyph-name="backslash" unicode="\" horiz-adv-x="1067" 
d="M903 -262l-926 1896h216l925 -1896h-215z" />
    <glyph glyph-name="bracketright" unicode="]" horiz-adv-x="929" 
d="M121 -266v194h393v1311h-393v195h631v-1700h-631z" />
    <glyph glyph-name="asciicircum" unicode="^" 
d="M115 1010l309 426h176l309 -426h-190l-209 270l-209 -270h-186z" />
    <glyph glyph-name="underscore" unicode="_" horiz-adv-x="1228" 
d="M-4 -328v193h1237v-193h-1237z" />
    <glyph glyph-name="grave" unicode="`" 
d="M506 1219l-252 235l225 100l213 -335h-186z" />
    <glyph glyph-name="a" unicode="a" horiz-adv-x="1202" 
d="M823 391v62q-111 43 -238 43t-193 -45t-64 -123v-4q0 -74 59 -117t167 -43t188 64t81 163zM1063 0h-246v133q-131 -156 -350 -156q-161 -1 -273 89t-112 245v4q0 175 121 265t298 90t318 -45v20q0 231 -275 231q-138 0 -300 -67l-68 199q200 90 424 90t344 -119t119 -338
v-641z" />
    <glyph glyph-name="b" unicode="b" horiz-adv-x="1372" 
d="M397 539q-1 -152 93 -249t224 -97t219 95t89 251v4q0 154 -90 250t-219 96t-223 -97t-93 -249v-4zM1274 539q0 -256 -150 -409t-363 -153q-214 0 -358 191v-168h-247v1495h247v-594q143 203 357 203t364 -153t150 -408v-4z" />
    <glyph glyph-name="c" unicode="c" horiz-adv-x="1169" 
d="M655 -25q-239 0 -399 163t-160 397v4q0 233 161 399t411 166t422 -186l-154 -166q-130 135 -272 135q-142 -1 -231 -101t-89 -243v-4q0 -147 91 -247t237 -102q146 0 276 136l150 -148q-88 -98 -192 -150t-251 -53z" />
    <glyph glyph-name="d" unicode="d" horiz-adv-x="1372" 
d="M662 193q129 0 221 97t92 249v4q0 152 -92 249t-222 97q-131 0 -221 -94t-90 -252v-4q0 -154 92 -250t220 -96zM613 -23q-213 0 -363 153t-150 409v4q0 257 148 409t362 152q213 0 361 -191v582h248v-1495h-248v180q-144 -203 -358 -203z" />
    <glyph glyph-name="e" unicode="e" horiz-adv-x="1236" 
d="M626 901q-116 0 -192 -79t-92 -206h555q-12 125 -84 205q-71 80 -187 80zM651 -25q-239 0 -397 157t-158 405v4q0 235 150 399t388 164t373 -167q136 -167 136 -415q0 -20 -4 -69h-795q20 -129 104 -202t207 -73q160 0 293 129l146 -129q-169 -203 -443 -203z" />
    <glyph glyph-name="f" unicode="f" horiz-adv-x="770" 
d="M211 0v868h-137v207h137v78q0 180 87 267t245 87q104 0 200 -28v-209q-80 27 -145 26q-143 0 -143 -163v-60h286v-205h-282v-868h-248z" />
    <glyph glyph-name="g" unicode="g" horiz-adv-x="1372" 
d="M658 295q130 0 224 84q93 84 93 213v4q0 131 -93 215q-92 84 -224 84t-220 -83t-88 -214v-4q0 -131 89 -215t219 -84zM1219 221q0 -553 -582 -553q-270 0 -483 129l92 187q184 -115 368 -115q360 0 359 332v84q-154 -199 -368 -199t-359 138t-146 368v4q0 228 146 368
t359 140q212 0 366 -184v161h248v-860z" />
    <glyph glyph-name="h" unicode="h" horiz-adv-x="1269" 
d="M156 0v1495h247v-582q129 190 338 191q181 0 283 -113t102 -303v-688h-247v614q-1 127 -61 196t-170 69t-178 -72t-67 -197v-610h-247z" />
    <glyph glyph-name="i" unicode="i" horiz-adv-x="585" 
d="M170 0v1081h248v-1081h-248zM160 1247v236h266v-236h-266z" />
    <glyph glyph-name="j" unicode="j" horiz-adv-x="585" 
d="M102 -334q-53 0 -118 10v199q37 -6 69 -6q117 0 117 131v1081h248v-1095q-1 -320 -316 -320zM160 1247v236h266v-236h-266z" />
    <glyph glyph-name="k" unicode="k" horiz-adv-x="1191" 
d="M156 0v1495h247v-893l449 479h301l-430 -440l444 -641h-286l-326 467l-152 -158v-309h-247z" />
    <glyph glyph-name="l" unicode="l" horiz-adv-x="585" 
d="M170 0v1495h248v-1495h-248z" />
    <glyph glyph-name="m" unicode="m" horiz-adv-x="1945" 
d="M156 0v1081h247v-163q135 186 330 186q225 0 322 -191q145 190 366 191q179 0 279 -109t100 -305v-690h-248v614q0 129 -57 197t-161 68t-168 -71t-64 -198v-610h-248v616q0 125 -57 194t-161 69t-168 -73t-65 -198v-608h-247z" />
    <glyph glyph-name="n" unicode="n" horiz-adv-x="1269" 
d="M156 0v1081h247v-168q129 190 338 191q181 0 283 -113t102 -303v-688h-247v614q-1 127 -61 196t-170 69t-178 -72t-67 -197v-610h-247z" />
    <glyph glyph-name="o" unicode="o" horiz-adv-x="1345" 
d="M344 539q0 -143 94 -246t239 -103q144 0 234 100t90 245v4q0 145 -94 246t-238 101q-145 0 -235 -98q-90 -100 -90 -245v-4zM1249 539q1 -233 -165 -399t-413 -165q-247 0 -411 163t-164 397v4q0 237 166 401t412 164t410 -164t165 -397v-4z" />
    <glyph glyph-name="p" unicode="p" horiz-adv-x="1372" 
d="M397 539q-1 -152 93 -249t224 -97t219 95t89 251v4q0 154 -90 250t-219 96t-223 -97t-93 -249v-4zM156 -328v1409h247v-180q143 203 357 203t364 -153t150 -408v-4q0 -256 -150 -409t-364 -153t-357 191v-496h-247z" />
    <glyph glyph-name="q" unicode="q" horiz-adv-x="1372" 
d="M662 193q129 0 221 97t92 249v4q0 152 -92 249t-222 97q-131 0 -221 -94t-90 -252v-4q0 -154 92 -250t220 -96zM971 -328v508q-143 -203 -357 -203t-364 153t-150 409v4q0 257 148 409t362 152q213 0 361 -191v168h248v-1409h-248z" />
    <glyph glyph-name="r" unicode="r" horiz-adv-x="845" 
d="M156 0v1081h247v-243q115 276 383 264v-262h-14q-168 0 -268 -110t-101 -318v-412h-247z" />
    <glyph glyph-name="s" unicode="s" 
d="M526 -20q-254 0 -458 161l110 168q176 -133 354 -133q80 0 124 32t44 85v4q0 78 -217 143l-24 9q-250 67 -311 188q-28 55 -27 129v4q0 150 109 240q110 90 276 90q211 0 397 -123l-98 -176q-168 102 -305 102q-72 0 -112 -30t-40 -78v-4q0 -49 54 -79t114 -48t62 -20
q2 -1 6 -2q119 -30 232 -105q112 -77 112 -213v-5q0 -163 -113 -251t-289 -88z" />
    <glyph glyph-name="t" unicode="t" horiz-adv-x="839" 
d="M518 -18q-311 0 -311 317v569h-137v213h137v297h248v-297h290v-213h-290v-530q0 -135 133 -135q80 0 153 37v-203q-98 -55 -223 -55z" />
    <glyph glyph-name="u" unicode="u" horiz-adv-x="1269" 
d="M528 -23q-180 0 -282 113t-103 303v688h248v-614q1 -127 61 -196t170 -69t178 72t66 197v610h248v-1081h-248v168q-129 -191 -338 -191z" />
    <glyph glyph-name="v" unicode="v" horiz-adv-x="1218" 
d="M498 -8l-445 1089h266l291 -794l293 794h260l-442 -1089h-223z" />
    <glyph glyph-name="w" unicode="w" horiz-adv-x="1763" 
d="M416 -8l-350 1089h253l218 -741l239 745h211l242 -745l221 741h248l-355 -1089h-221l-241 739l-244 -739h-221z" />
    <glyph glyph-name="x" unicode="x" horiz-adv-x="1187" 
d="M61 0l398 549l-383 532h270l250 -356l250 356h264l-383 -526l399 -555h-270l-266 379l-264 -379h-265z" />
    <glyph glyph-name="y" unicode="y" horiz-adv-x="1220" 
d="M375 -334q-133 0 -254 66l84 184q76 -41 137 -41t96 28t66 97l-451 1081h264l308 -802l280 802h258l-430 -1112q-65 -167 -145 -235t-213 -68z" />
    <glyph glyph-name="z" unicode="z" horiz-adv-x="1146" 
d="M106 0v170l625 709h-602v202h918v-170l-625 -708h625v-203h-941z" />
    <glyph glyph-name="braceleft" unicode="{" horiz-adv-x="997" 
d="M106 494v188h54q127 0 179 52t52 173l-4 148q0 168 99 264t366 145l43 -164q-176 -49 -227 -105t-52 -175q0 -37 5 -152q1 -114 -53 -180t-160 -100q108 -35 160 -101t53 -180l-5 -151q0 -119 52 -175t227 -106l-43 -164q-266 49 -366 145t-99 265l4 147q0 121 -52 173
t-179 53h-54z" />
    <glyph glyph-name="bar" unicode="|" horiz-adv-x="677" 
d="M240 -262v1896h198v-1896h-198z" />
    <glyph glyph-name="braceright" unicode="}" horiz-adv-x="997" 
d="M838 682h53v-188h-53q-128 0 -180 -52t-52 -174l4 -147q0 -169 -100 -265t-365 -145l-43 164q176 49 228 105t51 176l-4 151q0 115 53 181t160 100q-109 34 -161 100t-52 180l4 152q0 119 -51 175t-228 105l43 164q265 -49 365 -145t100 -264l-4 -148q0 -121 52 -173
t180 -52z" />
    <glyph glyph-name="asciitilde" unicode="~" horiz-adv-x="1013" 
d="M336 766q76 0 176 -41t137 -41t61 24t46 78l137 -41q-35 -131 -87 -193t-128 -62t-176 40q-100 41 -137 41t-61 -23q-23 -24 -46 -79l-137 43q35 130 87 192t128 62z" />
    <glyph glyph-name="uni00A0" unicode="&#xa0;" horiz-adv-x="614" 
 />
    <glyph glyph-name="exclamdown" unicode="&#xa1;" horiz-adv-x="618" 
d="M164 0v72l78 909h137l76 -909v-72h-291zM174 1153v281h272v-281h-272z" />
    <glyph glyph-name="cent" unicode="&#xa2;" horiz-adv-x="1189" 
d="M348 731v-4q0 -102 46 -186t128 -127l129 661q-129 -2 -216 -102t-87 -242zM106 727q0 235 160 399t400 164h18l31 156h180l-37 -182q133 -41 242 -160l-150 -160q-72 72 -141 103l-133 -668q150 2 282 133l144 -141q-182 -207 -445 -207h-12l-35 -176h-180l41 209
q-162 57 -263 201t-102 325v4z" />
    <glyph glyph-name="sterling" unicode="&#xa3;" horiz-adv-x="1318" 
d="M129 0v160l162 49v360h-162v213h162v189q0 229 125 356t346 127q279 0 452 -229l-192 -154q-60 76 -118 113t-143 37t-147 -58q-70 -74 -69 -198v-183h510v-213h-510v-350h665v-219h-1081z" />
    <glyph glyph-name="yen" unicode="&#xa5;" horiz-adv-x="1404" 
d="M582 0v209h-396v182h396v150h-396v182h326l-473 711h293l375 -600l374 600h285l-475 -711h328v-182h-396v-150h396v-182h-396v-209h-241z" />
    <glyph glyph-name="section" unicode="&#xa7;" horiz-adv-x="1294" 
d="M796 569q68 0 112 32t44 79v4q0 45 -55 78q-55 34 -192 68t-206 34t-113 -32t-44 -78v-4q0 -45 55 -78t193 -68t206 -35zM668 -20q-289 0 -473 194l141 139q156 -145 330 -145q82 0 124 28t41 72v4q0 45 -57 77t-255 76t-299 112t-101 178v4q0 180 219 237
q-113 72 -113 195v4q0 137 108 218t294 81q289 0 473 -194l-142 -140q-156 145 -329 146q-80 0 -123 -28t-43 -73v-4q0 -43 55 -75t256 -78t301 -112q100 -67 101 -177v-4q0 -180 -220 -238q113 -68 113 -194v-4q0 -137 -107 -219q-108 -80 -294 -80z" />
    <glyph glyph-name="dieresis" unicode="&#xa8;" 
d="M186 1219v243h252v-243h-252zM586 1219v243h252v-243h-252z" />
    <glyph glyph-name="copyright" unicode="&#xa9;" horiz-adv-x="1699" 
d="M865 326q-175 0 -287 114t-113 283v4q0 168 113 285q112 116 288 116t301 -120l-96 -111q-103 92 -207 92t-174 -76t-69 -184v-4q-1 -106 69 -183t176 -77t209 96l99 -96q-134 -139 -309 -139zM186 713q0 -276 190 -470t473 -194q282 0 473 196t191 472v4q0 276 -190 470
q-190 193 -472 193t-473 -196t-192 -471v-4zM848 -25q-309 0 -524 216t-215 522v4q0 305 217 523t526 218t524 -216t215 -521v-4q0 -305 -217 -523t-526 -219z" />
    <glyph glyph-name="ordfeminine" unicode="&#xaa;" horiz-adv-x="798" 
d="M256 1016q0 -38 30 -62t86 -24t100 35t44 88v37q-62 22 -126 22t-99 -25t-35 -67v-4zM109 578v118h553v-118h-553zM340 825q-104 0 -165 49q-60 49 -60 136v4q0 92 67 141q68 49 160 49t174 -22v10q0 125 -143 125q-72 0 -170 -39l-39 111q108 51 234 51t190 -64t65 -186
v-352h-139v69q-70 -82 -174 -82z" />
    <glyph glyph-name="guillemotleft" unicode="&#xab;" horiz-adv-x="1241" 
d="M430 84l-340 448v17l340 450l188 -96l-270 -360l270 -363zM944 84l-338 448v17l338 450l189 -96l-271 -360l271 -363z" />
    <glyph glyph-name="registered" unicode="&#xae;" horiz-adv-x="782" 
d="M334 1108h78q63 0 63 51t-63 51h-78v-102zM244 918v370h174q68 0 108 -31t41 -92q0 -88 -82 -114l95 -133h-109l-80 116h-57v-116h-90zM391 776q133 0 224 94t92 226v2q1 131 -91 224t-225 93t-224 -94t-91 -225v-2q0 -130 91 -224t224 -94zM390 737q-148 1 -252 105
q-103 104 -103 252v2q0 146 104 252t253 106t252 -104t104 -252v-2q0 -147 -105 -253t-253 -106z" />
    <glyph glyph-name="macron" unicode="&#xaf;" 
d="M164 1241v180h696v-180h-696z" />
    <glyph glyph-name="degree" unicode="&#xb0;" horiz-adv-x="964" 
d="M481 915q83 1 139 59t56 138v4q0 80 -55 137t-139 57t-138 -56q-55 -58 -55 -138v-4q0 -80 55 -138t137 -59zM481 780q-135 0 -237 100t-103 232v4q1 134 103 232t237 98t239 -98t103 -232v-4q1 -132 -103 -232t-239 -100z" />
    <glyph glyph-name="plusminus" unicode="&#xb1;" horiz-adv-x="1298" 
d="M1147 0h-993v211h993v-211zM1147 764h-387l2 -377h-225l2 377h-385v219l385 -2l-2 379h225l-2 -379l387 2v-219z" />
    <glyph glyph-name="acute" unicode="&#xb4;" 
d="M332 1219l213 335l225 -100l-252 -235h-186z" />
    <glyph glyph-name="paragraph" unicode="&#xb6;" horiz-adv-x="1140" 
d="M709 0v500h-37q-262 0 -426 122t-164 343v4q0 215 152 340q153 125 403 125h326v-1434h-254z" />
    <glyph glyph-name="periodcentered" unicode="&#xb7;" horiz-adv-x="550" 
d="M139 487v281h273v-281h-273z" />
    <glyph glyph-name="cedilla" unicode="&#xb8;" 
d="M485 -340l-217 92l193 283h184z" />
    <glyph glyph-name="ordmasculine" unicode="&#xba;" horiz-adv-x="798" 
d="M233 1133q0 -75 48 -129t121 -54t118 52t45 128v5q0 76 -48 129t-121 53q-74 0 -118 -52t-45 -128v-4zM104 578v118h590v-118h-590zM398 823q-132 0 -220 89t-88 218v5q0 129 89 219t221 90t220 -89t89 -218v-4q0 -129 -89 -220q-90 -90 -222 -90z" />
    <glyph glyph-name="guillemotright" unicode="&#xbb;" horiz-adv-x="1241" 
d="M297 84l-188 94l270 361l-270 362l188 98l338 -450v-17zM811 84l-188 94l270 361l-270 362l188 98l340 -450v-17z" />
    <glyph glyph-name="questiondown" unicode="&#xbf;" horiz-adv-x="1107" 
d="M565 -18q-217 0 -348 112t-131 303v4q0 181 113 281t299 133l20 166h166l41 -332l-10 -10q-379 -14 -379 -229v-4q0 -88 63 -142t172 -53q182 0 334 162l154 -164q-201 -227 -494 -227zM469 1153v281h274v-281h-274z" />
    <glyph glyph-name="Agrave" unicode="&#xc0;" horiz-adv-x="1617" 
d="M678 1870l231 -297h-194l-260 199zM559 569h494l-248 574zM61 0l631 1444h234l630 -1444h-266l-145 346h-678l-148 -346h-258z" />
    <glyph glyph-name="Aacute" unicode="&#xc1;" horiz-adv-x="1617" 
d="M707 1573l229 297l225 -98l-262 -199h-192zM559 569h494l-248 574zM61 0l631 1444h234l630 -1444h-266l-145 346h-678l-148 -346h-258z" />
    <glyph glyph-name="Acircumflex" unicode="&#xc2;" horiz-adv-x="1617" 
d="M444 1565l248 276h234l248 -276h-209l-158 118l-158 -118h-205zM559 569h494l-248 574zM61 0l631 1444h234l630 -1444h-266l-145 346h-678l-148 -346h-258z" />
    <glyph glyph-name="Atilde" unicode="&#xc3;" horiz-adv-x="1617" 
d="M640 1847q76 0 180 -40t142 -40q37 0 61 23t46 76l139 -41q-37 -127 -89 -189q-53 -62 -127 -63q-74 0 -178 40t-142 40q-36 0 -60 -23t-49 -78l-137 43q35 127 87 189q51 62 127 63zM559 569h494l-248 574zM61 0l631 1444h234l630 -1444h-266l-145 346h-678l-148 -346
h-258z" />
    <glyph glyph-name="Adieresis" unicode="&#xc4;" horiz-adv-x="1617" 
d="M471 1573v229h256v-229h-256zM893 1573v229h254v-229h-254zM559 569h494l-248 574zM61 0l631 1444h234l630 -1444h-266l-145 346h-678l-148 -346h-258z" />
    <glyph glyph-name="Aring" unicode="&#xc5;" horiz-adv-x="1617" 
d="M678 1527q0 -50 37 -85t94 -35t95 35t38 85t-38 84t-95 34t-94 -34t-37 -84zM559 569h494l-248 574zM565 1521q0 99 72 160t172 61t172 -60q72 -62 72 -161t-90 -163l593 -1358h-266l-145 346h-678l-148 -346h-258l592 1358q-88 64 -88 163z" />
    <glyph glyph-name="AE" unicode="&#xc6;" horiz-adv-x="2140" 
d="M997 569v645h-41l-360 -645h401zM2015 1434v-226h-766v-372h674v-226h-674v-385h776v-225h-1028v346h-522l-190 -346h-260l800 1434h1190z" />
    <glyph glyph-name="Ccedilla" unicode="&#xc7;" horiz-adv-x="1511" 
d="M121 713v4q0 311 209 526t530 215q186 0 316 -57t245 -166l-161 -186q-193 178 -399 178q-206 -1 -341 -147t-135 -359v-4q0 -213 135 -361t338 -149q123 0 217 46t195 140l162 -164q-115 -119 -240 -181t-297 -71l-135 -317l-217 92l159 238q-256 47 -418 249t-163 474z
" />
    <glyph glyph-name="Egrave" unicode="&#xc8;" horiz-adv-x="1372" 
d="M184 0v1434h1063v-226h-811v-372h719v-226h-719v-385h821v-225h-1073zM590 1849l231 -297h-194l-260 199z" />
    <glyph glyph-name="Eacute" unicode="&#xc9;" horiz-adv-x="1372" 
d="M184 0v1434h1063v-226h-811v-372h719v-226h-719v-385h821v-225h-1073zM618 1552l230 297l225 -98l-262 -199h-193z" />
    <glyph glyph-name="Ecircumflex" unicode="&#xca;" horiz-adv-x="1372" 
d="M354 1552l248 277h234l247 -277h-209l-157 119l-158 -119h-205zM184 0v1434h1063v-226h-811v-372h719v-226h-719v-385h821v-225h-1073z" />
    <glyph glyph-name="Edieresis" unicode="&#xcb;" horiz-adv-x="1372" 
d="M184 0v1434h1063v-226h-811v-372h719v-226h-719v-385h821v-225h-1073zM381 1552v230h256v-230h-256zM803 1552v230h254v-230h-254z" />
    <glyph glyph-name="Igrave" unicode="&#xcc;" horiz-adv-x="649" 
d="M197 1849l231 -297h-195l-260 199zM199 0v1434h252v-1434h-252z" />
    <glyph glyph-name="Iacute" unicode="&#xcd;" horiz-adv-x="649" 
d="M225 1552l230 297l225 -98l-262 -199h-193zM199 0v1434h252v-1434h-252z" />
    <glyph glyph-name="Icircumflex" unicode="&#xce;" horiz-adv-x="649" 
d="M-39 1552l248 277h233l248 -277h-209l-157 119l-158 -119h-205zM199 0v1434h252v-1434h-252z" />
    <glyph glyph-name="Idieresis" unicode="&#xcf;" horiz-adv-x="649" 
d="M-12 1552v230h256v-230h-256zM410 1552v230h254v-230h-254zM199 0v1434h252v-1434h-252z" />
    <glyph glyph-name="Eth" unicode="&#xd0;" horiz-adv-x="1662" 
d="M498 229h282q222 -1 360 135t138 349v4q0 213 -137 350t-361 137h-282v-370h358v-226h-358v-379zM246 0v608h-154v226h154v600h534q334 0 548 -204t214 -509v-4q0 -307 -214 -512t-548 -205h-534z" />
    <glyph glyph-name="Ntilde" unicode="&#xd1;" horiz-adv-x="1617" 
d="M184 0v1434h234l768 -992v992h248v-1434h-211l-791 1020v-1020h-248zM962 1745q37 1 61 23t46 75l139 -41q-37 -127 -89 -189q-53 -63 -127 -63t-178 40t-142 40q-37 0 -61 -22q-23 -23 -48 -78l-137 43q35 127 87 189q51 62 127 62t180 -39q104 -40 142 -40z" />
    <glyph glyph-name="Ograve" unicode="&#xd2;" horiz-adv-x="1740" 
d="M872 207q211 0 348 146q136 146 136 360v4q0 213 -138 361t-350 148t-347 -146q-136 -146 -136 -359v-4q0 -213 138 -361t349 -149zM868 -25q-326 0 -536 215t-211 523v4q0 307 213 524q212 217 538 217t537 -215t211 -522v-4q0 -307 -213 -525t-539 -217zM739 1870
l232 -297h-195l-260 199z" />
    <glyph glyph-name="Oacute" unicode="&#xd3;" horiz-adv-x="1740" 
d="M872 207q211 0 348 146q136 146 136 360v4q0 213 -138 361t-350 148t-347 -146q-136 -146 -136 -359v-4q0 -213 138 -361t349 -149zM868 -25q-326 0 -536 215t-211 523v4q0 307 213 524q212 217 538 217t537 -215t211 -522v-4q0 -307 -213 -525t-539 -217zM768 1573
l229 297l226 -98l-262 -199h-193z" />
    <glyph glyph-name="Ocircumflex" unicode="&#xd4;" horiz-adv-x="1740" 
d="M506 1573l248 276h233l248 -276h-209l-158 119l-157 -119h-205zM872 207q211 0 348 146q136 146 136 360v4q0 213 -138 361t-350 148t-347 -146q-136 -146 -136 -359v-4q0 -213 138 -361t349 -149zM868 -25q-326 0 -536 215t-211 523v4q0 307 213 524q212 217 538 217
t537 -215t211 -522v-4q0 -307 -213 -525t-539 -217z" />
    <glyph glyph-name="Otilde" unicode="&#xd5;" horiz-adv-x="1740" 
d="M872 207q211 0 348 146q136 146 136 360v4q0 213 -138 361t-350 148t-347 -146q-136 -146 -136 -359v-4q0 -213 138 -361t349 -149zM868 -25q-326 0 -536 215t-211 523v4q0 307 213 524q212 217 538 217t537 -215t211 -522v-4q0 -307 -213 -525t-539 -217zM702 1847
q76 0 180 -40t142 -40q36 0 60 23t46 76l140 -41q-37 -127 -89 -189t-127 -63q-76 0 -180 40t-141 40t-60 -23t-48 -78l-138 43q35 127 87 189t128 63z" />
    <glyph glyph-name="Odieresis" unicode="&#xd6;" horiz-adv-x="1740" 
d="M872 207q211 0 348 146q136 146 136 360v4q0 213 -138 361t-350 148t-347 -146q-136 -146 -136 -359v-4q0 -213 138 -361t349 -149zM868 -25q-326 0 -536 215t-211 523v4q0 307 213 524q212 217 538 217t537 -215t211 -522v-4q0 -307 -213 -525t-539 -217zM532 1573v229
h256v-229h-256zM954 1573v229h254v-229h-254z" />
    <glyph glyph-name="multiply" unicode="&#xd7;" horiz-adv-x="1298" 
d="M981 231l-334 340l-334 -340l-153 154l340 334l-340 334l157 157l334 -340l334 340l154 -153l-340 -334l340 -334z" />
    <glyph glyph-name="Oslash" unicode="&#xd8;" horiz-adv-x="1740" 
d="M872 203q211 0 350 148q138 148 138 362v4q0 174 -94 305l-656 -737q115 -82 262 -82zM868 1231q-211 -1 -349 -149t-138 -361v-4q0 -174 94 -305l655 737q-115 82 -262 82zM868 -25q-233 0 -417 123l-99 -108h-248l203 227q-186 205 -186 496v4q0 307 213 524t538 217
q233 0 418 -123l99 109h247l-202 -230q186 -203 186 -493v-4q0 -307 -213 -525t-539 -217z" />
    <glyph glyph-name="Ugrave" unicode="&#xd9;" horiz-adv-x="1550" 
d="M1389 621q0 -313 -164 -479t-451 -165q-288 0 -450 162t-162 469v826h252v-816q0 -197 96 -303t266 -106t265 102t96 297v826h252v-813zM645 1847l232 -297h-195l-260 199z" />
    <glyph glyph-name="Uacute" unicode="&#xda;" horiz-adv-x="1550" 
d="M1389 621q0 -313 -164 -479t-451 -165q-288 0 -450 162t-162 469v826h252v-816q0 -197 96 -303t266 -106t265 102t96 297v826h252v-813zM674 1550l229 297l225 -98l-262 -199h-192z" />
    <glyph glyph-name="Ucircumflex" unicode="&#xdb;" horiz-adv-x="1550" 
d="M410 1550l247 277h234l248 -277h-209l-158 119l-158 -119h-204zM1389 621q0 -313 -164 -479t-451 -165q-288 0 -450 162t-162 469v826h252v-816q0 -197 96 -303t266 -106t265 102t96 297v826h252v-813z" />
    <glyph glyph-name="Udieresis" unicode="&#xdc;" horiz-adv-x="1550" 
d="M1389 621q0 -313 -164 -479t-451 -165q-288 0 -450 162t-162 469v826h252v-816q0 -197 96 -303t266 -106t265 102t96 297v826h252v-813zM436 1550v230h256v-230h-256zM858 1550v230h254v-230h-254z" />
    <glyph glyph-name="Yacute" unicode="&#xdd;" horiz-adv-x="1466" 
d="M631 1550l229 297l225 -98l-262 -199h-192zM606 0v565l-569 869h297l401 -635l406 635h289l-570 -863v-571h-254z" />
    <glyph glyph-name="Thorn" unicode="&#xde;" horiz-adv-x="1378" 
d="M721 238h-285v-238h-252v1434h252v-224h314q250 0 397 -131t147 -348v-4q0 -231 -162 -360t-411 -129zM436 465h293q141 0 225 72t84 184v4q0 123 -83 189t-226 67h-293v-516z" />
    <glyph glyph-name="germandbls" unicode="&#xdf;" horiz-adv-x="1269" 
d="M922 408v4q0 96 -85 155t-231 78v168q231 113 232 285v4q0 88 -56 142t-155 54q-98 0 -162 -71q-63 -72 -64 -191v-1036h-245v1028q0 223 131 352t345 129q214 1 333 -109t118 -276v-4q0 -225 -225 -350q311 -104 311 -364v-5q1 -197 -151 -305t-412 -100v190
q152 4 234 62t82 160z" />
    <glyph glyph-name="agrave" unicode="&#xe0;" horiz-adv-x="1202" 
d="M514 1219l-252 235l225 100l213 -335h-186zM823 391v62q-111 43 -238 43t-193 -45t-64 -123v-4q0 -74 59 -117t167 -43t188 64t81 163zM1063 0h-246v133q-131 -156 -350 -156q-161 -1 -273 89t-112 245v4q0 175 121 265t298 90t318 -45v20q0 231 -275 231
q-138 0 -300 -67l-68 199q200 90 424 90t344 -119t119 -338v-641z" />
    <glyph glyph-name="aacute" unicode="&#xe1;" horiz-adv-x="1202" 
d="M504 1219l213 335l225 -100l-252 -235h-186zM823 391v62q-111 43 -238 43t-193 -45t-64 -123v-4q0 -74 59 -117t167 -43t188 64t81 163zM1063 0h-246v133q-131 -156 -350 -156q-161 -1 -273 89t-112 245v4q0 175 121 265t298 90t318 -45v20q0 231 -275 231
q-138 0 -300 -67l-68 199q200 90 424 90t344 -119t119 -338v-641z" />
    <glyph glyph-name="acircumflex" unicode="&#xe2;" horiz-adv-x="1202" 
d="M250 1219l237 301h230l239 -301h-196l-160 137l-158 -137h-192zM823 391v62q-111 43 -238 43t-193 -45t-64 -123v-4q0 -74 59 -117t167 -43t188 64t81 163zM1063 0h-246v133q-131 -156 -350 -156q-161 -1 -273 89t-112 245v4q0 175 121 265t298 90t318 -45v20
q0 231 -275 231q-138 0 -300 -67l-68 199q200 90 424 90t344 -119t119 -338v-641z" />
    <glyph glyph-name="atilde" unicode="&#xe3;" horiz-adv-x="1202" 
d="M440 1495q76 0 176 -41t138 -41t60 23q24 23 48 80l137 -41q-35 -131 -87 -193t-128 -63q-76 0 -176 41q-100 40 -137 40t-61 -22t-48 -80l-137 43q35 131 87 193t128 61zM823 391v62q-111 43 -238 43t-193 -45t-64 -123v-4q0 -74 59 -117t167 -43t188 64t81 163zM1063 0
h-246v133q-131 -156 -350 -156q-161 -1 -273 89t-112 245v4q0 175 121 265t298 90t318 -45v20q0 231 -275 231q-138 0 -300 -67l-68 199q200 90 424 90t344 -119t119 -338v-641z" />
    <glyph glyph-name="adieresis" unicode="&#xe4;" horiz-adv-x="1202" 
d="M276 1219v243h252v-243h-252zM676 1219v243h252v-243h-252zM823 391v62q-111 43 -238 43t-193 -45t-64 -123v-4q0 -74 59 -117t167 -43t188 64t81 163zM1063 0h-246v133q-131 -156 -350 -156q-161 -1 -273 89t-112 245v4q0 175 121 265t298 90t318 -45v20q0 231 -275 231
q-138 0 -300 -67l-68 199q200 90 424 90t344 -119t119 -338v-641z" />
    <glyph glyph-name="aring" unicode="&#xe5;" horiz-adv-x="1202" 
d="M465 1444q0 -57 40 -97t97 -40t97 40t40 97t-40 97t-97 40t-97 -40t-40 -97zM365 1444q0 94 69 162q70 68 168 68t168 -68t70 -162t-70 -162t-168 -68t-168 68q-69 68 -69 162zM823 391v62q-111 43 -238 43t-193 -45t-64 -123v-4q0 -74 59 -117t167 -43t188 64t81 163z
M1063 0h-246v133q-131 -156 -350 -156q-161 -1 -273 89t-112 245v4q0 175 121 265t298 90t318 -45v20q0 231 -275 231q-138 0 -300 -67l-68 199q200 90 424 90t344 -119t119 -338v-641z" />
    <glyph glyph-name="ae" unicode="&#xe6;" horiz-adv-x="1949" 
d="M532 164q170 0 320 139q-31 78 -39 156q-105 37 -231 37t-190 -45t-64 -123v-4q0 -74 58 -117t146 -43zM1338 901q-116 0 -192 -79t-93 -206h557q-12 125 -84 205t-188 80zM492 -23q-176 1 -293 89t-117 245v4q0 175 120 265t295 90t316 -45v20q0 231 -264 232
q-143 0 -305 -68l-68 199q201 90 408 90q276 0 379 -178q141 184 381 184t374 -167q135 -167 135 -415q0 -45 -2 -69h-794q20 -129 104 -202t205 -73q162 0 295 129l145 -129q-172 -203 -438 -203t-424 185q-219 -183 -452 -183z" />
    <glyph glyph-name="ccedilla" unicode="&#xe7;" horiz-adv-x="1169" 
d="M96 535v4q0 233 161 399t411 166t422 -186l-154 -166q-130 135 -272 135q-142 -1 -231 -101t-89 -243v-4q0 -147 91 -247t237 -102q146 0 276 136l150 -148q-168 -188 -398 -201l-135 -317l-217 92l164 242q-186 46 -301 196t-115 345z" />
    <glyph glyph-name="egrave" unicode="&#xe8;" horiz-adv-x="1236" 
d="M532 1219l-251 235l225 100l213 -335h-187zM626 901q-116 0 -192 -79t-92 -206h555q-12 125 -84 205q-71 80 -187 80zM651 -25q-239 0 -397 157t-158 405v4q0 235 150 399t388 164t373 -167q136 -167 136 -415q0 -20 -4 -69h-795q20 -129 104 -202t207 -73q160 0 293 129
l146 -129q-169 -203 -443 -203z" />
    <glyph glyph-name="eacute" unicode="&#xe9;" horiz-adv-x="1236" 
d="M626 901q-116 0 -192 -79t-92 -206h555q-12 125 -84 205q-71 80 -187 80zM651 -25q-239 0 -397 157t-158 405v4q0 235 150 399t388 164t373 -167q136 -167 136 -415q0 -20 -4 -69h-795q20 -129 104 -202t207 -73q160 0 293 129l146 -129q-169 -203 -443 -203zM522 1219
l213 335l226 -100l-252 -235h-187z" />
    <glyph glyph-name="ecircumflex" unicode="&#xea;" horiz-adv-x="1236" 
d="M626 901q-116 0 -192 -79t-92 -206h555q-12 125 -84 205q-71 80 -187 80zM651 -25q-239 0 -397 157t-158 405v4q0 235 150 399t388 164t373 -167q136 -167 136 -415q0 -20 -4 -69h-795q20 -129 104 -202t207 -73q160 0 293 129l146 -129q-169 -203 -443 -203zM268 1219
l238 301h229l240 -301h-197l-160 137l-157 -137h-193z" />
    <glyph glyph-name="edieresis" unicode="&#xeb;" horiz-adv-x="1236" 
d="M626 901q-116 0 -192 -79t-92 -206h555q-12 125 -84 205q-71 80 -187 80zM651 -25q-239 0 -397 157t-158 405v4q0 235 150 399t388 164t373 -167q136 -167 136 -415q0 -20 -4 -69h-795q20 -129 104 -202t207 -73q160 0 293 129l146 -129q-169 -203 -443 -203zM295 1219
v243h252v-243h-252zM694 1219v243h252v-243h-252z" />
    <glyph glyph-name="igrave" unicode="&#xec;" horiz-adv-x="585" 
d="M205 1219l-252 235l225 100l213 -335h-186zM170 0v1081h248v-1081h-248z" />
    <glyph glyph-name="iacute" unicode="&#xed;" horiz-adv-x="585" 
d="M170 0v1081h248v-1081h-248zM195 1219l213 335l225 -100l-252 -235h-186z" />
    <glyph glyph-name="icircumflex" unicode="&#xee;" horiz-adv-x="585" 
d="M170 0v1081h248v-1081h-248zM-59 1219l237 301h230l239 -301h-196l-160 137l-158 -137h-192z" />
    <glyph glyph-name="idieresis" unicode="&#xef;" horiz-adv-x="585" 
d="M170 0v1081h248v-1081h-248zM-33 1219v243h252v-243h-252zM367 1219v243h251v-243h-251z" />
    <glyph glyph-name="eth" unicode="&#xf0;" horiz-adv-x="1345" 
d="M676 193q143 0 234 97t91 242v5q0 143 -94 241t-240 98q-147 0 -235 -96t-88 -241v-4q0 -141 94 -242q95 -100 238 -100zM1247 592v-4q-1 -262 -159 -437t-411 -175t-417 164q-164 165 -164 409v4q0 223 144 375t348 151q154 0 299 -102q-76 129 -217 264l-248 -76
l-49 138l172 53q-102 86 -180 139h335l80 -68l234 72l49 -135l-160 -51q344 -348 344 -721z" />
    <glyph glyph-name="ntilde" unicode="&#xf1;" horiz-adv-x="1269" 
d="M474 1495q76 0 176 -41t139 -41q38 0 61 23t47 80l137 -41q-35 -131 -87 -193q-51 -62 -127 -63q-76 0 -176 41q-100 40 -139 40q-38 0 -61 -22q-22 -23 -47 -80l-137 43q35 131 87 193q51 62 127 61zM156 0v1081h247v-168q129 190 338 191q181 0 283 -113t102 -303v-688
h-247v614q-1 127 -61 196t-170 69t-178 -72t-67 -197v-610h-247z" />
    <glyph glyph-name="ograve" unicode="&#xf2;" horiz-adv-x="1345" 
d="M584 1219l-252 235l225 100l213 -335h-186zM344 539q0 -143 94 -246t239 -103q144 0 234 100t90 245v4q0 145 -94 246t-238 101q-145 0 -235 -98q-90 -100 -90 -245v-4zM1249 539q1 -233 -165 -399t-413 -165q-247 0 -411 163t-164 397v4q0 237 166 401t412 164t410 -164
t165 -397v-4z" />
    <glyph glyph-name="oacute" unicode="&#xf3;" horiz-adv-x="1345" 
d="M344 539q0 -143 94 -246t239 -103q144 0 234 100t90 245v4q0 145 -94 246t-238 101q-145 0 -235 -98q-90 -100 -90 -245v-4zM1249 539q1 -233 -165 -399t-413 -165q-247 0 -411 163t-164 397v4q0 237 166 401t412 164t410 -164t165 -397v-4zM573 1219l213 335l226 -100
l-252 -235h-187z" />
    <glyph glyph-name="ocircumflex" unicode="&#xf4;" horiz-adv-x="1345" 
d="M344 539q0 -143 94 -246t239 -103q144 0 234 100t90 245v4q0 145 -94 246t-238 101q-145 0 -235 -98q-90 -100 -90 -245v-4zM1249 539q1 -233 -165 -399t-413 -165q-247 0 -411 163t-164 397v4q0 237 166 401t412 164t410 -164t165 -397v-4zM319 1219l238 301h229
l240 -301h-197l-159 137l-158 -137h-193z" />
    <glyph glyph-name="otilde" unicode="&#xf5;" horiz-adv-x="1345" 
d="M508 1495q76 0 176 -41t138 -41t61 23t47 80l137 -41q-35 -131 -87 -193t-128 -63q-76 0 -176 41q-100 40 -138 40t-61 -22q-22 -23 -47 -80l-137 43q35 131 87 193t128 61zM344 539q0 -143 94 -246t239 -103q144 0 234 100t90 245v4q0 145 -94 246t-238 101
q-145 0 -235 -98q-90 -100 -90 -245v-4zM1249 539q1 -233 -165 -399t-413 -165q-247 0 -411 163t-164 397v4q0 237 166 401t412 164t410 -164t165 -397v-4z" />
    <glyph glyph-name="odieresis" unicode="&#xf6;" horiz-adv-x="1345" 
d="M344 539q0 -143 94 -246t239 -103q144 0 234 100t90 245v4q0 145 -94 246t-238 101q-145 0 -235 -98q-90 -100 -90 -245v-4zM1249 539q1 -233 -165 -399t-413 -165q-247 0 -411 163t-164 397v4q0 237 166 401t412 164t410 -164t165 -397v-4zM346 1219v243h252v-243h-252z
M745 1219v243h252v-243h-252z" />
    <glyph glyph-name="divide" unicode="&#xf7;" horiz-adv-x="1298" 
d="M512 164v262h274v-262h-274zM1159 614h-1020v213h1020v-213zM512 1018v260h274v-260h-274z" />
    <glyph glyph-name="oslash" unicode="&#xf8;" horiz-adv-x="1345" 
d="M674 186q150 0 242 102t92 247v4q0 100 -52 188l-448 -494q72 -47 166 -47zM670 893q-148 0 -240 -101t-92 -249v-4q0 -103 51 -187l447 492q-76 49 -166 49zM670 -25q-170 0 -310 88l-69 -73h-225l163 182q-133 156 -133 363v4q0 237 166 401t412 164q172 0 309 -88
l72 78h225q-104 -117 -166 -187q135 -152 135 -364v-4q1 -233 -165 -399t-414 -165z" />
    <glyph glyph-name="ugrave" unicode="&#xf9;" horiz-adv-x="1269" 
d="M539 1219l-252 235l225 100l213 -335h-186zM528 -23q-180 0 -282 113t-103 303v688h248v-614q1 -127 61 -196t170 -69t178 72t66 197v610h248v-1081h-248v168q-129 -191 -338 -191z" />
    <glyph glyph-name="uacute" unicode="&#xfa;" horiz-adv-x="1269" 
d="M528 -23q-180 0 -282 113t-103 303v688h248v-614q1 -127 61 -196t170 -69t178 72t66 197v610h248v-1081h-248v168q-129 -191 -338 -191zM528 1219l213 335l226 -100l-252 -235h-187z" />
    <glyph glyph-name="ucircumflex" unicode="&#xfb;" horiz-adv-x="1269" 
d="M528 -23q-180 0 -282 113t-103 303v688h248v-614q1 -127 61 -196t170 -69t178 72t66 197v610h248v-1081h-248v168q-129 -191 -338 -191zM274 1219l238 301h229l240 -301h-197l-159 137l-158 -137h-193z" />
    <glyph glyph-name="udieresis" unicode="&#xfc;" horiz-adv-x="1269" 
d="M528 -23q-180 0 -282 113t-103 303v688h248v-614q1 -127 61 -196t170 -69t178 72t66 197v610h248v-1081h-248v168q-129 -191 -338 -191zM301 1219v243h252v-243h-252zM700 1219v243h252v-243h-252z" />
    <glyph glyph-name="yacute" unicode="&#xfd;" horiz-adv-x="1220" 
d="M512 1219l213 335l225 -100l-252 -235h-186zM375 -334q-133 0 -254 66l84 184q76 -41 137 -41t96 28t66 97l-451 1081h264l308 -802l280 802h258l-430 -1112q-65 -167 -145 -235t-213 -68z" />
    <glyph glyph-name="thorn" unicode="&#xfe;" horiz-adv-x="1374" 
d="M397 539q-1 -152 93 -249t224 -97t219 95t89 251v4q0 154 -90 250t-219 96t-223 -97t-93 -249v-4zM156 -328v1823h247v-594q143 203 357 203t364 -153t150 -408v-4q0 -256 -148 -409t-364 -153q-215 0 -359 191v-496h-247z" />
    <glyph glyph-name="ydieresis" unicode="&#xff;" horiz-adv-x="1220" 
d="M285 1219v243h252v-243h-252zM684 1219v243h252v-243h-252zM375 -334q-133 0 -254 66l84 184q76 -41 137 -41t96 28t66 97l-451 1081h264l308 -802l280 802h258l-430 -1112q-65 -167 -145 -235t-213 -68z" />
    <glyph glyph-name="Amacron" unicode="&#x100;" horiz-adv-x="1617" 
d="M442 1595v185h736v-185h-736zM559 569h494l-248 574zM61 0l631 1444h234l630 -1444h-266l-145 346h-678l-148 -346h-258z" />
    <glyph glyph-name="amacron" unicode="&#x101;" horiz-adv-x="1202" 
d="M254 1241v180h696v-180h-696zM823 391v62q-111 43 -238 43t-193 -45t-64 -123v-4q0 -74 59 -117t167 -43t188 64t81 163zM1063 0h-246v133q-131 -156 -350 -156q-161 -1 -273 89t-112 245v4q0 175 121 265t298 90t318 -45v20q0 231 -275 231q-138 0 -300 -67l-68 199
q200 90 424 90t344 -119t119 -338v-641z" />
    <glyph glyph-name="Abreve" unicode="&#x102;" horiz-adv-x="1617" 
d="M809 1569q-150 1 -246 73t-108 201h176q39 -102 178 -102t178 102h176q-12 -129 -108 -201t-246 -73zM559 569h494l-248 574zM61 0l631 1444h234l630 -1444h-266l-145 346h-678l-148 -346h-258z" />
    <glyph glyph-name="abreve" unicode="&#x103;" horiz-adv-x="1202" 
d="M602 1214q-150 0 -245 79t-105 218h170q41 -125 180 -125t180 125h172q-12 -139 -107 -218t-245 -79zM823 391v62q-111 43 -238 43t-193 -45t-64 -123v-4q0 -74 59 -117t167 -43t188 64t81 163zM1063 0h-246v133q-131 -156 -350 -156q-161 -1 -273 89t-112 245v4
q0 175 121 265t298 90t318 -45v20q0 231 -275 231q-138 0 -300 -67l-68 199q200 90 424 90t344 -119t119 -338v-641z" />
    <glyph glyph-name="Aogonek" unicode="&#x104;" horiz-adv-x="1617" 
d="M559 569h494l-248 574zM1237 -170q0 84 82 170h-29l-145 346h-678l-148 -346h-258l631 1444h234l630 -1444h-63q-68 -68 -68 -129q0 -88 148 -88v-119q-158 -14 -247 34t-89 132z" />
    <glyph glyph-name="aogonek" unicode="&#x105;" horiz-adv-x="1202" 
d="M823 391v62q-111 43 -238 43t-193 -45t-64 -123v-4q0 -74 59 -117t167 -43t188 64t81 163zM739 -170q0 84 82 170h-4v133q-131 -156 -350 -156q-161 -1 -273 89t-112 245v4q0 175 121 265t298 90t318 -45v20q0 231 -275 231q-138 0 -300 -67l-68 199q200 90 424 90
t344 -119t119 -338v-641h-68q-68 -68 -67 -129q0 -88 147 -88v-119q-158 -14 -247 34t-89 132z" />
    <glyph glyph-name="Cacute" unicode="&#x106;" horiz-adv-x="1511" 
d="M735 1573l230 297l225 -98l-262 -199h-193zM850 -25q-311 0 -520 213t-209 525v4q0 311 209 526t530 215q186 0 316 -57t245 -166l-161 -186q-193 178 -399 178q-206 -1 -341 -147t-135 -359v-4q0 -213 135 -361t338 -149q123 0 217 46t195 140l162 -164
q-120 -127 -256 -191t-326 -63z" />
    <glyph glyph-name="cacute" unicode="&#x107;" horiz-adv-x="1169" 
d="M655 -25q-239 0 -399 163t-160 397v4q0 233 161 399t411 166t422 -186l-154 -166q-130 135 -272 135q-142 -1 -231 -101t-89 -243v-4q0 -147 91 -247t237 -102q146 0 276 136l150 -148q-88 -98 -192 -150t-251 -53zM547 1219l213 335l225 -100l-252 -235h-186z" />
    <glyph glyph-name="Cdotaccent" unicode="&#x10a;" horiz-adv-x="1511" 
d="M850 -25q-311 0 -520 213t-209 525v4q0 311 209 526t530 215q186 0 316 -57t245 -166l-161 -186q-193 178 -399 178q-206 -1 -341 -147t-135 -359v-4q0 -213 135 -361t338 -149q123 0 217 46t195 140l162 -164q-120 -127 -256 -191t-326 -63zM705 1573v229h262v-229h-262
z" />
    <glyph glyph-name="cdotaccent" unicode="&#x10b;" horiz-adv-x="1169" 
d="M516 1219v243h258v-243h-258zM655 -25q-239 0 -399 163t-160 397v4q0 233 161 399t411 166t422 -186l-154 -166q-130 135 -272 135q-142 -1 -231 -101t-89 -243v-4q0 -147 91 -247t237 -102q146 0 276 136l150 -148q-88 -98 -192 -150t-251 -53z" />
    <glyph glyph-name="Ccaron" unicode="&#x10c;" horiz-adv-x="1511" 
d="M1200 1849l-248 -276h-233l-248 276h209l158 -116l157 116h205zM850 -25q-311 0 -520 213t-209 525v4q0 311 209 526t530 215q186 0 316 -57t245 -166l-161 -186q-193 178 -399 178q-206 -1 -341 -147t-135 -359v-4q0 -213 135 -361t338 -149q123 0 217 46t195 140
l162 -164q-120 -127 -256 -191t-326 -63z" />
    <glyph glyph-name="ccaron" unicode="&#x10d;" horiz-adv-x="1169" 
d="M655 -25q-239 0 -399 163t-160 397v4q0 233 161 399t411 166t422 -186l-154 -166q-130 135 -272 135q-142 -1 -231 -101t-89 -243v-4q0 -147 91 -247t237 -102q146 0 276 136l150 -148q-88 -98 -192 -150t-251 -53zM999 1520l-239 -301h-230l-237 301h196l158 -138
l160 138h192z" />
    <glyph glyph-name="Dcaron" unicode="&#x10e;" horiz-adv-x="1601" 
d="M436 229h283q223 -1 360 135t138 349v4q1 213 -137 350t-361 137h-283v-975zM184 0v1434h535q334 0 548 -204t214 -509v-4q0 -307 -214 -512t-548 -205h-535zM1137 1829l-248 -277h-234l-247 277h208l158 -117l158 117h205z" />
    <glyph glyph-name="dcaron" unicode="&#x10f;" horiz-adv-x="1374" 
d="M662 193q129 0 221 97t92 249v4q0 152 -92 249t-222 97q-131 0 -221 -94t-90 -252v-4q0 -154 92 -250t220 -96zM613 -23q-213 0 -363 153t-150 409v4q0 257 148 409t362 152q213 0 361 -191v582h248v-1495h-248v180q-144 -203 -358 -203zM1550 1495v-6l-114 -383h-103
l25 389h192z" />
    <glyph glyph-name="Dcroat" unicode="&#x110;" horiz-adv-x="1662" 
d="M498 229h282q222 -1 360 135t138 349v4q0 213 -137 350t-361 137h-282v-370h358v-226h-358v-379zM246 0v608h-154v226h154v600h534q334 0 548 -204t214 -509v-4q0 -307 -214 -512t-548 -205h-534z" />
    <glyph glyph-name="dcroat" unicode="&#x111;" horiz-adv-x="1374" 
d="M662 193q129 0 221 97t92 249v4q0 152 -92 249t-222 97q-131 0 -221 -94t-90 -252v-4q0 -154 92 -250t220 -96zM635 1231v149h336v115h248v-115h141v-149h-141v-1231h-248v180q-143 -203 -357 -203t-364 153t-150 409v4q0 257 148 409t362 152q213 0 361 -191v318h-336z
" />
    <glyph glyph-name="Emacron" unicode="&#x112;" horiz-adv-x="1372" 
d="M184 0v1434h1063v-226h-811v-372h719v-226h-719v-385h821v-225h-1073zM352 1575v184h735v-184h-735z" />
    <glyph glyph-name="emacron" unicode="&#x113;" horiz-adv-x="1236" 
d="M272 1241v180h697v-180h-697zM626 901q-116 0 -192 -79t-92 -206h555q-12 125 -84 205q-71 80 -187 80zM651 -25q-239 0 -397 157t-158 405v4q0 235 150 399t388 164t373 -167q136 -167 136 -415q0 -20 -4 -69h-795q20 -129 104 -202t207 -73q160 0 293 129l146 -129
q-169 -203 -443 -203z" />
    <glyph glyph-name="Ebreve" unicode="&#x114;" horiz-adv-x="1372" 
d="M184 0v1434h1063v-226h-811v-372h719v-226h-719v-385h821v-225h-1073zM719 1548q-150 0 -246 73t-108 202h176q39 -103 178 -103t178 103h176q-12 -129 -108 -202t-246 -73z" />
    <glyph glyph-name="ebreve" unicode="&#x115;" horiz-adv-x="1236" 
d="M621 1214q-150 0 -245 79t-106 218h170q40 -125 180 -125t181 125h172q-12 -139 -107 -218t-245 -79zM626 901q-116 0 -192 -79t-92 -206h555q-12 125 -84 205q-71 80 -187 80zM651 -25q-239 0 -397 157t-158 405v4q0 235 150 399t388 164t373 -167q136 -167 136 -415
q0 -20 -4 -69h-795q20 -129 104 -202t207 -73q160 0 293 129l146 -129q-169 -203 -443 -203z" />
    <glyph glyph-name="Edotaccent" unicode="&#x116;" horiz-adv-x="1372" 
d="M184 0v1434h1063v-226h-811v-372h719v-226h-719v-385h821v-225h-1073zM588 1552v230h262v-230h-262z" />
    <glyph glyph-name="edotaccent" unicode="&#x117;" horiz-adv-x="1236" 
d="M492 1219v243h258v-243h-258zM626 901q-116 0 -192 -79t-92 -206h555q-12 125 -84 205q-71 80 -187 80zM651 -25q-239 0 -397 157t-158 405v4q0 235 150 399t388 164t373 -167q136 -167 136 -415q0 -20 -4 -69h-795q20 -129 104 -202t207 -73q160 0 293 129l146 -129
q-169 -203 -443 -203z" />
    <glyph glyph-name="Eogonek" unicode="&#x118;" horiz-adv-x="1372" 
d="M184 0v1434h1063v-226h-811v-372h719v-226h-719v-385h821v-225h-79q-68 -68 -68 -129q0 -88 147 -88v-119q-159 -14 -247 34t-88 132t82 170h-820z" />
    <glyph glyph-name="eogonek" unicode="&#x119;" horiz-adv-x="1236" 
d="M862 -119q0 -98 148 -98v-119q-156 -14 -245 33t-89 126t69 161q-53 -8 -94 -9q-239 0 -397 157t-158 405v4q0 235 150 399t388 164t373 -167q136 -167 136 -415q0 -20 -4 -69h-795q20 -129 104 -202t207 -73q160 0 293 129l146 -129q-56 -64 -119 -119
q-113 -100 -113 -178zM626 901q-116 0 -192 -79t-92 -206h555q-12 125 -84 205q-71 80 -187 80z" />
    <glyph glyph-name="Ecaron" unicode="&#x11a;" horiz-adv-x="1372" 
d="M184 0v1434h1063v-226h-811v-372h719v-226h-719v-385h821v-225h-1073zM1083 1829l-247 -277h-234l-248 277h209l158 -117l158 117h204z" />
    <glyph glyph-name="ecaron" unicode="&#x11b;" horiz-adv-x="1236" 
d="M626 901q-116 0 -192 -79t-92 -206h555q-12 125 -84 205q-71 80 -187 80zM651 -25q-239 0 -397 157t-158 405v4q0 235 150 399t388 164t373 -167q136 -167 136 -415q0 -20 -4 -69h-795q20 -129 104 -202t207 -73q160 0 293 129l146 -129q-169 -203 -443 -203zM975 1520
l-240 -301h-229l-238 301h197l158 -138l159 138h193z" />
    <glyph glyph-name="Gbreve" unicode="&#x11e;" horiz-adv-x="1605" 
d="M867 -25q-335 0 -541 210t-205 528v4q0 307 210 524t529 217q180 0 307 -48t244 -146l-160 -191q-90 78 -181 116t-220 38q-197 -1 -331 -149t-134 -357v-4q0 -223 135 -367t344 -145q209 0 355 108v269h-367v219h610v-602q-260 -224 -595 -224zM844 1569q-150 1 -246 73
t-109 201h177q39 -102 178 -102t178 102h176q-12 -129 -108 -201t-246 -73z" />
    <glyph glyph-name="gbreve" unicode="&#x11f;" horiz-adv-x="1374" 
d="M698 1214q-150 0 -244 79t-106 218h170q41 -125 180 -125t181 125h172q-11 -139 -107 -218t-246 -79zM658 295q130 0 224 84q93 84 93 213v4q0 131 -93 215q-92 84 -224 84t-220 -83t-88 -214v-4q0 -131 89 -215t219 -84zM1219 221q0 -553 -582 -553q-270 0 -483 129
l92 187q184 -115 368 -115q360 0 359 332v84q-154 -199 -368 -199t-359 138t-146 368v4q0 228 146 368t359 140q212 0 366 -184v161h248v-860z" />
    <glyph glyph-name="Gdotaccent" unicode="&#x120;" horiz-adv-x="1605" 
d="M867 -25q-335 0 -541 210t-205 528v4q0 307 210 524t529 217q180 0 307 -48t244 -146l-160 -191q-90 78 -181 116t-220 38q-197 -1 -331 -149t-134 -357v-4q0 -223 135 -367t344 -145q209 0 355 108v269h-367v219h610v-602q-260 -224 -595 -224zM713 1573v229h262v-229
h-262z" />
    <glyph glyph-name="gdotaccent" unicode="&#x121;" horiz-adv-x="1374" 
d="M569 1219v243h258v-243h-258zM658 295q130 0 224 84q93 84 93 213v4q0 131 -93 215q-92 84 -224 84t-220 -83t-88 -214v-4q0 -131 89 -215t219 -84zM1219 221q0 -553 -582 -553q-270 0 -483 129l92 187q184 -115 368 -115q360 0 359 332v84q-154 -199 -368 -199t-359 138
t-146 368v4q0 228 146 368t359 140q212 0 366 -184v161h248v-860z" />
    <glyph glyph-name="Gcommaaccent" unicode="&#x122;" horiz-adv-x="1605" 
d="M867 -25q-335 0 -541 210t-205 528v4q0 307 210 524t529 217q180 0 307 -48t244 -146l-160 -191q-90 78 -181 116t-220 38q-197 -1 -331 -149t-134 -357v-4q0 -223 135 -367t344 -145q209 0 355 108v269h-367v219h610v-602q-260 -224 -595 -224zM721 -344v207h242v-176
q0 -238 -258 -250l-17 80q153 20 143 139h-110z" />
    <glyph glyph-name="gcommaaccent" unicode="&#x123;" horiz-adv-x="1374" 
d="M658 295q130 0 224 84q93 84 93 213v4q0 131 -93 215q-92 84 -224 84t-220 -83t-88 -214v-4q0 -131 89 -215t219 -84zM1219 221q0 -553 -582 -553q-270 0 -483 129l92 187q184 -115 368 -115q360 0 359 332v84q-154 -199 -368 -199t-359 138t-146 368v4q0 228 146 368
t359 140q212 0 366 -184v161h248v-860zM815 1425v-206h-242v176q0 238 258 250l17 -80q-78 -10 -113 -45t-30 -95h110z" />
    <glyph glyph-name="Hbar" unicode="&#x126;" horiz-adv-x="1593" 
d="M455 834h684v217h-684v-217zM57 1047v178h146v209h252v-209h684v209h252v-209h147v-178h-147v-1047h-252v600h-684v-600h-252v1047h-146z" />
    <glyph glyph-name="hbar" unicode="&#x127;" horiz-adv-x="1269" 
d="M156 0v1231h-142v149h142v115h247v-115h336v-149h-336v-318q129 190 338 191q181 0 283 -113t102 -303v-688h-247v614q-1 127 -61 196t-170 69t-178 -72t-67 -197v-610h-247z" />
    <glyph glyph-name="Imacron" unicode="&#x12a;" horiz-adv-x="649" 
d="M-41 1575v184h735v-184h-735zM199 0v1434h252v-1434h-252z" />
    <glyph glyph-name="imacron" unicode="&#x12b;" horiz-adv-x="585" 
d="M-55 1241v180h696v-180h-696zM170 0v1081h248v-1081h-248z" />
    <glyph glyph-name="Ibreve" unicode="&#x12c;" horiz-adv-x="649" 
d="M326 1548q-150 0 -246 73t-109 202h176q39 -103 179 -103t178 103h176q-12 -129 -108 -202t-246 -73zM199 0v1434h252v-1434h-252z" />
    <glyph glyph-name="ibreve" unicode="&#x12d;" horiz-adv-x="585" 
d="M293 1214q-150 0 -245 79t-105 218h170q41 -125 180 -125t180 125h172q-12 -139 -107 -218t-245 -79zM170 0v1081h248v-1081h-248z" />
    <glyph glyph-name="Iogonek" unicode="&#x12e;" horiz-adv-x="649" 
d="M199 0v1434h252v-1434h-45q-68 -68 -68 -129q0 -88 147 -88v-119q-159 -14 -247 34t-88 132t81 170h-32z" />
    <glyph glyph-name="iogonek" unicode="&#x12f;" horiz-adv-x="585" 
d="M160 1247v236h266v-236h-266zM170 0v1081h248v-1081h-43q-68 -68 -68 -129q0 -88 148 -88v-119q-158 -14 -247 34t-89 132t82 170h-31z" />
    <glyph glyph-name="Idotaccent" unicode="&#x130;" horiz-adv-x="649" 
d="M195 1552v230h262v-230h-262zM199 0v1434h252v-1434h-252z" />
    <glyph glyph-name="dotlessi" unicode="&#x131;" horiz-adv-x="585" 
d="M170 0v1081h248v-1081h-248z" />
    <glyph glyph-name="Kcommaaccent" unicode="&#x136;" horiz-adv-x="1486" 
d="M184 0v1434h252v-721l682 721h309l-596 -617l623 -817h-305l-490 645l-223 -229v-416h-252zM625 -328v207h241v-176q0 -238 -258 -250l-16 80q153 20 143 139h-110z" />
    <glyph glyph-name="kcommaaccent" unicode="&#x137;" horiz-adv-x="1191" 
d="M156 0v1495h247v-893l449 479h301l-430 -440l444 -641h-286l-326 467l-152 -158v-309h-247zM500 -338v207h241v-176q0 -238 -258 -250l-16 80q153 20 143 139h-110z" />
    <glyph glyph-name="Lacute" unicode="&#x139;" horiz-adv-x="1267" 
d="M184 0v1434h252v-1205h754v-229h-1006zM244 1552l229 297l225 -98l-262 -199h-192z" />
    <glyph glyph-name="lacute" unicode="&#x13a;" horiz-adv-x="585" 
d="M170 0v1495h248v-1495h-248zM199 1587l229 297l225 -98l-262 -199h-192z" />
    <glyph glyph-name="Lcommaaccent" unicode="&#x13b;" horiz-adv-x="1267" 
d="M184 0v1434h252v-1205h754v-229h-1006zM561 -338v207h242v-176q0 -238 -258 -250l-17 80q152 20 144 139h-111z" />
    <glyph glyph-name="lcommaaccent" unicode="&#x13c;" horiz-adv-x="585" 
d="M170 0v1495h248v-1495h-248zM172 -338v207h242v-176q0 -238 -258 -250l-17 80q152 20 144 139h-111z" />
    <glyph glyph-name="Lcaron" unicode="&#x13d;" horiz-adv-x="1267" 
d="M184 0v1434h252v-1205h754v-229h-1006zM815 1434v-7l-115 -383h-102l25 390h192z" />
    <glyph glyph-name="lcaron" unicode="&#x13e;" horiz-adv-x="585" 
d="M170 0v1495h248v-1495h-248zM750 1495v-6l-115 -383h-103l25 389h193z" />
    <glyph glyph-name="Ldot" unicode="&#x13f;" horiz-adv-x="1267" 
d="M184 0v1434h252v-1205h754v-229h-1006zM848 649v244h250v-244h-250z" />
    <glyph glyph-name="ldot" unicode="&#x140;" horiz-adv-x="751" 
d="M170 0v1495h248v-1495h-248zM561 653v230h217v-230h-217z" />
    <glyph glyph-name="Lslash" unicode="&#x141;" horiz-adv-x="1329" 
d="M498 229h753v-229h-1005v528l-154 -67v239l154 68v666h252v-551l327 147v-239l-327 -148v-414z" />
    <glyph glyph-name="lslash" unicode="&#x142;" horiz-adv-x="708" 
d="M479 0h-248v580l-155 -80v237l155 80v678h248v-553l154 80v-238l-154 -79v-705z" />
    <glyph glyph-name="Nacute" unicode="&#x143;" horiz-adv-x="1617" 
d="M184 0v1434h234l768 -992v992h248v-1434h-211l-791 1020v-1020h-248zM707 1550l229 297l225 -98l-262 -199h-192z" />
    <glyph glyph-name="nacute" unicode="&#x144;" horiz-adv-x="1269" 
d="M156 0v1081h247v-168q129 190 338 191q181 0 283 -113t102 -303v-688h-247v614q-1 127 -61 196t-170 69t-178 -72t-67 -197v-610h-247zM541 1219l213 335l225 -100l-252 -235h-186z" />
    <glyph glyph-name="Ncommaaccent" unicode="&#x145;" horiz-adv-x="1617" 
d="M184 0v1434h234l768 -992v992h248v-1434h-211l-791 1020v-1020h-248zM686 -328v207h242v-176q0 -238 -258 -250l-17 80q152 20 144 139h-111z" />
    <glyph glyph-name="ncommaaccent" unicode="&#x146;" horiz-adv-x="1269" 
d="M156 0v1081h247v-168q129 190 338 191q181 0 283 -113t102 -303v-688h-247v614q-1 127 -61 196t-170 69t-178 -72t-67 -197v-610h-247zM518 -338v207h242v-176q0 -238 -258 -250l-17 80q152 20 144 139h-111z" />
    <glyph glyph-name="Ncaron" unicode="&#x147;" horiz-adv-x="1617" 
d="M184 0v1434h234l768 -992v992h248v-1434h-211l-791 1020v-1020h-248zM1174 1827l-248 -277h-234l-248 277h209l158 -117l158 117h205z" />
    <glyph glyph-name="ncaron" unicode="&#x148;" horiz-adv-x="1269" 
d="M156 0v1081h247v-168q129 190 338 191q181 0 283 -113t102 -303v-688h-247v614q-1 127 -61 196t-170 69t-178 -72t-67 -197v-610h-247zM993 1520l-239 -301h-230l-237 301h196l158 -138l160 138h192z" />
    <glyph glyph-name="Omacron" unicode="&#x14c;" horiz-adv-x="1740" 
d="M872 207q211 0 348 146q136 146 136 360v4q0 213 -138 361t-350 148t-347 -146q-136 -146 -136 -359v-4q0 -213 138 -361t349 -149zM868 -25q-326 0 -536 215t-211 523v4q0 307 213 524q212 217 538 217t537 -215t211 -522v-4q0 -307 -213 -525t-539 -217zM504 1595v185
h735v-185h-735z" />
    <glyph glyph-name="omacron" unicode="&#x14d;" horiz-adv-x="1345" 
d="M344 539q0 -143 94 -246t239 -103q144 0 234 100t90 245v4q0 145 -94 246t-238 101q-145 0 -235 -98q-90 -100 -90 -245v-4zM1249 539q1 -233 -165 -399t-413 -165q-247 0 -411 163t-164 397v4q0 237 166 401t412 164t410 -164t165 -397v-4zM324 1241v180h696v-180h-696z
" />
    <glyph glyph-name="Obreve" unicode="&#x14e;" horiz-adv-x="1740" 
d="M872 207q211 0 348 146q136 146 136 360v4q0 213 -138 361t-350 148t-347 -146q-136 -146 -136 -359v-4q0 -213 138 -361t349 -149zM868 -25q-326 0 -536 215t-211 523v4q0 307 213 524q212 217 538 217t537 -215t211 -522v-4q0 -307 -213 -525t-539 -217zM870 1569
q-150 1 -246 73t-108 201h176q39 -102 178 -102t179 102h176q-13 -129 -109 -201t-246 -73z" />
    <glyph glyph-name="obreve" unicode="&#x14f;" horiz-adv-x="1345" 
d="M672 1214q-150 0 -245 79t-105 218h170q41 -125 180 -125t180 125h172q-12 -139 -107 -218t-245 -79zM344 539q0 -143 94 -246t239 -103q144 0 234 100t90 245v4q0 145 -94 246t-238 101q-145 0 -235 -98q-90 -100 -90 -245v-4zM1249 539q1 -233 -165 -399t-413 -165
q-247 0 -411 163t-164 397v4q0 237 166 401t412 164t410 -164t165 -397v-4z" />
    <glyph glyph-name="Ohungarumlaut" unicode="&#x150;" horiz-adv-x="1740" 
d="M934 1573l229 297l217 -98l-260 -199h-186zM575 1573l230 297l217 -98l-260 -199h-187zM872 207q211 0 348 146q136 146 136 360v4q0 213 -138 361t-350 148t-347 -146q-136 -146 -136 -359v-4q0 -213 138 -361t349 -149zM868 -25q-326 0 -536 215t-211 523v4
q0 307 213 524q212 217 538 217t537 -215t211 -522v-4q0 -307 -213 -525t-539 -217z" />
    <glyph glyph-name="ohungarumlaut" unicode="&#x151;" horiz-adv-x="1345" 
d="M344 539q0 -143 94 -246t239 -103q144 0 234 100t90 245v4q0 145 -94 246t-238 101q-145 0 -235 -98q-90 -100 -90 -245v-4zM1249 539q1 -233 -165 -399t-413 -165q-247 0 -411 163t-164 397v4q0 237 166 401t412 164t410 -164t165 -397v-4zM385 1219l211 335l217 -100
l-248 -235h-180zM733 1219l215 335l217 -100l-252 -235h-180z" />
    <glyph glyph-name="OE" unicode="&#x152;" horiz-adv-x="2248" 
d="M883 229h223v975h-223q-223 0 -361 -135t-137 -348v-4q-1 -213 137 -351t361 -137zM883 0q-334 0 -548 204t-214 509v4q0 307 214 512t548 205h1241v-226h-766v-372h674v-226h-674v-385h776v-225h-1251z" />
    <glyph glyph-name="oe" unicode="&#x153;" horiz-adv-x="2129" 
d="M344 539q0 -143 92 -246t233 -103q140 0 229 100t89 245v4q0 145 -92 246t-232 101q-139 0 -229 -100t-90 -243v-4zM1518 901q-116 0 -192 -79q-77 -79 -93 -206h557q-14 127 -85 206t-187 79zM657 -25q-233 0 -397 164t-164 396v4q0 233 166 399t406 166q136 0 248 -60
t184 -163q70 104 178 163t240 60q246 0 380 -167t136 -415q0 -20 -4 -69h-795q20 -129 105 -202t206 -73q162 0 295 129l146 -129q-172 -203 -443 -203q-139 1 -256 61t-190 167q-72 -104 -188 -166t-253 -62z" />
    <glyph glyph-name="Racute" unicode="&#x154;" horiz-adv-x="1480" 
d="M621 1552l229 297l225 -98l-262 -199h-192zM436 723h369q135 -1 215 65t80 175v4q0 115 -78 176t-219 61h-367v-481zM184 0v1434h639q266 0 414 -144q119 -123 119 -309v-4q0 -170 -92 -280t-250 -154l387 -543h-297l-352 500h-316v-500h-252z" />
    <glyph glyph-name="racute" unicode="&#x155;" horiz-adv-x="845" 
d="M156 0v1081h247v-243q115 276 383 264v-262h-14q-168 0 -268 -110t-101 -318v-412h-247zM358 1219l213 335l226 -100l-252 -235h-187z" />
    <glyph glyph-name="Rcommaaccent" unicode="&#x156;" horiz-adv-x="1480" 
d="M600 -328v207h242v-176q0 -238 -258 -250l-17 80q152 20 144 139h-111zM436 723h369q135 -1 215 65t80 175v4q0 115 -78 176t-219 61h-367v-481zM184 0v1434h639q266 0 414 -144q119 -123 119 -309v-4q0 -170 -92 -280t-250 -154l387 -543h-297l-352 500h-316v-500h-252z
" />
    <glyph glyph-name="rcommaaccent" unicode="&#x157;" horiz-adv-x="845" 
d="M156 0v1081h247v-243q115 276 383 264v-262h-14q-168 0 -268 -110t-101 -318v-412h-247zM172 -338v207h242v-176q0 -238 -258 -250l-17 80q152 20 144 139h-111z" />
    <glyph glyph-name="Rcaron" unicode="&#x158;" horiz-adv-x="1480" 
d="M1085 1829l-247 -277h-234l-248 277h209l158 -117l158 117h204zM436 723h369q135 -1 215 65t80 175v4q0 115 -78 176t-219 61h-367v-481zM184 0v1434h639q266 0 414 -144q119 -123 119 -309v-4q0 -170 -92 -280t-250 -154l387 -543h-297l-352 500h-316v-500h-252z" />
    <glyph glyph-name="rcaron" unicode="&#x159;" horiz-adv-x="845" 
d="M156 0v1081h247v-243q115 276 383 264v-262h-14q-168 0 -268 -110t-101 -318v-412h-247zM813 1520l-240 -301h-229l-238 301h197l158 -138l160 138h192z" />
    <glyph glyph-name="Sacute" unicode="&#x15a;" horiz-adv-x="1310" 
d="M563 1573l230 297l225 -98l-262 -199h-193zM686 -20q-342 0 -598 229l152 180q215 -186 452 -186q117 0 186 49t68 131v4q0 80 -65 127t-223 85t-240 69q-190 72 -243 199q-30 71 -30 167v4q-1 184 137 300t353 116q295 0 520 -180l-135 -191q-199 147 -389 148
q-105 0 -169 -48t-65 -122v-4q0 -84 69 -130q69 -45 289 -99q219 -54 331 -149t112 -267v-4q0 -199 -141 -314q-142 -114 -371 -114z" />
    <glyph glyph-name="sacute" unicode="&#x15b;" horiz-adv-x="1026" 
d="M526 -20q-254 0 -458 161l110 168q176 -133 354 -133q80 0 124 32t44 85v4q0 78 -217 143l-24 9q-250 67 -311 188q-28 55 -27 129v4q0 150 109 240q110 90 276 90q211 0 397 -123l-98 -176q-168 102 -305 102q-72 0 -112 -30t-40 -78v-4q0 -49 54 -79t114 -48t62 -20
q2 -1 6 -2q119 -30 232 -105q112 -77 112 -213v-5q0 -163 -113 -251t-289 -88zM420 1219l213 335l225 -100l-252 -235h-186z" />
    <glyph glyph-name="Scedilla" unicode="&#x15e;" horiz-adv-x="1310" 
d="M692 203q117 0 186 49t68 131v4q0 80 -65 127t-223 85t-240 69q-190 72 -243 199q-30 71 -30 167v4q-1 184 137 300t353 116q295 0 520 -180l-135 -191q-199 147 -389 148q-105 0 -169 -48t-65 -122v-4q0 -84 69 -130q69 -45 289 -99q219 -54 331 -149t112 -267v-4
q0 -180 -118 -292t-314 -132l-137 -324l-217 92l159 236q-272 31 -483 221l152 180q215 -186 452 -186z" />
    <glyph glyph-name="scedilla" unicode="&#x15f;" horiz-adv-x="1026" 
d="M532 176q80 0 124 32t44 85v4q0 78 -217 143l-24 9q-250 67 -311 188q-28 55 -27 129v4q0 150 109 240q110 90 276 90q211 0 397 -123l-98 -176q-168 102 -305 102q-72 0 -112 -30t-40 -78v-4q0 -49 54 -79t114 -48t62 -20q2 -1 6 -2q119 -30 232 -105q112 -77 112 -213
v-5q0 -145 -90 -231t-238 -104l-137 -324l-217 92l162 238q-190 33 -340 151l110 168q176 -133 354 -133z" />
    <glyph glyph-name="Scaron" unicode="&#x160;" horiz-adv-x="1310" 
d="M1030 1849l-248 -276h-233l-248 276h209l158 -116l157 116h205zM686 -20q-342 0 -598 229l152 180q215 -186 452 -186q117 0 186 49t68 131v4q0 80 -65 127t-223 85t-240 69q-190 72 -243 199q-30 71 -30 167v4q-1 184 137 300t353 116q295 0 520 -180l-135 -191
q-199 147 -389 148q-105 0 -169 -48t-65 -122v-4q0 -84 69 -130q69 -45 289 -99q219 -54 331 -149t112 -267v-4q0 -199 -141 -314q-142 -114 -371 -114z" />
    <glyph glyph-name="scaron" unicode="&#x161;" horiz-adv-x="1026" 
d="M526 -20q-254 0 -458 161l110 168q176 -133 354 -133q80 0 124 32t44 85v4q0 78 -217 143l-24 9q-250 67 -311 188q-28 55 -27 129v4q0 150 109 240q110 90 276 90q211 0 397 -123l-98 -176q-168 102 -305 102q-72 0 -112 -30t-40 -78v-4q0 -49 54 -79t114 -48t62 -20
q2 -1 6 -2q119 -30 232 -105q112 -77 112 -213v-5q0 -163 -113 -251t-289 -88zM872 1520l-239 -301h-230l-237 301h196l158 -138l160 138h192z" />
    <glyph glyph-name="Tcommaaccent" unicode="&#x162;" horiz-adv-x="1327" 
d="M537 0v1200h-455v234h1163v-234h-454v-1200h-254zM541 -338v207h241v-176q0 -238 -258 -250l-16 80q153 20 143 139h-110z" />
    <glyph glyph-name="tcommaaccent" unicode="&#x163;" horiz-adv-x="841" 
d="M518 -18q-311 0 -311 317v569h-137v213h137v297h248v-297h290v-213h-290v-530q0 -135 133 -135q80 0 153 37v-203q-98 -55 -223 -55zM336 -338v207h242v-176q-1 -238 -259 -250l-16 80q153 20 143 139h-110z" />
    <glyph glyph-name="Tcaron" unicode="&#x164;" horiz-adv-x="1327" 
d="M537 0v1200h-455v234h1163v-234h-454v-1200h-254zM1028 1829l-248 -277h-233l-248 277h209l158 -117l157 117h205z" />
    <glyph glyph-name="tcaron" unicode="&#x165;" horiz-adv-x="841" 
d="M518 -18q-311 0 -311 317v569h-137v213h137v297h248v-297h290v-213h-290v-530q0 -135 133 -135q80 0 153 37v-203q-98 -55 -223 -55zM838 1595v-6l-115 -383h-102l24 389h193z" />
    <glyph glyph-name="Umacron" unicode="&#x16a;" horiz-adv-x="1550" 
d="M1389 621q0 -313 -164 -479t-451 -165q-288 0 -450 162t-162 469v826h252v-816q0 -197 96 -303t266 -106t265 102t96 297v826h252v-813zM408 1573v184h735v-184h-735z" />
    <glyph glyph-name="umacron" unicode="&#x16b;" horiz-adv-x="1269" 
d="M279 1241v180h696v-180h-696zM528 -23q-180 0 -282 113t-103 303v688h248v-614q1 -127 61 -196t170 -69t178 72t66 197v610h248v-1081h-248v168q-129 -191 -338 -191z" />
    <glyph glyph-name="Ubreve" unicode="&#x16c;" horiz-adv-x="1550" 
d="M1389 621q0 -313 -164 -479t-451 -165q-288 0 -450 162t-162 469v826h252v-816q0 -197 96 -303t266 -106t265 102t96 297v826h252v-813zM774 1532q-150 0 -246 73t-108 201h176q39 -102 178 -102t178 102h176q-12 -130 -108 -202t-246 -72z" />
    <glyph glyph-name="ubreve" unicode="&#x16d;" horiz-adv-x="1269" 
d="M627 1214q-150 0 -245 79t-106 218h170q40 -125 180 -125t181 125h172q-12 -139 -107 -218t-245 -79zM528 -23q-180 0 -282 113t-103 303v688h248v-614q1 -127 61 -196t170 -69t178 72t66 197v610h248v-1081h-248v168q-129 -191 -338 -191z" />
    <glyph glyph-name="Uring" unicode="&#x16e;" horiz-adv-x="1550" 
d="M643 1719q0 -50 37 -85t94 -35t95 35t38 85t-38 85t-95 35t-94 -35t-37 -85zM530 1719q0 93 72 155t172 61q100 0 172 -61q72 -60 72 -154t-72 -155t-172 -61t-172 60q-72 62 -72 155zM1389 621q0 -313 -164 -479t-451 -165q-288 0 -450 162t-162 469v826h252v-816
q0 -197 96 -303t266 -106t265 102t96 297v826h252v-813z" />
    <glyph glyph-name="uring" unicode="&#x16f;" horiz-adv-x="1269" 
d="M528 -23q-180 0 -282 113t-103 303v688h248v-614q1 -127 61 -196t170 -69t178 72t66 197v610h248v-1081h-248v168q-129 -191 -338 -191zM489 1417q0 -57 40 -97q39 -40 97 -40t98 40t40 97t-40 97t-97 40t-97 -40t-41 -97zM389 1417q0 94 70 162t168 68t168 -68
q69 -68 69 -162t-70 -162q-70 -67 -167 -67q-98 0 -168 68t-70 161z" />
    <glyph glyph-name="Uhungarumlaut" unicode="&#x170;" horiz-adv-x="1550" 
d="M838 1550l229 297l217 -98l-260 -199h-186zM479 1550l230 297l217 -98l-260 -199h-187zM1389 621q0 -313 -164 -479t-451 -165q-288 0 -450 162t-162 469v826h252v-816q0 -197 96 -303t266 -106t265 102t96 297v826h252v-813z" />
    <glyph glyph-name="uhungarumlaut" unicode="&#x171;" horiz-adv-x="1269" 
d="M340 1219l211 335l217 -100l-248 -235h-180zM688 1219l215 335l217 -100l-252 -235h-180zM528 -23q-180 0 -282 113t-103 303v688h248v-614q1 -127 61 -196t170 -69t178 72t66 197v610h248v-1081h-248v168q-129 -191 -338 -191z" />
    <glyph glyph-name="Uogonek" unicode="&#x172;" horiz-adv-x="1550" 
d="M602 -174q0 80 68 158q-240 28 -374 188t-134 436v826h252v-816q0 -197 96 -303t266 -106t265 102t96 297v826h252v-813q1 -295 -145 -458t-404 -181q-49 -55 -49 -111q0 -88 147 -88v-119q-158 -14 -247 34t-89 128z" />
    <glyph glyph-name="uogonek" unicode="&#x173;" horiz-adv-x="1269" 
d="M528 -23q-180 0 -282 113t-103 303v688h248v-614q1 -127 61 -196t170 -69t178 72t66 197v610h248v-1081h-55q-68 -68 -68 -129q0 -88 148 -88v-119q-158 -14 -247 34t-89 132t82 170h-19v168q-129 -191 -338 -191z" />
    <glyph glyph-name="Wcircumflex" unicode="&#x174;" horiz-adv-x="2285" 
d="M778 1552l248 277h234l247 -277h-209l-157 119l-158 -119h-205zM573 -10l-499 1444h272l342 -1063l352 1067h213l353 -1067l342 1063h264l-500 -1444h-217l-352 1030l-352 -1030h-218z" />
    <glyph glyph-name="wcircumflex" unicode="&#x175;" horiz-adv-x="1763" 
d="M416 -8l-350 1089h253l218 -741l239 745h211l242 -745l221 741h248l-355 -1089h-221l-241 739l-244 -739h-221zM528 1219l238 301h229l240 -301h-197l-159 137l-158 -137h-193z" />
    <glyph glyph-name="Ycircumflex" unicode="&#x176;" horiz-adv-x="1466" 
d="M369 1550l247 277h234l248 -277h-209l-158 119l-158 -119h-204zM606 0v565l-569 869h297l401 -635l406 635h289l-570 -863v-571h-254z" />
    <glyph glyph-name="ycircumflex" unicode="&#x177;" horiz-adv-x="1220" 
d="M258 1219l238 301h229l240 -301h-197l-160 137l-157 -137h-193zM375 -334q-133 0 -254 66l84 184q76 -41 137 -41t96 28t66 97l-451 1081h264l308 -802l280 802h258l-430 -1112q-65 -167 -145 -235t-213 -68z" />
    <glyph glyph-name="Ydieresis" unicode="&#x178;" horiz-adv-x="1466" 
d="M395 1550v230h256v-230h-256zM817 1550v230h254v-230h-254zM606 0v565l-569 869h297l401 -635l406 635h289l-570 -863v-571h-254z" />
    <glyph glyph-name="Zacute" unicode="&#x179;" horiz-adv-x="1437" 
d="M631 1552l229 297l225 -98l-262 -199h-192zM133 0v186l846 1024h-819v224h1147v-187l-846 -1024h846v-223h-1174z" />
    <glyph glyph-name="zacute" unicode="&#x17a;" horiz-adv-x="1146" 
d="M106 0v170l625 709h-602v202h918v-170l-625 -708h625v-203h-941zM479 1219l213 335l226 -100l-252 -235h-187z" />
    <glyph glyph-name="Zdotaccent" unicode="&#x17b;" horiz-adv-x="1437" 
d="M133 0v186l846 1024h-819v224h1147v-187l-846 -1024h846v-223h-1174zM600 1552v230h262v-230h-262z" />
    <glyph glyph-name="zdotaccent" unicode="&#x17c;" horiz-adv-x="1146" 
d="M449 1219v243h258v-243h-258zM106 0v170l625 709h-602v202h918v-170l-625 -708h625v-203h-941z" />
    <glyph glyph-name="Zcaron" unicode="&#x17d;" horiz-adv-x="1437" 
d="M133 0v186l846 1024h-819v224h1147v-187l-846 -1024h846v-223h-1174zM1096 1829l-248 -277h-234l-247 277h208l158 -117l158 117h205z" />
    <glyph glyph-name="zcaron" unicode="&#x17e;" horiz-adv-x="1146" 
d="M106 0v170l625 709h-602v202h918v-170l-625 -708h625v-203h-941zM932 1520l-240 -301h-229l-238 301h197l158 -138l159 138h193z" />
    <glyph glyph-name="florin" unicode="&#x192;" horiz-adv-x="1079" 
d="M199 -10q-74 0 -115 10v203q43 -6 82 -6q127 0 149 137l72 395h-164v207h199l37 190q31 160 113 239q83 79 245 79q109 0 189 -23v-209q-188 46 -252 -16q-39 -37 -56 -121l-24 -139h260v-207h-297l-78 -432q-29 -163 -115 -235t-245 -72z" />
    <glyph glyph-name="Aringacute" unicode="&#x1fa;" horiz-adv-x="1617" 
d="M678 1527q0 -50 37 -85t94 -35t95 35t38 85t-38 84t-95 34t-94 -34t-37 -84zM696 1800l240 264l223 -100l-268 -164h-195zM559 569h494l-248 574zM565 1521q0 99 72 160t172 61t172 -60q72 -62 72 -161t-90 -163l593 -1358h-266l-145 346h-678l-148 -346h-258l592 1358
q-88 64 -88 163z" />
    <glyph glyph-name="aringacute" unicode="&#x1fb;" horiz-adv-x="1202" 
d="M465 1444q0 -57 40 -97t97 -40t97 40t40 97t-40 97t-97 40t-97 -40t-40 -97zM365 1444q0 94 69 162q70 68 168 68t168 -68t70 -162t-70 -162t-168 -68t-168 68q-69 68 -69 162zM823 391v62q-111 43 -238 43t-193 -45t-64 -123v-4q0 -74 59 -117t167 -43t188 64t81 163z
M1063 0h-246v133q-131 -156 -350 -156q-161 -1 -273 89t-112 245v4q0 175 121 265t298 90t318 -45v20q0 231 -275 231q-138 0 -300 -67l-68 199q200 90 424 90t344 -119t119 -338v-641zM502 1739l225 282l221 -100l-258 -182h-188z" />
    <glyph glyph-name="AEacute" unicode="&#x1fc;" horiz-adv-x="2140" 
d="M997 569v645h-41l-360 -645h401zM2015 1434v-226h-766v-372h674v-226h-674v-385h776v-225h-1028v346h-522l-190 -346h-260l800 1434h1190zM1171 1552l230 297l225 -98l-262 -199h-193z" />
    <glyph glyph-name="aeacute" unicode="&#x1fd;" horiz-adv-x="1949" 
d="M532 164q170 0 320 139q-31 78 -39 156q-105 37 -231 37t-190 -45t-64 -123v-4q0 -74 58 -117t146 -43zM1338 901q-116 0 -192 -79t-93 -206h557q-12 125 -84 205t-188 80zM492 -23q-176 1 -293 89t-117 245v4q0 175 120 265t295 90t316 -45v20q0 231 -264 232
q-143 0 -305 -68l-68 199q201 90 408 90q276 0 379 -178q141 184 381 184t374 -167q135 -167 135 -415q0 -45 -2 -69h-794q20 -129 104 -202t205 -73q162 0 295 129l145 -129q-172 -203 -438 -203t-424 185q-219 -183 -452 -183zM868 1219l213 335l226 -100l-252 -235h-187z
" />
    <glyph glyph-name="Oslashacute" unicode="&#x1fe;" horiz-adv-x="1740" 
d="M768 1573l229 297l226 -98l-262 -199h-193zM872 203q211 0 350 148q138 148 138 362v4q0 174 -94 305l-656 -737q115 -82 262 -82zM868 1231q-211 -1 -349 -149t-138 -361v-4q0 -174 94 -305l655 737q-115 82 -262 82zM868 -25q-233 0 -417 123l-99 -108h-248l203 227
q-186 205 -186 496v4q0 307 213 524t538 217q233 0 418 -123l99 109h247l-202 -230q186 -203 186 -493v-4q0 -307 -213 -525t-539 -217z" />
    <glyph glyph-name="oslashacute" unicode="&#x1ff;" horiz-adv-x="1345" 
d="M573 1219l213 335l226 -100l-252 -235h-187zM674 186q150 0 242 102t92 247v4q0 100 -52 188l-448 -494q72 -47 166 -47zM670 893q-148 0 -240 -101t-92 -249v-4q0 -103 51 -187l447 492q-76 49 -166 49zM670 -25q-170 0 -310 88l-69 -73h-225l163 182q-133 156 -133 363
v4q0 237 166 401t412 164q172 0 309 -88l72 78h225q-104 -117 -166 -187q135 -152 135 -364v-4q1 -233 -165 -399t-414 -165z" />
    <glyph glyph-name="Scommaaccent" unicode="&#x218;" horiz-adv-x="1310" 
d="M686 -20q-342 0 -598 229l152 180q215 -186 452 -186q117 0 186 49t68 131v4q0 80 -65 127t-223 85t-240 69q-190 72 -243 199q-30 71 -30 167v4q-1 184 137 300t353 116q295 0 520 -180l-135 -191q-199 147 -389 148q-105 0 -169 -48t-65 -122v-4q0 -84 69 -130
q69 -45 289 -99q219 -54 331 -149t112 -267v-4q0 -199 -141 -314q-142 -114 -371 -114zM543 -344v207h241v-176q0 -238 -258 -250l-16 80q153 20 143 139h-110z" />
    <glyph glyph-name="scommaaccent" unicode="&#x219;" horiz-adv-x="1026" 
d="M526 -20q-254 0 -458 161l110 168q176 -133 354 -133q80 0 124 32t44 85v4q0 78 -217 143l-24 9q-250 67 -311 188q-28 55 -27 129v4q0 150 109 240q110 90 276 90q211 0 397 -123l-98 -176q-168 102 -305 102q-72 0 -112 -30t-40 -78v-4q0 -49 54 -79t114 -48t62 -20
q2 -1 6 -2q119 -30 232 -105q112 -77 112 -213v-5q0 -163 -113 -251t-289 -88zM397 -338v207h242v-176q0 -238 -258 -250l-16 80q79 10 113 45t30 94h-111z" />
    <glyph glyph-name="schwa" unicode="&#x259;" horiz-adv-x="1236" 
d="M612 180q116 0 191 79q76 79 92 206h-555q12 -125 84 -205t188 -80zM586 1106q238 0 396 -157t159 -404v-4q0 -236 -150 -400q-149 -164 -387 -164t-374 167t-136 415q0 20 4 70h795q-21 129 -105 201t-206 73q-160 0 -293 -129l-146 129q169 203 443 203z" />
    <glyph glyph-name="circumflex" unicode="&#x2c6;" 
d="M160 1219l237 301h230l239 -301h-196l-160 137l-158 -137h-192z" />
    <glyph glyph-name="caron" unicode="&#x2c7;" 
d="M866 1520l-239 -301h-230l-237 301h196l158 -138l160 138h192z" />
    <glyph glyph-name="breve" unicode="&#x2d8;" 
d="M512 1214q-150 0 -245 79t-105 218h170q41 -125 180 -125t180 125h172q-12 -139 -107 -218t-245 -79z" />
    <glyph glyph-name="dotaccent" unicode="&#x2d9;" 
d="M383 1219v243h258v-243h-258z" />
    <glyph glyph-name="ring" unicode="&#x2da;" 
d="M375 1444q0 -57 40 -97t97 -40t97 40t40 97t-40 97t-97 40t-97 -40t-40 -97zM274 1444q0 94 70 162t168 68t168 -68t70 -162t-70 -162t-168 -68t-168 68t-70 162z" />
    <glyph glyph-name="ogonek" unicode="&#x2db;" 
d="M373 -166q0 88 106 191l166 -11q-84 -78 -84 -143q0 -88 148 -88v-119q-158 -14 -247 34t-89 136z" />
    <glyph glyph-name="tilde" unicode="&#x2dc;" 
d="M340 1495q76 0 176 -41t138 -41t61 23t47 80l137 -41q-35 -131 -87 -193t-128 -63q-76 0 -176 41q-100 40 -138 40t-61 -22q-22 -23 -47 -80l-137 43q35 131 87 193t128 61z" />
    <glyph glyph-name="hungarumlaut" unicode="&#x2dd;" 
d="M129 1219l211 335l217 -100l-248 -235h-180zM477 1219l215 335l217 -100l-252 -235h-180z" />
    <glyph glyph-name="commaaccent" unicode="&#x326;" 
d="M391 -338v207h242v-176q0 -238 -258 -250l-17 80q152 20 144 139h-111z" />
    <glyph glyph-name="Wgrave" unicode="&#x1e80;" horiz-adv-x="2285" 
d="M573 -10l-499 1444h272l342 -1063l352 1067h213l353 -1067l342 1063h264l-500 -1444h-217l-352 1030l-352 -1030h-218zM1012 1849l231 -297h-194l-261 199z" />
    <glyph glyph-name="wgrave" unicode="&#x1e81;" horiz-adv-x="1763" 
d="M793 1219l-252 235l225 100l213 -335h-186zM416 -8l-350 1089h253l218 -741l239 745h211l242 -745l221 741h248l-355 -1089h-221l-241 739l-244 -739h-221z" />
    <glyph glyph-name="Wacute" unicode="&#x1e82;" horiz-adv-x="2285" 
d="M573 -10l-499 1444h272l342 -1063l352 1067h213l353 -1067l342 1063h264l-500 -1444h-217l-352 1030l-352 -1030h-218zM1040 1552l230 297l225 -98l-262 -199h-193z" />
    <glyph glyph-name="wacute" unicode="&#x1e83;" horiz-adv-x="1763" 
d="M416 -8l-350 1089h253l218 -741l239 745h211l242 -745l221 741h248l-355 -1089h-221l-241 739l-244 -739h-221zM780 1219l213 335l226 -100l-252 -235h-187z" />
    <glyph glyph-name="Wdieresis" unicode="&#x1e84;" horiz-adv-x="2285" 
d="M573 -10l-499 1444h272l342 -1063l352 1067h213l353 -1067l342 1063h264l-500 -1444h-217l-352 1030l-352 -1030h-218zM805 1552v230h256v-230h-256zM1227 1552v230h254v-230h-254z" />
    <glyph glyph-name="wdieresis" unicode="&#x1e85;" horiz-adv-x="1763" 
d="M416 -8l-350 1089h253l218 -741l239 745h211l242 -745l221 741h248l-355 -1089h-221l-241 739l-244 -739h-221zM555 1219v243h252v-243h-252zM954 1219v243h252v-243h-252z" />
    <glyph glyph-name="Ygrave" unicode="&#x1ef2;" horiz-adv-x="1466" 
d="M602 1847l232 -297h-195l-260 199zM606 0v565l-569 869h297l401 -635l406 635h289l-570 -863v-571h-254z" />
    <glyph glyph-name="ygrave" unicode="&#x1ef3;" horiz-adv-x="1220" 
d="M522 1219l-252 235l226 100l213 -335h-187zM375 -334q-133 0 -254 66l84 184q76 -41 137 -41t96 28t66 97l-451 1081h264l308 -802l280 802h258l-430 -1112q-65 -167 -145 -235t-213 -68z" />
    <glyph glyph-name="enspace" unicode="&#x2002;" 
 />
    <glyph glyph-name="emspace" unicode="&#x2003;" horiz-adv-x="2048" 
 />
    <glyph glyph-name="threeperemspace" unicode="&#x2004;" horiz-adv-x="681" 
 />
    <glyph glyph-name="fourperemspace" unicode="&#x2005;" horiz-adv-x="512" 
 />
    <glyph glyph-name="thinspace" unicode="&#x2009;" horiz-adv-x="272" 
 />
    <glyph glyph-name="hairspace" unicode="&#x200a;" horiz-adv-x="153" 
 />
    <glyph glyph-name="endash" unicode="&#x2013;" horiz-adv-x="1081" 
d="M115 510v235h852v-235h-852z" />
    <glyph glyph-name="emdash" unicode="&#x2014;" horiz-adv-x="1839" 
d="M115 510v235h1609v-235h-1609z" />
    <glyph glyph-name="quoteleft" unicode="&#x2018;" horiz-adv-x="550" 
d="M129 864v240q0 166 78 247t237 93l27 -107q-188 -35 -174 -190h104v-283h-272z" />
    <glyph glyph-name="quoteright" unicode="&#x2019;" horiz-adv-x="550" 
d="M150 1153v281h272v-240q0 -166 -78 -247t-238 -93l-26 107q188 35 174 192h-104z" />
    <glyph glyph-name="quotesinglbase" unicode="&#x201a;" horiz-adv-x="550" 
d="M139 0v281h273v-238q0 -166 -78 -247t-238 -93l-26 104q188 37 174 193h-105z" />
    <glyph glyph-name="quotedblleft" unicode="&#x201c;" horiz-adv-x="1026" 
d="M129 864v240q0 166 78 247t237 93l27 -107q-188 -35 -174 -190h104v-283h-272zM604 864v240q0 166 78 247t238 93l26 -107q-188 -35 -176 -190h107v-283h-273z" />
    <glyph glyph-name="quotedblright" unicode="&#x201d;" horiz-adv-x="1026" 
d="M150 1153v281h272v-240q0 -166 -78 -247t-238 -93l-26 107q188 35 174 192h-104zM625 1153v281h272v-240q1 -166 -77 -247t-238 -93l-27 107q188 35 174 192h-104z" />
    <glyph glyph-name="quotedblbase" unicode="&#x201e;" horiz-adv-x="1026" 
d="M139 0v281h273v-238q0 -166 -78 -247t-238 -93l-26 104q188 37 174 193h-105zM614 0v281h273v-238q0 -166 -78 -247t-238 -93l-26 104q188 37 174 193h-105z" />
    <glyph glyph-name="dagger" unicode="&#x2020;" horiz-adv-x="839" 
d="M346 487l19 564l-250 -19v146l247 -19l-24 275h164l-25 -275l248 19v-146l-250 19l19 -564h-148z" />
    <glyph glyph-name="daggerdbl" unicode="&#x2021;" horiz-adv-x="880" 
d="M358 0l25 274l-248 -18v145l248 -18l-16 334l16 334l-248 -19v146l248 -19l-25 275h164l-24 -275l247 19v-146l-247 19l16 -334l-16 -334l247 18v-145l-247 18l24 -274h-164z" />
    <glyph glyph-name="bullet" unicode="&#x2022;" horiz-adv-x="1005" 
d="M503 432q-120 0 -205 84t-85 203v4q0 119 86 203t204 84t204 -84t86 -203v-4q0 -119 -85 -203t-205 -84z" />
    <glyph glyph-name="ellipsis" unicode="&#x2026;" horiz-adv-x="1622" 
d="M139 0v274h267v-274h-267zM678 0v274h266v-274h-266zM1217 0v274h266v-274h-266z" />
    <glyph glyph-name="perthousand" unicode="&#x2030;" horiz-adv-x="2514" 
d="M1147 350q0 -88 45 -148t114 -61q68 -1 110 59t42 146v4q0 88 -45 148t-114 61q-69 0 -111 -59t-41 -146v-4zM1923 350q0 -88 45 -148t114 -61q68 -1 110 59t42 146v4q0 88 -45 148t-113 61q-68 0 -111 -59q-42 -59 -42 -146v-4zM281 1083q1 -89 45 -149t113 -60t111 60
t42 145v4q0 89 -45 149t-114 60t-111 -59t-41 -146v-4zM1302 -16q-148 0 -243 105q-94 105 -94 257v4q0 152 95 260q96 108 244 107q148 1 242 -105t94 -258v-4q0 -152 -95 -259t-243 -107zM2077 -16q-150 0 -243 105t-93 257v4q0 154 95 260q96 106 244 106t242 -104
q94 -106 95 -258v-4q0 -152 -95 -259t-245 -107zM244 0l1048 1434h203l-1049 -1434h-202zM436 717q-148 0 -243 105q-94 105 -95 257v4q0 151 96 259t243 108q149 0 243 -105t94 -258v-4q0 -152 -95 -259t-243 -107z" />
    <glyph glyph-name="guilsinglleft" unicode="&#x2039;" horiz-adv-x="724" 
d="M430 84l-340 448v17l340 450l188 -96l-270 -360l270 -363z" />
    <glyph glyph-name="guilsinglright" unicode="&#x203a;" horiz-adv-x="724" 
d="M297 84l-188 94l270 361l-270 362l188 98l338 -450v-17z" />
    <glyph glyph-name="fraction" unicode="&#x2044;" horiz-adv-x="921" 
d="M-98 0l514 745l458 689h146l-514 -746l-459 -688h-145z" />
    <glyph glyph-name="Euro" unicode="&#x20ac;" horiz-adv-x="1474" 
d="M889 -25q-223 1 -380 133t-216 353h-187v174h158q-2 27 -2 78v4q0 63 4 92h-160v174h193q63 213 217 344t346 131t310 -70t208 -200l-190 -141q-70 96 -142 141t-176 45t-187 -67t-126 -183h440v-174h-479q-4 -53 -4 -88v-4q0 -29 4 -82h479v-174h-442q43 -121 129 -191
t194 -70t177 48q70 47 147 147l180 -131q-96 -139 -214 -214t-281 -75z" />
    <glyph glyph-name="published" unicode="&#x2117;" horiz-adv-x="1699" 
d="M737 721h150q74 0 117 36t43 95v4q0 61 -42 95t-118 34h-150v-264zM586 342v778h313q137 0 219 -70t82 -192v-4q0 -127 -91 -197t-226 -69h-146v-246h-151zM186 713q0 -276 190 -470t473 -194q282 0 473 196t191 472v4q0 276 -190 470q-190 193 -472 193t-473 -196
t-192 -471v-4zM848 -25q-309 0 -524 216t-215 522v4q0 305 217 523t526 218t524 -216t215 -521v-4q0 -305 -217 -523t-526 -219z" />
    <glyph glyph-name="servicemark" unicode="&#x2120;" horiz-adv-x="1443" 
d="M729 803v631h129l191 -299l190 299h125v-631h-117v448l-194 -303h-13l-194 303v-448h-117zM344 791q-162 0 -283 104l66 82q113 -88 223 -88q57 1 90 23t33 58t-32 56t-134 45t-159 64q-56 39 -56 121t65 136t169 54q145 0 245 -84l-63 -84q-96 66 -184 65q-53 1 -84 -21
t-31 -56t33 -56q33 -20 133 -43t157 -65q58 -42 58 -125q0 -82 -68 -134t-178 -52z" />
    <glyph glyph-name="trademark" unicode="&#x2122;" horiz-adv-x="1413" 
d="M248 803v520h-195v111h510v-111h-194v-520h-121zM698 803v631h129l191 -299l190 299h125v-631h-116v448l-195 -303h-12l-195 303v-448h-117z" />
    <glyph glyph-name="minus" unicode="&#x2212;" horiz-adv-x="1298" 
d="M1159 606h-1020v232h1020v-232z" />
    <glyph glyph-name="Q.alt" horiz-adv-x="1740" 
d="M872 207q211 0 348 146q136 146 136 360v4q0 213 -138 361t-350 148t-347 -146q-136 -146 -136 -359v-4q0 -213 138 -361t349 -149zM868 -25q-326 0 -536 215t-211 523v4q0 307 213 524q212 217 538 217t537 -215t211 -522v-4q0 -162 -65 -307t-181 -248l359 -352v-17
h-369l-240 227q-123 -45 -256 -45z" />
    <glyph glyph-name="a.alt" horiz-adv-x="1374" 
d="M662 193q129 0 221 97t92 249v4q0 152 -92 249t-222 97q-131 0 -221 -94t-90 -252v-4q0 -154 92 -250t220 -96zM613 -23q-213 0 -363 153t-150 409v4q0 257 148 409t363 152q214 0 360 -191v168h248v-1081h-248v180q-144 -203 -358 -203z" />
    <glyph glyph-name="aacute.alt" horiz-adv-x="1374" 
d="M662 193q129 0 221 97t92 249v4q0 152 -92 249t-222 97q-131 0 -221 -94t-90 -252v-4q0 -154 92 -250t220 -96zM613 -23q-213 0 -363 153t-150 409v4q0 257 148 409t363 152q214 0 360 -191v168h248v-1081h-248v180q-144 -203 -358 -203zM600 1219l213 335l225 -100
l-252 -235h-186z" />
    <glyph glyph-name="abreve.alt" horiz-adv-x="1374" 
d="M698 1214q-150 0 -244 79t-106 218h170q41 -125 180 -125t181 125h172q-11 -139 -107 -218t-246 -79zM662 193q129 0 221 97t92 249v4q0 152 -92 249t-222 97q-131 0 -221 -94t-90 -252v-4q0 -154 92 -250t220 -96zM613 -23q-213 0 -363 153t-150 409v4q0 257 148 409
t363 152q214 0 360 -191v168h248v-1081h-248v180q-144 -203 -358 -203z" />
    <glyph glyph-name="acircumflex.alt" horiz-adv-x="1374" 
d="M662 193q129 0 221 97t92 249v4q0 152 -92 249t-222 97q-131 0 -221 -94t-90 -252v-4q0 -154 92 -250t220 -96zM613 -23q-213 0 -363 153t-150 409v4q0 257 148 409t363 152q214 0 360 -191v168h248v-1081h-248v180q-144 -203 -358 -203zM346 1219l238 301h229l240 -301
h-197l-160 137l-157 -137h-193z" />
    <glyph glyph-name="adieresis.alt" horiz-adv-x="1374" 
d="M662 193q129 0 221 97t92 249v4q0 152 -92 249t-222 97q-131 0 -221 -94t-90 -252v-4q0 -154 92 -250t220 -96zM613 -23q-213 0 -363 153t-150 409v4q0 257 148 409t363 152q214 0 360 -191v168h248v-1081h-248v180q-144 -203 -358 -203zM373 1219v243h252v-243h-252z
M772 1219v243h252v-243h-252z" />
    <glyph glyph-name="agrave.alt" horiz-adv-x="1374" 
d="M610 1219l-252 235l226 100l213 -335h-187zM662 193q129 0 221 97t92 249v4q0 152 -92 249t-222 97q-131 0 -221 -94t-90 -252v-4q0 -154 92 -250t220 -96zM613 -23q-213 0 -363 153t-150 409v4q0 257 148 409t363 152q214 0 360 -191v168h248v-1081h-248v180
q-144 -203 -358 -203z" />
    <glyph glyph-name="amacron.alt" horiz-adv-x="1374" 
d="M350 1241v180h697v-180h-697zM662 193q129 0 221 97t92 249v4q0 152 -92 249t-222 97q-131 0 -221 -94t-90 -252v-4q0 -154 92 -250t220 -96zM613 -23q-213 0 -363 153t-150 409v4q0 257 148 409t363 152q214 0 360 -191v168h248v-1081h-248v180q-144 -203 -358 -203z
" />
    <glyph glyph-name="aogonek.alt" horiz-adv-x="1374" 
d="M662 193q129 0 221 97t92 249v4q0 152 -92 249t-222 97q-131 0 -221 -94t-90 -252v-4q0 -154 92 -250t220 -96zM907 -170q0 84 82 170h-18v180q-143 -203 -357 -203t-364 153t-150 409v4q0 257 148 409t363 152q214 0 360 -191v168h248v-1081h-56q-68 -68 -67 -129
q0 -88 147 -88v-119q-158 -14 -247 34t-89 132z" />
    <glyph glyph-name="aring.alt" horiz-adv-x="1374" 
d="M662 193q129 0 221 97t92 249v4q0 152 -92 249t-222 97q-131 0 -221 -94t-90 -252v-4q0 -154 92 -250t220 -96zM613 -23q-213 0 -363 153t-150 409v4q0 257 148 409t363 152q214 0 360 -191v168h248v-1081h-248v180q-144 -203 -358 -203zM561 1444q0 -57 40 -97t97 -40
t98 40q40 40 40 97t-40 97t-98 40t-97 -40q-40 -40 -40 -97zM461 1444q0 94 69 162q70 68 168 68t168 -68t70 -162t-70 -162t-168 -68t-168 68q-69 68 -69 162z" />
    <glyph glyph-name="aring.alt2" horiz-adv-x="1202" 
d="M823 391v62q-111 43 -238 43t-193 -45t-64 -123v-4q0 -74 59 -117t167 -43t188 64t81 163zM467 1234q0 -56 40 -96t96 -40t97 40t41 96t-41 97t-97 41t-96 -41t-40 -97zM1063 641v-641h-246v133q-131 -156 -350 -156q-161 -1 -273 89t-112 245v4q0 175 121 265t298 90
t318 -45v20q0 231 -275 231q-138 0 -300 -67l-68 199q139 61 252 77q-61 66 -61 155t69 157q70 67 168 67t168 -68t70 -161q0 -94 -76 -160q297 -80 297 -434z" />
    <glyph glyph-name="aringacute.alt" horiz-adv-x="1374" 
d="M662 193q129 0 221 97t92 249v4q0 152 -92 249t-222 97q-131 0 -221 -94t-90 -252v-4q0 -154 92 -250t220 -96zM613 -23q-213 0 -363 153t-150 409v4q0 257 148 409t363 152q214 0 360 -191v168h248v-1081h-248v180q-144 -203 -358 -203zM561 1444q0 -57 40 -97t97 -40
t98 40q40 40 40 97t-40 97t-98 40t-97 -40q-40 -40 -40 -97zM461 1444q0 94 69 162q70 68 168 68t168 -68t70 -162t-70 -162t-168 -68t-168 68q-69 68 -69 162zM598 1739l225 282l221 -100l-260 -182h-186z" />
    <glyph glyph-name="aringacute.alt2" horiz-adv-x="1202" 
d="M823 391v62q-111 43 -238 43t-193 -45t-64 -123v-4q0 -74 59 -117t167 -43t188 64t81 163zM467 1234q0 -56 40 -96t96 -40t97 40t41 96t-41 97t-97 41t-96 -41t-40 -97zM1063 641v-641h-246v133q-131 -156 -350 -156q-161 -1 -273 89t-112 245v4q0 175 121 265t298 90
t318 -45v20q0 231 -275 231q-138 0 -300 -67l-68 199q139 61 252 77q-61 66 -61 155t69 157q70 67 168 67t168 -68t70 -161q0 -94 -76 -160q297 -80 297 -434zM502 1536l225 283l221 -101l-258 -182h-188z" />
    <glyph glyph-name="atilde.alt" horiz-adv-x="1374" 
d="M534 1495q76 0 176 -41t138 -41q36 0 60 23t48 80l138 -41q-35 -131 -87 -193t-128 -63q-77 0 -177 41q-100 40 -137 40t-60 -22t-48 -80l-138 43q35 131 87 193t128 61zM662 193q129 0 221 97t92 249v4q0 152 -92 249t-222 97q-131 0 -221 -94t-90 -252v-4
q0 -154 92 -250t220 -96zM613 -23q-213 0 -363 153t-150 409v4q0 257 148 409t363 152q214 0 360 -191v168h248v-1081h-248v180q-144 -203 -358 -203z" />
    <glyph glyph-name="three.alt" horiz-adv-x="1249" 
d="M637 -25q-338 0 -557 250l174 162q164 -184 387 -184q117 0 187 56t69 151v4q0 98 -83 150t-232 52h-154v213h160q122 1 196 57t74 148v4q0 86 -66 140q-67 53 -182 53q-172 0 -325 -180l-176 143q100 129 219 197t286 67q221 0 358 -107q136 -108 136 -276v-4
q0 -231 -213 -336q252 -96 252 -323v-4q0 -188 -138 -311q-139 -122 -372 -122z" />
    <glyph glyph-name="registered.alt" horiz-adv-x="1699" 
d="M698 748h193q72 0 113 32t40 88v4q0 57 -40 90q-41 32 -113 31h-193v-245zM551 350v776h346q154 0 236 -82q63 -63 63 -163v-4q0 -89 -48 -149t-132 -85l209 -293h-176l-189 268h-162v-268h-147zM186 713q0 -276 190 -470t473 -194q282 0 473 196t191 472v4
q0 276 -190 470q-190 193 -472 193t-473 -196t-192 -471v-4zM848 -25q-309 0 -524 216t-215 522v4q0 305 217 523t526 218t524 -216t215 -521v-4q0 -305 -217 -523t-526 -219z" />
    <glyph glyph-name="NUL" horiz-adv-x="0" 
 />
    <glyph glyph-name="hfjslug" horiz-adv-x="1421" 
d="M872 580q-33 0 -32 34q0 12 9 24t23 11q14 0 24 -11t9 -24q0 -34 -33 -34zM997 612h-22v35h22q20 0 21 -16q-1 -19 -21 -19zM659 823q-33 0 -33 45t33 78l41 -80q-16 -43 -41 -43zM645 1056q0 30 29 29q27 -1 27 -35t-31 -69q-25 45 -25 75zM494 662l28 -97h17l22 70h2
l23 -70h16l29 97h-17l-20 -72h-2l-23 72h-14l-23 -72h-2l-20 72h-16zM270 662v-95h17v66l51 -66h14v95h-16v-66l-51 66h-15zM395 662v-95h70v15h-53v26h47v15h-47v24h53v15h-70zM750 567h16v35l37 60h-19l-26 -46l-27 46h-18l37 -60v-35zM872 565q20 1 34 15q33 33 1 68
q-15 16 -35 16t-34 -16t-14 -34q0 -20 14 -34t34 -15zM1034 631q0 31 -35 31h-41v-95h17v31h24l21 -31h18l-24 35q20 8 20 29zM1071 662v-95h16v25l17 16l31 -41h20l-41 54l37 41h-21l-40 -50h-3v50h-16zM729 1047q0 63 -55 63q-25 0 -41 -18q-35 -39 12 -125
q-47 -37 -47 -83q0 -91 59 -89q39 0 60 49h2l24 -49l25 12l-35 65q13 29 27 80l-27 6q-8 -37 -16 -61h-2l-33 64q47 43 47 86zM985 799q63 0 64 73v281h-33v-281q0 -45 -33 -45q-16 0 -41 11v-31q20 -8 43 -8zM377 1153v-352h31v162h96v-162h31v352h-31v-162h-96v162h-31z
M819 1153v-352h31v160h78v28h-78v135h88v29h-119zM1319 -410h-426l-16 29h-334l-17 -29h-424v621q29 0 48 19q18 19 18 46q0 26 -20 46t-46 20v1135h205l62 161h684l59 -161h207v-1887z" />
    <glyph glyph-name="i.dot" horiz-adv-x="585" 
d="M170 0v1081h248v-1081h-248zM160 1247v236h266v-236h-266z" />
    <glyph glyph-name="caron.alt" 
d="M633 1495v-6l-115 -383h-102l24 389h193z" />
    <glyph glyph-name="acute.cap" 
d="M322 1552l229 297l225 -98l-262 -199h-192z" />
    <glyph glyph-name="hungarumlaut.cap" 
d="M473 1552l229 297l218 -98l-261 -199h-186zM115 1552l229 297l217 -98l-260 -199h-186z" />
    <glyph glyph-name="grave.cap" 
d="M469 1849l231 -297h-194l-260 199z" />
    <glyph glyph-name="circumflex.cap" 
d="M147 1552l248 277h234l248 -277h-209l-158 119l-158 -119h-205z" />
    <glyph glyph-name="caron.cap" 
d="M877 1829l-248 -277h-234l-248 277h209l158 -117l158 117h205z" />
    <glyph glyph-name="breve.cap" 
d="M512 1548q-150 0 -246 73t-108 202h176q39 -103 178 -103t178 103h176q-12 -129 -108 -202t-246 -73z" />
    <glyph glyph-name="tilde.cap" 
d="M657 1747q37 1 61 23t46 75l139 -41q-37 -127 -89 -189q-52 -63 -126 -63t-180 40q-104 40 -141 40t-61 -22q-23 -23 -48 -78l-137 43q35 127 87 189t128 62t180 -39q104 -40 141 -40z" />
    <glyph glyph-name="macron.cap" 
d="M145 1575v184h736v-184h-736z" />
    <glyph glyph-name="dieresis.cap" 
d="M174 1552v230h256v-230h-256zM596 1552v230h254v-230h-254z" />
    <glyph glyph-name="dotaccent.cap" 
d="M381 1552v230h262v-230h-262z" />
    <glyph glyph-name="ring.cap" 
d="M381 1764q0 -50 37 -85t94 -35t95 36q38 34 38 84t-38 85t-95 35t-94 -35t-37 -85zM268 1764q0 92 72 154t172 62t172 -61t72 -155t-72 -154q-72 -62 -172 -62t-172 62t-72 154z" />
    </font>
</defs>
</svg>
