<?xml version="1.0" standalone="no"?>
<!DOCTYPE svg PUBLIC "-//W3C//DTD SVG 1.1//EN" "http://www.w3.org/Graphics/SVG/1.1/DTD/svg11.dtd" >
<svg xmlns="http://www.w3.org/2000/svg">
<metadata>
Created by FontPrep 20130207 at Wed Dec 14 14:35:25 2016
 By Denis Valcke
Copyright (C) 2000, 2007 Hoefler &#38; Frere-Jones. http://www.typography.com
</metadata>
<defs>
<font id="2612f69d108fca39cb109c03ae310193" horiz-adv-x='1024' >
  <font-face 
    font-family="Gotham-Thin"
    font-weight="250"
    font-stretch="normal"
    units-per-em="2048"
    panose-1="0 0 0 0 0 0 0 0 0 0"
    ascent="1638"
    descent="-410"
    x-height="1024"
    cap-height="1434"
    bbox="-53 -410 2275 1982"
    underline-thickness="102"
    underline-position="-102"
    unicode-range="U+0020-FB04"
  />
<missing-glyph 
d="M512 492l-367 -799h734zM922 1384l-353 -770l353 -770v1540zM102 -156l353 770l-353 770v-1540zM145 1536l367 -799l367 799h-734zM0 -410v2048h1024v-2048h-1024z" />
    <glyph glyph-name="f_f" unicode="ff" horiz-adv-x="1331" 
d="M262 0v985h-162v39h162v147q0 175 78 253t201 77q80 0 143 -28v-43q-61 29 -143 28q-236 0 -236 -295v-139h375v-39h-375v-985h-43zM928 0v985h-162v39h162v147q0 175 78 253t200 77q80 0 144 -28v-43q-61 29 -144 28q-236 0 -235 -295v-139h375v-39h-375v-985h-43z" />
    <glyph glyph-name="fi" unicode="fi" horiz-adv-x="1114" 
d="M858 1317v117h64v-117h-64zM868 0v1024h43v-1024h-43zM262 0v985h-162v39h162v147q0 175 78 253t201 77q80 0 143 -28v-43q-61 29 -143 28q-236 0 -236 -295v-139h375v-39h-375v-985h-43z" />
    <glyph glyph-name="fl" unicode="fl" horiz-adv-x="1114" 
d="M868 0v1495h43v-1495h-43zM262 0v985h-162v39h162v147q0 175 78 253t201 77q80 0 143 -28v-43q-61 29 -143 28q-236 0 -236 -295v-139h375v-39h-375v-985h-43z" />
    <glyph glyph-name="f_f_i" unicode="ffi" horiz-adv-x="1779" 
d="M1524 1317v117h63v-117h-63zM1534 0v1024h43v-1024h-43zM262 0v985h-162v39h162v147q0 175 78 253t201 77q80 0 143 -28v-43q-61 29 -143 28q-236 0 -236 -295v-139h375v-39h-375v-985h-43zM928 0v985h-162v39h162v147q0 175 78 253t200 77q80 0 144 -28v-43
q-61 29 -144 28q-236 0 -235 -295v-139h375v-39h-375v-985h-43z" />
    <glyph glyph-name="f_f_l" unicode="ffl" horiz-adv-x="1779" 
d="M1534 0v1495h43v-1495h-43zM262 0v985h-162v39h162v147q0 175 78 253t201 77q80 0 143 -28v-43q-61 29 -143 28q-236 0 -236 -295v-139h375v-39h-375v-985h-43zM928 0v985h-162v39h162v147q0 175 78 253t200 77q80 0 144 -28v-43q-61 29 -144 28q-236 0 -235 -295v-139
h375v-39h-375v-985h-43z" />
    <glyph glyph-name=".notdef" 
d="M512 492l-367 -799h734zM922 1384l-353 -770l353 -770v1540zM102 -156l353 770l-353 770v-1540zM145 1536l367 -799l367 799h-734zM0 -410v2048h1024v-2048h-1024z" />
    <glyph glyph-name=".null" horiz-adv-x="0" 
 />
    <glyph glyph-name="nonmarkingreturn" horiz-adv-x="681" 
 />
    <glyph glyph-name="space" unicode=" " horiz-adv-x="573" 
 />
    <glyph glyph-name="exclam" unicode="!" horiz-adv-x="397" 
d="M162 0v106h74v-106h-74zM176 1434h45v-222l-12 -837h-21l-12 837v222z" />
    <glyph glyph-name="quotedbl" unicode="&#x22;" horiz-adv-x="622" 
d="M246 1434v-4l-99 -517h-24l72 521h51zM508 1434v-4l-98 -517h-25l72 521h51z" />
    <glyph glyph-name="numbersign" unicode="#" horiz-adv-x="1351" 
d="M477 995l-94 -544h489l95 544h-490zM1167 451v-39h-260l-69 -412h-41l69 412h-489l-70 -412h-41l70 412h-236v39h244l92 544h-254v39h260l70 400h41l-70 -400h490l69 400h41l-69 -400h235v-39h-241l-93 -544h252z" />
    <glyph glyph-name="dollar" unicode="$" horiz-adv-x="1273" 
d="M618 1395q-172 1 -278 -91t-107 -225t89 -203t296 -118v637zM1075 368q0 140 -97 211t-321 126v-668h21q178 0 288 95q109 96 109 236zM618 -201v203q-281 23 -481 219l31 31q195 -190 450 -213v676q-223 47 -326 130q-104 83 -104 233t120 251q120 102 310 103v120h39
v-122q238 -8 418 -166l-28 -33q-174 152 -390 162v-648q240 -55 352 -138q111 -83 111 -239t-122 -262t-322 -106h-19v-201h-39z" />
    <glyph glyph-name="percent" unicode="%" horiz-adv-x="1626" 
d="M1200 23q121 0 196 95t74 230v4q0 133 -76 232q-77 98 -198 98t-196 -96t-74 -230v-4q0 -133 76 -231t198 -98zM1516 350q0 -152 -88 -259t-229 -107q-140 0 -229 108t-89 258v4q0 150 89 258t228 109q139 0 228 -109t90 -258v-4zM264 0l1053 1434h45l-1053 -1434h-45z
M700 1077v4q0 133 -76 232q-77 98 -198 98t-196 -96t-74 -230v-4q0 -133 76 -231t198 -98q121 0 196 95q74 95 74 230zM429 713q-140 1 -229 109t-89 257v4q0 151 89 259t228 108t228 -109t89 -258v-4q0 -152 -88 -259t-228 -107z" />
    <glyph glyph-name="ampersand" unicode="&#x26;" horiz-adv-x="1363" 
d="M530 20q260 0 459 252l-457 492q-90 -41 -143 -71t-115 -80q-123 -99 -122 -259v-4q0 -134 105 -232t273 -98zM909 1165v4q0 98 -76 174q-77 76 -201 76t-202 -79t-78 -177v-4q1 -155 191 -348q207 90 287 170t79 184zM530 -20q-184 0 -304 108t-120 262v4q0 174 125 279
q63 53 121 86t150 76q-193 201 -193 362v4q0 115 88 206q89 91 233 91t233 -87t89 -202v-4q0 -115 -85 -201t-296 -182l443 -477q111 156 200 402l39 -13q-94 -254 -213 -418l250 -270l-30 -26l-244 264q-211 -264 -486 -264z" />
    <glyph glyph-name="quotesingle" unicode="'" horiz-adv-x="360" 
d="M246 1434v-4l-99 -517h-24l72 521h51z" />
    <glyph glyph-name="parenleft" unicode="(" horiz-adv-x="798" 
d="M137 588q0 274 136 498t401 376l20 -32q-250 -142 -380 -360t-130 -482t130 -482t380 -360l-20 -33q-264 152 -401 376q-136 225 -136 499z" />
    <glyph glyph-name="parenright" unicode=")" horiz-adv-x="798" 
d="M614 588q0 264 -130 482t-380 360l21 32q264 -152 400 -376q137 -224 137 -498t-136 -498t-401 -377l-21 33q250 141 380 359q130 219 130 483z" />
    <glyph glyph-name="asterisk" unicode="*" horiz-adv-x="880" 
d="M418 831l12 287l-242 -155l-24 38l258 134l-258 133l24 39l242 -156l-12 287h45l-12 -287l241 156l25 -39l-258 -133l258 -134l-25 -38l-241 155l12 -287h-45z" />
    <glyph glyph-name="plus" unicode="+" horiz-adv-x="1228" 
d="M594 231v471h-449v37h449v471h41v-471h448v-37h-448v-471h-41z" />
    <glyph glyph-name="comma" unicode="," horiz-adv-x="335" 
d="M131 0v106h74v-94q1 -84 -17 -122t-59 -56l-14 27q57 27 53 139h-37z" />
    <glyph glyph-name="hyphen" unicode="-" horiz-adv-x="794" 
d="M143 588v43h508v-43h-508z" />
    <glyph glyph-name="period" unicode="." horiz-adv-x="335" 
d="M131 0v106h74v-106h-74z" />
    <glyph glyph-name="slash" unicode="/" horiz-adv-x="964" 
d="M-37 -262l963 1896h47l-963 -1896h-47z" />
    <glyph glyph-name="zero" unicode="0" horiz-adv-x="1454" 
d="M729 16q166 0 291 98t186 256q61 157 62 343v4q0 289 -148 495t-395 205q-166 0 -291 -98t-186 -255t-62 -343v-4q0 -289 148 -495t395 -206zM727 -25q-268 0 -427 215t-159 525v4q0 307 159 523t427 216t427 -215t159 -524v-4q0 -307 -159 -523t-427 -217z" />
    <glyph glyph-name="one" unicode="1" horiz-adv-x="645" 
d="M354 0v1393l-268 -121l-18 39l292 133h37v-1444h-43z" />
    <glyph glyph-name="two" unicode="2" horiz-adv-x="1161" 
d="M82 0v27l649 628q152 147 204 245t52 190q0 133 -107 228q-108 95 -272 95q-289 0 -446 -289l-39 23q166 307 487 307q184 0 303 -104t119 -256v-4q0 -104 -54 -206t-220 -261l-602 -582h897v-41h-971z" />
    <glyph glyph-name="three" unicode="3" horiz-adv-x="1099" 
d="M999 371q1 -170 -135 -283t-314 -113q-334 0 -530 256l37 29q82 -112 206 -178t286 -66t284 100t121 253v4q0 182 -141 269t-391 87h-49l-15 29l557 635h-817v41h877v-33l-553 -631q274 -2 426 -100t151 -295v-4z" />
    <glyph glyph-name="four" unicode="4" horiz-adv-x="1269" 
d="M928 416v958l-793 -958h793zM928 0v375h-844l-12 26l862 1043h37v-1028h235v-41h-235v-375h-43z" />
    <glyph glyph-name="five" unicode="5" horiz-adv-x="1210" 
d="M602 -25q-141 0 -275 66t-214 164l34 31q80 -96 201 -158t256 -62q197 0 322 114t125 292v4q0 170 -126 276t-321 106t-373 -95l-26 14l43 707h764v-41h-723l-37 -623q166 80 368 80t339 -118q136 -118 137 -304v-4q0 -197 -138 -323t-356 -126z" />
    <glyph glyph-name="six" unicode="6" horiz-adv-x="1282" 
d="M223 436q1 -170 133 -295t317 -125t315 125t130 291v4q0 174 -130 288t-317 114t-317 -119t-131 -279v-4zM1163 434q0 -186 -142 -322t-352 -137q-210 0 -356 146q-170 170 -170 551v4q0 344 151 563t413 219q223 0 401 -166l-29 -32q-170 158 -374 157q-240 0 -378 -210
t-139 -531v-4q0 -57 5 -180q16 158 153 272t335 115q198 0 340 -125t142 -316v-4z" />
    <glyph glyph-name="seven" unicode="7" horiz-adv-x="1091" 
d="M106 1393v41h932v-27l-706 -1407h-49l704 1393h-881z" />
    <glyph glyph-name="eight" unicode="8" horiz-adv-x="1282" 
d="M643 20q217 0 347 98t130 244v5q0 151 -140 251t-341 100t-339 -97q-138 -98 -138 -250v-4q0 -145 132 -246t349 -101zM643 760q178 0 299 89t121 232v4q0 139 -123 233t-301 95q-178 0 -299 -92t-121 -231v-5q0 -143 123 -234t301 -91zM641 -20q-240 0 -382 112
t-142 273v4q0 137 106 238t269 132q-147 37 -233 127q-85 90 -85 217v4q0 155 134 261t333 106t333 -105t134 -262v-4q0 -127 -85 -217t-232 -127q162 -35 268 -136t106 -234v-4q0 -161 -142 -273t-382 -112z" />
    <glyph glyph-name="nine" unicode="9" horiz-adv-x="1282" 
d="M164 991q0 -179 130 -293t318 -114t317 118q130 118 130 285v4q0 178 -131 302q-130 124 -316 124t-317 -125t-131 -297v-4zM1139 758q0 -344 -151 -564t-400 -219q-249 0 -426 179l31 32q174 -170 385 -170q240 0 378 210t138 532v4q0 76 -4 174q-16 -164 -152 -279
t-336 -115q-199 0 -341 126q-142 125 -142 321v4q0 195 143 330t352 135t355 -145q170 -170 170 -551v-4z" />
    <glyph glyph-name="colon" unicode=":" horiz-adv-x="344" 
d="M135 0v106h74v-106h-74zM135 918v106h74v-106h-74z" />
    <glyph glyph-name="semicolon" unicode=";" horiz-adv-x="344" 
d="M135 0v106h74v-94q1 -84 -17 -122t-59 -56l-14 27q57 27 53 139h-37zM135 918v106h74v-106h-74z" />
    <glyph glyph-name="less" unicode="&#x3c;" horiz-adv-x="1228" 
d="M1059 229l-942 482v20l942 481v-47l-877 -444l877 -445v-47z" />
    <glyph glyph-name="equal" unicode="=" horiz-adv-x="1228" 
d="M190 461v41h848v-41h-848zM190 942v41h848v-41h-848z" />
    <glyph glyph-name="greater" unicode="&#x3e;" horiz-adv-x="1228" 
d="M170 229v47l877 445l-877 444v47l942 -481v-20z" />
    <glyph glyph-name="question" unicode="?" horiz-adv-x="1021" 
d="M410 0v106h73v-106h-73zM870 1063v4q0 145 -108 245q-109 99 -279 99q-123 1 -227 -65t-170 -175l-37 25q160 256 436 256q191 0 311 -111t119 -272v-4q0 -173 -130 -277t-314 -122l-14 -291h-21l-16 321l6 6q196 14 320 110t124 251z" />
    <glyph glyph-name="at" unicode="@" horiz-adv-x="1943" 
d="M912 207q144 0 254 132q112 132 112 300q0 129 -83 216t-223 87t-252 -127q-114 -127 -114 -309q0 -139 81 -219t225 -80zM1001 -334q-371 0 -621 243t-249 628q0 180 65 348q134 347 448 496q161 77 341 77q350 0 589 -234t238 -558q0 -244 -105 -372t-225 -128t-174 73
t-51 175q-53 -111 -150 -180t-208 -68q-147 0 -243 91q-95 91 -95 247q0 201 128 340t298 139q119 0 206 -69t107 -181l37 203l41 -8l-71 -391q-10 -51 -11 -115q0 -219 179 -219q113 0 205 118t92 343q0 311 -228 534t-561 223q-229 0 -417 -124q-188 -123 -292 -325
q-102 -202 -102 -433q0 -371 239 -603t593 -233q270 0 475 137l22 -33q-211 -141 -500 -141z" />
    <glyph glyph-name="A" unicode="A" horiz-adv-x="1570" 
d="M348 471h873l-437 913zM76 0l690 1444h39l690 -1444h-49l-205 430h-913l-205 -430h-47z" />
    <glyph glyph-name="B" unicode="B" horiz-adv-x="1484" 
d="M258 41h576q221 0 344 86t122 242v4q0 155 -122 243t-310 89h-610v-664zM258 745h576q170 0 280 82t111 240v4q0 147 -114 235t-312 87h-541v-648zM213 0v1434h588q254 0 377 -123q92 -92 92 -238v-4q0 -129 -76 -219t-201 -119q152 -23 252 -119t101 -237v-4
q0 -175 -134 -273t-378 -98h-621z" />
    <glyph glyph-name="C" unicode="C" horiz-adv-x="1486" 
d="M864 -25q-312 0 -514 215q-201 215 -200 523v4q0 307 200 524q201 217 504 217q186 0 307 -57t238 -170l-31 -31q-104 100 -223 158t-293 59q-281 0 -469 -206t-188 -492v-4q0 -289 189 -494t481 -205t509 234l33 -31q-231 -244 -543 -244z" />
    <glyph glyph-name="D" unicode="D" horiz-adv-x="1585" 
d="M258 41h418q313 -1 514 193t201 479v4q0 287 -203 481t-516 195h-414v-1352zM213 0v1434h461q334 0 548 -205t214 -510v-4q0 -305 -214 -510t-548 -205h-461z" />
    <glyph glyph-name="E" unicode="E" horiz-adv-x="1353" 
d="M213 0v1434h1001v-41h-956v-652h868v-41h-868v-659h967v-41h-1012z" />
    <glyph glyph-name="F" unicode="F" horiz-adv-x="1277" 
d="M213 0v1434h991v-41h-946v-666h858v-41h-858v-686h-45z" />
    <glyph glyph-name="G" unicode="G" horiz-adv-x="1595" 
d="M850 -25q-320 0 -510 213t-190 525v4q0 195 84 361t248 274q165 106 376 106q156 0 270 -45t228 -139l-29 -35q-109 88 -217 133t-254 45q-291 0 -476 -210t-185 -488v-4q0 -291 180 -495t471 -204t522 197v461h-528v45h573v-522q-243 -222 -563 -222z" />
    <glyph glyph-name="H" unicode="H" horiz-adv-x="1540" 
d="M213 0v1434h45v-691h1024v691h45v-1434h-45v702h-1024v-702h-45z" />
    <glyph glyph-name="I" unicode="I" horiz-adv-x="499" 
d="M227 0v1434h45v-1434h-45z" />
    <glyph glyph-name="J" unicode="J" horiz-adv-x="1093" 
d="M471 -23q-135 0 -246 76t-164 211l41 19q50 -125 148 -195t225 -70q166 0 273 119q106 119 106 350v947h45v-940q0 -266 -135 -402q-115 -115 -293 -115z" />
    <glyph glyph-name="K" unicode="K" horiz-adv-x="1443" 
d="M213 0v1434h45v-969l991 969h64l-623 -605l645 -829h-55l-621 799l-401 -391v-408h-45z" />
    <glyph glyph-name="L" unicode="L" horiz-adv-x="1196" 
d="M213 0v1434h45v-1393h881v-41h-926z" />
    <glyph glyph-name="M" unicode="M" horiz-adv-x="1759" 
d="M213 0v1434h43l625 -889l624 889h41v-1434h-45v1358l-620 -885h-2l-621 885v-1358h-45z" />
    <glyph glyph-name="N" unicode="N" horiz-adv-x="1597" 
d="M213 0v1434h39l1089 -1360v1360h43v-1434h-38l-1090 1360v-1360h-43z" />
    <glyph glyph-name="O" unicode="O" horiz-adv-x="1724" 
d="M865 16q292 0 478 206t187 491v4q0 285 -190 493t-481 207q-292 0 -478 -206t-186 -490v-4q0 -285 189 -493t481 -208zM862 -25q-315 1 -514 219t-198 521v4q0 303 198 521q199 218 514 218t514 -218t199 -521v-4q0 -303 -199 -521t-514 -219z" />
    <glyph glyph-name="P" unicode="P" horiz-adv-x="1368" 
d="M256 604h451q241 0 377 102t137 291v4q1 183 -135 287t-375 105h-455v-789zM211 0v1434h504q262 0 406 -114t145 -316v-5q0 -207 -148 -321t-411 -115h-451v-563h-45z" />
    <glyph glyph-name="Q" unicode="Q" horiz-adv-x="1724" 
d="M850 16q278 0 465 177l-318 276l29 33l320 -279q184 203 184 490v4q0 285 -190 493t-481 207q-292 0 -478 -206t-186 -490v-4q0 -285 189 -493q188 -208 466 -208zM150 719q0 303 198 521q199 218 514 218t514 -218t199 -521v-4q0 -305 -197 -520l207 -181l-29 -32
l-208 182q-199 -188 -500 -188t-500 218t-198 521v4z" />
    <glyph glyph-name="R" unicode="R" horiz-adv-x="1482" 
d="M258 666h518q240 0 366 100t126 260v4q0 170 -125 266t-348 97h-537v-727zM213 0v1434h586q276 0 411 -136q102 -102 103 -266v-4q0 -178 -128 -284t-341 -117l477 -627h-55l-475 625h-533v-625h-45z" />
    <glyph glyph-name="S" unicode="S" horiz-adv-x="1314" 
d="M688 -20q-326 0 -567 229l33 33q227 -221 538 -222q199 0 320 96t121 242v4q1 135 -101 213q-102 77 -368 131t-378 140t-112 237v4q0 152 133 260t334 107q274 0 487 -164l-28 -37q-211 160 -463 160q-182 0 -300 -96t-118 -227v-5q-1 -133 101 -209t369 -129t378 -143
t111 -239v-5q0 -164 -134 -272t-356 -108z" />
    <glyph glyph-name="T" unicode="T" horiz-adv-x="1191" 
d="M573 0v1393h-518v41h1082v-41h-519v-1393h-45z" />
    <glyph glyph-name="U" unicode="U" horiz-adv-x="1540" 
d="M771 -23q-265 0 -423 168t-158 490v799h46v-799q0 -301 145 -459t392 -158t389 157t143 458v801h45v-799q0 -322 -157 -490t-422 -168z" />
    <glyph glyph-name="V" unicode="V" horiz-adv-x="1488" 
d="M727 -10l-651 1444h49l620 -1381l621 1381h47l-651 -1444h-35z" />
    <glyph glyph-name="W" unicode="W" horiz-adv-x="2082" 
d="M567 -10l-477 1444h47l451 -1373l436 1377h35l438 -1379l451 1375h45l-477 -1444h-39l-437 1364l-434 -1364h-39z" />
    <glyph glyph-name="X" unicode="X" horiz-adv-x="1376" 
d="M76 0l583 729l-563 705h54l538 -676l537 676h55l-565 -705l585 -729h-53l-559 700l-557 -700h-55z" />
    <glyph glyph-name="Y" unicode="Y" horiz-adv-x="1345" 
d="M651 0v600l-606 834h53l578 -795l571 795h53l-604 -834v-600h-45z" />
    <glyph glyph-name="Z" unicode="Z" horiz-adv-x="1388" 
d="M135 0v27l1039 1366h-1004v41h1067v-27l-1038 -1366h1032v-41h-1096z" />
    <glyph glyph-name="bracketleft" unicode="[" horiz-adv-x="839" 
d="M201 -266v1700h538v-35h-493v-1630h493v-35h-538z" />
    <glyph glyph-name="backslash" unicode="\" horiz-adv-x="964" 
d="M954 -262l-962 1896h47l962 -1896h-47z" />
    <glyph glyph-name="bracketright" unicode="]" horiz-adv-x="839" 
d="M100 -266v35h494v1630h-494v35h539v-1700h-539z" />
    <glyph glyph-name="asciicircum" unicode="^" 
d="M180 1012l320 428h24l320 -428h-35l-297 374l-297 -374h-35z" />
    <glyph glyph-name="underscore" unicode="_" horiz-adv-x="1126" 
d="M-4 -305v41h1134v-41h-1134z" />
    <glyph glyph-name="grave" unicode="`" 
d="M571 1219l-198 208l49 23l178 -231h-29z" />
    <glyph glyph-name="a" unicode="a" horiz-adv-x="1159" 
d="M489 16q199 0 328 108t129 251v131q-174 66 -370 66t-311 -74q-116 -74 -115 -209v-4q0 -129 98 -199t241 -70zM497 -25q-169 0 -281 81t-112 227v4q0 157 128 241t333 84t381 -63v86q0 182 -101 273t-275 91t-351 -86l-16 37q185 90 379 90t300 -106t107 -297v-637h-43
v242q-37 -104 -158 -186t-291 -81z" />
    <glyph glyph-name="b" unicode="b" horiz-adv-x="1341" 
d="M231 510q-1 -202 135 -348t341 -146t335 142t132 350v4q0 209 -132 352q-132 144 -336 144q-206 0 -340 -144t-135 -350v-4zM707 -25q-174 -1 -301 95t-173 247v-317h-43v1495h43v-788q45 153 173 247t301 95q221 0 366 -155t146 -380v-4q1 -225 -145 -380t-367 -155z
" />
    <glyph glyph-name="c" unicode="c" horiz-adv-x="1148" 
d="M654 -25q-232 0 -384 158t-151 377v4q0 221 151 378q152 157 377 157t406 -191l-31 -29q-168 179 -376 179t-345 -144t-137 -348v-4q0 -201 140 -348q140 -148 348 -148t376 191l31 -29q-173 -203 -405 -203z" />
    <glyph glyph-name="d" unicode="d" horiz-adv-x="1341" 
d="M168 512q0 -208 131 -352t337 -144t340 144t134 350v4q0 203 -135 348q-135 146 -340 146t-336 -142t-131 -350v-4zM635 -25q-221 0 -367 155q-145 155 -145 380v4q0 225 145 380t367 155q174 1 301 -95t172 -247v788h43v-1495h-43v317q-45 -152 -172 -247t-301 -95z" />
    <glyph glyph-name="e" unicode="e" horiz-adv-x="1193" 
d="M166 539h868q-6 188 -120 328q-114 141 -304 141t-313 -133t-131 -336zM631 -25q-217 -1 -365 147t-147 390v4q0 227 139 380t358 153t342 -164t123 -377v-8h-915q6 -217 140 -350t327 -134q113 0 213 58t166 149l35 -24q-71 -100 -179 -162t-237 -62z" />
    <glyph glyph-name="f" unicode="f" horiz-adv-x="665" 
d="M262 0v985h-162v39h162v147q0 175 78 253t201 77q80 0 143 -28v-43q-61 29 -143 28q-236 0 -236 -295v-139h375v-39h-375v-985h-43z" />
    <glyph glyph-name="g" unicode="g" horiz-adv-x="1323" 
d="M631 117q190 0 326 130t137 310v4q0 180 -136 313q-136 134 -328 134t-326 -130t-134 -313v-4q0 -184 136 -314t325 -130zM1133 156q0 -226 -131 -358t-375 -132t-457 158l27 35q199 -152 423 -152t347 118t123 339v209q-56 -133 -182 -215t-279 -82q-209 0 -358 142
q-148 142 -148 341v4q0 201 148 343t358 143q155 0 279 -82t182 -215v272h43v-868z" />
    <glyph glyph-name="h" unicode="h" horiz-adv-x="1245" 
d="M190 0v1495h43v-752q31 113 139 209t273 97q205 0 318 -127t112 -342v-580h-43v575q0 197 -101 315t-281 118t-298 -128q-119 -128 -119 -313v-567h-43z" />
    <glyph glyph-name="i" unicode="i" horiz-adv-x="448" 
d="M203 0v1024h43v-1024h-43zM193 1317v117h63v-117h-63z" />
    <glyph glyph-name="j" unicode="j" horiz-adv-x="452" 
d="M47 -342q-41 0 -74 8v41q27 -8 87 -8t103 52q44 52 44 147v1126h43v-1122q0 -119 -54 -182q-55 -62 -149 -62zM197 1317v117h63v-117h-63z" />
    <glyph glyph-name="k" unicode="k" horiz-adv-x="1112" 
d="M190 0v1495h43v-1137l711 666h57l-487 -453l520 -571h-53l-494 545l-254 -236v-309h-43z" />
    <glyph glyph-name="l" unicode="l" horiz-adv-x="448" 
d="M203 0v1495h43v-1495h-43z" />
    <glyph glyph-name="m" unicode="m" horiz-adv-x="1890" 
d="M190 0v1024h43v-262q25 110 125 198t244 88t236 -84q92 -85 123 -221q31 119 133 212t233 94q177 0 281 -115t104 -328v-606h-43v602q0 195 -94 300q-95 106 -241 106t-254 -120t-107 -290v-598h-43v602q0 195 -94 300q-94 106 -240 106t-255 -120q-108 -120 -108 -290
v-598h-43z" />
    <glyph glyph-name="n" unicode="n" horiz-adv-x="1245" 
d="M190 0v1024h43v-281q31 113 139 209t273 97q205 0 318 -127t112 -342v-580h-43v575q0 197 -101 315t-281 118t-298 -128q-119 -128 -119 -313v-567h-43z" />
    <glyph glyph-name="o" unicode="o" horiz-adv-x="1298" 
d="M162 510q0 -206 139 -350t351 -144t348 144t137 350v4q1 205 -139 349q-140 145 -352 145t-348 -144t-136 -350v-4zM1182 512q0 -221 -148 -379t-384 -158q-234 0 -384 156t-149 377v4q0 221 148 379q149 158 383 158t384 -156t150 -377v-4z" />
    <glyph glyph-name="p" unicode="p" horiz-adv-x="1341" 
d="M231 510q-1 -202 135 -348t341 -146t335 142t132 350v4q0 209 -132 352q-132 144 -336 144q-206 0 -340 -144t-135 -350v-4zM190 -328v1352h43v-317q45 153 173 247t301 95q221 0 366 -155t146 -380v-4q1 -225 -145 -380t-367 -155q-174 -1 -301 95t-173 247v-645h-43z
" />
    <glyph glyph-name="q" unicode="q" horiz-adv-x="1341" 
d="M168 512q0 -208 131 -352t337 -144t340 144t134 350v4q0 203 -135 348q-135 146 -340 146t-336 -142t-131 -350v-4zM1108 -328v645q-45 -153 -172 -247t-301 -95q-221 0 -367 155q-145 155 -145 380v4q0 225 145 380t367 155q174 1 301 -95t172 -247v317h43v-1352h-43z
" />
    <glyph glyph-name="r" unicode="r" horiz-adv-x="686" 
d="M190 0v1024h43v-328q39 142 152 248t270 105v-41h-10q-178 0 -295 -156t-117 -322v-530h-43z" />
    <glyph glyph-name="s" unicode="s" horiz-adv-x="1003" 
d="M504 -18q-233 0 -414 151l27 35q174 -145 389 -145q139 1 231 65t92 162v4q0 126 -148 187q-56 24 -87 33t-100 30q-186 53 -273 108q-86 55 -86 166v4q0 111 99 186q99 74 275 74t339 -114l-25 -37q-156 111 -331 110q-136 0 -224 -62t-88 -155v-4q0 -92 82 -141
t199 -81t199 -59q82 -26 128 -68q86 -79 86 -175v-4q0 -118 -104 -194t-266 -76z" />
    <glyph glyph-name="t" unicode="t" horiz-adv-x="763" 
d="M508 -18q-127 0 -195 72t-67 208v723h-162v39h162v354h43v-354h379v-39h-379v-719q0 -117 55 -180q54 -63 150 -63t170 36v-45q-72 -32 -156 -32z" />
    <glyph glyph-name="u" unicode="u" horiz-adv-x="1245" 
d="M600 -25q-206 0 -318 127t-112 342v580h43v-575q0 -197 101 -315q100 -118 280 -118t299 128t119 313v567h43v-1024h-43v281q-30 -113 -138 -209t-274 -97z" />
    <glyph glyph-name="v" unicode="v" horiz-adv-x="1146" 
d="M559 -8l-475 1032h47l444 -979l443 979h45l-471 -1032h-33z" />
    <glyph glyph-name="w" unicode="w" horiz-adv-x="1646" 
d="M457 -8l-359 1032h45l330 -967l334 973h35l332 -973l331 967h43l-358 -1032h-35l-332 975l-331 -975h-35z" />
    <glyph glyph-name="x" unicode="x" horiz-adv-x="1085" 
d="M965 0l-422 494l-424 -494h-49l448 520l-432 504h51l406 -477l407 477h49l-432 -504l449 -520h-51z" />
    <glyph glyph-name="y" unicode="y" horiz-adv-x="1165" 
d="M284 -334q-103 0 -194 55l21 35q86 -51 175 -51t150 58t144 237l-494 1024h47l467 -979l440 979h45l-475 -1044q-86 -188 -154 -251t-172 -63z" />
    <glyph glyph-name="z" unicode="z" horiz-adv-x="997" 
d="M74 0v25l780 960h-756v39h820v-25l-781 -960h785v-39h-848z" />
    <glyph glyph-name="braceleft" unicode="{" horiz-adv-x="901" 
d="M387 133v164q0 117 -62 193t-194 77h-41v41h41q131 0 194 77q62 77 62 194v163q0 203 57 274q85 106 316 148l8 -39q-118 -23 -188 -57t-101 -87q-31 -54 -39 -102t-8 -137v-163q0 -121 -57 -200t-170 -91q113 -12 170 -91t57 -200v-164q0 -88 8 -136q22 -132 141 -191
q71 -34 187 -56l-8 -39q-175 32 -256 93q-41 32 -65 62q-52 65 -52 267z" />
    <glyph glyph-name="bar" unicode="|" horiz-adv-x="526" 
d="M244 -262v1896h39v-1896h-39z" />
    <glyph glyph-name="braceright" unicode="}" horiz-adv-x="901" 
d="M469 133v164q0 121 57 200t170 91q-113 12 -170 91t-57 200v163q0 88 -8 136q-22 133 -140 191q-71 34 -188 56l8 39q175 -32 256 -93q41 -31 65 -61q52 -64 52 -268v-163q0 -117 62 -194t194 -77h41v-41h-41q-131 0 -193 -77t-63 -193v-164q0 -202 -58 -274
q-85 -106 -315 -148l-8 39q117 22 188 56t101 88t39 103q8 48 8 136z" />
    <glyph glyph-name="asciitilde" unicode="~" horiz-adv-x="901" 
d="M319 688q43 0 139 -59t128 -60q78 0 116 129l27 -6q-35 -164 -147 -164q-42 0 -138 60t-129 59q-77 0 -116 -129l-27 6q35 164 147 164z" />
    <glyph glyph-name="uni00A0" unicode="&#xa0;" horiz-adv-x="573" 
 />
    <glyph glyph-name="exclamdown" unicode="&#xa1;" horiz-adv-x="397" 
d="M176 0v221l12 838h21l12 -838v-221h-45zM162 1327v107h74v-107h-74z" />
    <glyph glyph-name="cent" unicode="&#xa2;" horiz-adv-x="1148" 
d="M662 1225q-200 -1 -340 -147t-140 -332t96 -319q96 -134 248 -179l191 973q-37 4 -55 4zM664 1264q23 0 59 -4l37 186h41l-39 -193q164 -29 311 -180l-29 -29q-135 139 -288 170l-193 -976q39 -8 92 -9q231 0 396 189l28 -25q-172 -203 -426 -203q-57 0 -98 9l-41 -211
h-39l43 221q-168 45 -273 189t-105 346t153 361q154 159 371 159z" />
    <glyph glyph-name="sterling" unicode="&#xa3;" horiz-adv-x="1226" 
d="M133 0v27l186 16v610h-186v41h186v240q0 264 138 401q119 119 299 119q242 0 391 -227l-37 -25q-139 211 -356 211q-160 -1 -275 -115t-114 -358v-246h618v-41h-618v-612h768v-41h-1000z" />
    <glyph glyph-name="yen" unicode="&#xa5;" horiz-adv-x="1263" 
d="M188 594v41h398l-541 799h57l533 -795l530 795h54l-541 -799h397v-41h-420v-307h420v-41h-420v-246h-45v246h-422v41h422v307h-422z" />
    <glyph glyph-name="section" unicode="&#xa7;" horiz-adv-x="1294" 
d="M195 745q1 -155 327 -217q154 -30 276 -30t213 53t91 133v4q0 155 -327 218q-155 30 -277 30t-212 -53q-91 -53 -91 -133v-5zM1018 221q0 -101 -102 -171t-244 -70q-144 0 -258 40t-183 99l29 35q63 -54 172 -94t236 -40t216 56t89 145v4q1 97 -105 155t-325 99
q-393 72 -393 262v4q0 100 106 167t289 57q-266 68 -266 239v4q0 102 101 172q100 70 244 70t259 -41t182 -98l-29 -35q-63 53 -172 93t-236 40q-128 0 -216 -56t-88 -145v-4q0 -96 105 -154t325 -100q393 -72 393 -262v-4q-1 -100 -107 -167t-288 -56q266 -68 266 -240v-4z
" />
    <glyph glyph-name="dieresis" unicode="&#xa8;" 
d="M342 1257v103h74v-103h-74zM608 1257v103h74v-103h-74z" />
    <glyph glyph-name="copyright" unicode="&#xa9;" horiz-adv-x="1699" 
d="M871 336q-165 0 -271 114t-106 273v4q0 161 106 275t268 114t287 -121l-29 -28q-113 113 -258 113t-239 -104q-94 -103 -94 -247q-2 -2 0 -4q0 -143 95 -247q96 -104 242 -105q146 0 258 121l29 -27q-123 -131 -288 -131zM850 10q291 0 498 207t206 498v4q0 291 -206 498
q-207 207 -498 207t-498 -208q-207 -206 -207 -497v-4q0 -291 207 -498t498 -207zM850 -25q-307 -1 -524 217t-217 523v4q0 305 217 522t524 217t524 -217t217 -522v-4q0 -305 -217 -523t-524 -217z" />
    <glyph glyph-name="ordfeminine" unicode="&#xaa;" horiz-adv-x="860" 
d="M213 1022q0 -66 51 -102t139 -37q88 0 156 55t68 133v70q-103 31 -201 31t-156 -39q-57 -39 -57 -107v-4zM168 651v31h506v-31h-506zM387 848q-88 0 -151 45t-64 127v4q0 86 70 133t179 47t206 -30v38q0 190 -205 191q-84 0 -182 -47l-15 33q102 49 211 49t168 -60
t60 -164v-354h-37v117q-70 -129 -240 -129z" />
    <glyph glyph-name="guillemotleft" unicode="&#xab;" horiz-adv-x="946" 
d="M451 96l-361 420v12l361 420l24 -20l-336 -406l336 -405zM799 96l-361 420v12l361 420l24 -20l-336 -406l336 -405z" />
    <glyph glyph-name="registered" unicode="&#xae;" horiz-adv-x="851" 
d="M334 1096h110q45 0 72 20t27 55q0 74 -97 74h-112v-149zM295 922v358h156q57 0 94 -28t37 -78q0 -84 -95 -107l109 -145h-49l-105 139h-108v-139h-39zM425 768q136 0 230 96q95 96 95 232t-94 232q-94 95 -229 95q-136 0 -230 -96q-95 -96 -95 -232q0 -135 94 -231
t229 -96zM782 1096q0 -147 -104 -253t-254 -106q-148 1 -251 105t-103 252v2q0 146 104 252t253 106t252 -104t103 -252v-2z" />
    <glyph glyph-name="macron" unicode="&#xaf;" 
d="M246 1272v39h532v-39h-532z" />
    <glyph glyph-name="degree" unicode="&#xb0;" horiz-adv-x="880" 
d="M440 909q102 0 177 74t75 174v4q0 100 -75 174t-177 74t-177 -74t-75 -174v-4q0 -100 75 -174t177 -74zM440 872q-119 0 -206 84t-87 201v4q0 117 87 201t206 84t206 -84t87 -201v-4q0 -117 -87 -201t-206 -84z" />
    <glyph glyph-name="plusminus" unicode="&#xb1;" horiz-adv-x="1228" 
d="M1083 0h-938v37h938v-37zM1083 764h-448v-436h-41v436h-449v37h449v436h41v-436h448v-37z" />
    <glyph glyph-name="acute" unicode="&#xb4;" 
d="M424 1219l178 231l49 -23l-198 -208h-29z" />
    <glyph glyph-name="paragraph" unicode="&#xb6;" horiz-adv-x="937" 
d="M680 0v567h-23q-239 0 -395 116t-156 316v5q0 198 146 314t375 116h98v-1434h-45z" />
    <glyph glyph-name="periodcentered" unicode="&#xb7;" horiz-adv-x="335" 
d="M131 545v106h74v-106h-74z" />
    <glyph glyph-name="cedilla" unicode="&#xb8;" 
d="M403 -289l-45 23l174 270h31z" />
    <glyph glyph-name="ordmasculine" unicode="&#xba;" horiz-adv-x="862" 
d="M434 885q110 1 180 75t70 183v4q0 109 -73 185t-181 75q-108 0 -180 -75t-72 -183v-4q0 -109 74 -185t182 -75zM147 651v31h568v-31h-568zM430 848q-127 0 -210 87t-83 208v4q0 123 84 210t211 87t210 -86t83 -209v-4q0 -121 -84 -209t-211 -88z" />
    <glyph glyph-name="guillemotright" unicode="&#xbb;" horiz-adv-x="946" 
d="M147 96l-24 21l336 405l-336 406l24 20l361 -420v-12zM496 96l-25 21l336 405l-336 406l25 20l360 -420v-12z" />
    <glyph glyph-name="questiondown" unicode="&#xbf;" horiz-adv-x="1021" 
d="M537 -18q-190 0 -311 110q-120 111 -120 273v4q0 174 130 277t315 122l14 291h21l16 -322l-6 -6q-197 -14 -321 -109t-123 -251v-4q0 -145 108 -245q109 -99 279 -99q123 -1 227 65t170 174l37 -24q-160 -256 -436 -256zM539 1327v107h73v-107h-73z" />
    <glyph glyph-name="Agrave" unicode="&#xc0;" horiz-adv-x="1570" 
d="M608 1780l203 -203h-37l-213 178zM348 471h873l-437 913zM76 0l690 1444h39l690 -1444h-49l-205 430h-913l-205 -430h-47z" />
    <glyph glyph-name="Aacute" unicode="&#xc1;" horiz-adv-x="1570" 
d="M758 1577l203 203l47 -25l-213 -178h-37zM348 471h873l-437 913zM76 0l690 1444h39l690 -1444h-49l-205 430h-913l-205 -430h-47z" />
    <glyph glyph-name="Acircumflex" unicode="&#xc2;" horiz-adv-x="1570" 
d="M549 1567l217 198h37l217 -198h-43l-193 153l-192 -153h-43zM348 471h873l-437 913zM76 0l690 1444h39l690 -1444h-49l-205 430h-913l-205 -430h-47z" />
    <glyph glyph-name="Atilde" unicode="&#xc3;" horiz-adv-x="1570" 
d="M657 1747q43 0 139 -53t128 -54q78 0 116 117l27 -6q-35 -152 -147 -152q-42 -1 -138 53t-129 54q-77 0 -116 -117l-27 6q35 152 147 152zM348 471h873l-437 913zM76 0l690 1444h39l690 -1444h-49l-205 430h-913l-205 -430h-47z" />
    <glyph glyph-name="Adieresis" unicode="&#xc4;" horiz-adv-x="1570" 
d="M602 1616v102h78v-102h-78zM889 1616v102h78v-102h-78zM348 471h873l-437 913zM76 0l690 1444h39l690 -1444h-49l-205 430h-913l-205 -430h-47z" />
    <glyph glyph-name="Aring" unicode="&#xc5;" horiz-adv-x="1570" 
d="M616 1567q0 -66 50 -107t118 -41q70 0 119 41t49 107q0 67 -49 107t-119 40t-119 -40t-49 -107zM348 471h873l-437 913zM578 1572q0 73 60 124t146 51t146 -51t61 -123q0 -72 -46 -121t-116 -61l666 -1391h-49l-205 430h-913l-205 -430h-47l663 1391q-73 12 -117 60
t-44 121z" />
    <glyph glyph-name="AE" unicode="&#xc6;" horiz-adv-x="2076" 
d="M967 471v922h-25l-592 -922h617zM1937 1434v-41h-925v-652h837v-41h-837v-659h936v-41h-981v430h-643l-275 -430h-49l920 1434h1017z" />
    <glyph glyph-name="Ccedilla" unicode="&#xc7;" horiz-adv-x="1486" 
d="M150 717q0 307 200 524q201 217 504 217q186 0 307 -57t238 -170l-31 -31q-104 100 -223 158t-293 59q-281 0 -469 -206t-188 -492v-4q0 -289 189 -494t481 -205t509 234l33 -31q-227 -238 -545 -244l-143 -264l-45 23l155 243q-293 9 -487 221t-192 515v4z" />
    <glyph glyph-name="Egrave" unicode="&#xc8;" horiz-adv-x="1353" 
d="M543 1769l202 -202h-36l-213 178zM213 0v1434h1001v-41h-956v-652h868v-41h-868v-659h967v-41h-1012z" />
    <glyph glyph-name="Eacute" unicode="&#xc9;" horiz-adv-x="1353" 
d="M692 1567l203 202l47 -24l-213 -178h-37zM213 0v1434h1001v-41h-956v-652h868v-41h-868v-659h967v-41h-1012z" />
    <glyph glyph-name="Ecircumflex" unicode="&#xca;" horiz-adv-x="1353" 
d="M483 1567l217 198h37l217 -198h-43l-192 153l-193 -153h-43zM213 0v1434h1001v-41h-956v-652h868v-41h-868v-659h967v-41h-1012z" />
    <glyph glyph-name="Edieresis" unicode="&#xcb;" horiz-adv-x="1353" 
d="M537 1606v102h77v-102h-77zM823 1606v102h78v-102h-78zM213 0v1434h1001v-41h-956v-652h868v-41h-868v-659h967v-41h-1012z" />
    <glyph glyph-name="Igrave" unicode="&#xcc;" horiz-adv-x="499" 
d="M74 1769l202 -202h-36l-213 178zM227 0v1434h45v-1434h-45z" />
    <glyph glyph-name="Iacute" unicode="&#xcd;" horiz-adv-x="499" 
d="M223 1567l203 202l47 -24l-213 -178h-37zM227 0v1434h45v-1434h-45z" />
    <glyph glyph-name="Icircumflex" unicode="&#xce;" horiz-adv-x="499" 
d="M14 1567l217 198h37l217 -198h-43l-192 153l-193 -153h-43zM227 0v1434h45v-1434h-45z" />
    <glyph glyph-name="Idieresis" unicode="&#xcf;" horiz-adv-x="499" 
d="M68 1606v102h77v-102h-77zM354 1606v102h78v-102h-78zM227 0v1434h45v-1434h-45z" />
    <glyph glyph-name="Eth" unicode="&#xd0;" horiz-adv-x="1646" 
d="M319 41h418q313 -1 514 193t201 479v4q0 287 -203 481t-516 195h-414v-652h517v-41h-517v-659zM274 0v700h-153v41h153v693h461q334 0 548 -205t214 -510v-4q0 -305 -214 -510t-548 -205h-461z" />
    <glyph glyph-name="Ntilde" unicode="&#xd1;" horiz-adv-x="1597" 
d="M954 1620q78 0 117 117l27 -6q-35 -152 -148 -152q-43 0 -138 53t-128 54q-78 0 -117 -117l-26 6q35 152 147 151q43 0 138 -53t128 -53zM213 0v1434h39l1089 -1360v1360h43v-1434h-38l-1090 1360v-1360h-43z" />
    <glyph glyph-name="Ograve" unicode="&#xd2;" horiz-adv-x="1724" 
d="M686 1780l203 -203h-37l-213 178zM865 16q292 0 478 206t187 491v4q0 285 -190 493t-481 207q-292 0 -478 -206t-186 -490v-4q0 -285 189 -493t481 -208zM862 -25q-315 1 -514 219t-198 521v4q0 303 198 521q199 218 514 218t514 -218t199 -521v-4q0 -303 -199 -521
t-514 -219z" />
    <glyph glyph-name="Oacute" unicode="&#xd3;" horiz-adv-x="1724" 
d="M836 1577l202 203l47 -25l-213 -178h-36zM865 16q292 0 478 206t187 491v4q0 285 -190 493t-481 207q-292 0 -478 -206t-186 -490v-4q0 -285 189 -493t481 -208zM862 -25q-315 1 -514 219t-198 521v4q0 303 198 521q199 218 514 218t514 -218t199 -521v-4
q0 -303 -199 -521t-514 -219z" />
    <glyph glyph-name="Ocircumflex" unicode="&#xd4;" horiz-adv-x="1724" 
d="M627 1577l217 199h37l217 -199h-43l-193 154l-192 -154h-43zM865 16q292 0 478 206t187 491v4q0 285 -190 493t-481 207q-292 0 -478 -206t-186 -490v-4q0 -285 189 -493t481 -208zM862 -25q-315 1 -514 219t-198 521v4q0 303 198 521q199 218 514 218t514 -218t199 -521
v-4q0 -303 -199 -521t-514 -219z" />
    <glyph glyph-name="Otilde" unicode="&#xd5;" horiz-adv-x="1724" 
d="M735 1747q43 0 138 -53t128 -54q78 0 117 117l27 -6q-35 -152 -148 -152q-43 -1 -138 53t-128 54q-78 0 -117 -117l-26 6q35 152 147 152zM865 16q292 0 478 206t187 491v4q0 285 -190 493t-481 207q-292 0 -478 -206t-186 -490v-4q0 -285 189 -493t481 -208zM862 -25
q-315 1 -514 219t-198 521v4q0 303 198 521q199 218 514 218t514 -218t199 -521v-4q0 -303 -199 -521t-514 -219z" />
    <glyph glyph-name="Odieresis" unicode="&#xd6;" horiz-adv-x="1724" 
d="M680 1616v102h78v-102h-78zM967 1616v102h77v-102h-77zM865 16q292 0 478 206t187 491v4q0 285 -190 493t-481 207q-292 0 -478 -206t-186 -490v-4q0 -285 189 -493t481 -208zM862 -25q-315 1 -514 219t-198 521v4q0 303 198 521q199 218 514 218t514 -218t199 -521v-4
q0 -303 -199 -521t-514 -219z" />
    <glyph glyph-name="multiply" unicode="&#xd7;" horiz-adv-x="1228" 
d="M1006 299l-394 395l-393 -395l-26 27l395 393l-395 393l30 31l393 -395l394 395l26 -27l-395 -393l395 -393z" />
    <glyph glyph-name="Oslash" unicode="&#xd8;" horiz-adv-x="1724" 
d="M874 16q284 0 469 206q186 206 187 491v4q0 293 -182 491l-945 -1011q187 -181 471 -181zM195 717q0 -293 182 -494l942 1014q-186 180 -469 180t-469 -206t-186 -490v-4zM1575 719v-4q0 -303 -199 -521t-503 -218t-498 190l-164 -176h-53l190 203q-199 215 -198 522v4
q0 303 198 521q199 218 500 218t502 -190l163 176h54l-191 -205q199 -211 199 -520z" />
    <glyph glyph-name="Ugrave" unicode="&#xd9;" horiz-adv-x="1540" 
d="M594 1759l203 -203h-37l-213 179zM771 -23q-265 0 -423 168t-158 490v799h46v-799q0 -301 145 -459t392 -158t389 157t143 458v801h45v-799q0 -322 -157 -490t-422 -168z" />
    <glyph glyph-name="Uacute" unicode="&#xda;" horiz-adv-x="1540" 
d="M743 1556l203 203l47 -24l-213 -179h-37zM771 -23q-265 0 -423 168t-158 490v799h46v-799q0 -301 145 -459t392 -158t389 157t143 458v801h45v-799q0 -322 -157 -490t-422 -168z" />
    <glyph glyph-name="Ucircumflex" unicode="&#xdb;" horiz-adv-x="1540" 
d="M535 1556l217 199h36l218 -199h-43l-193 154l-192 -154h-43zM771 -23q-265 0 -423 168t-158 490v799h46v-799q0 -301 145 -459t392 -158t389 157t143 458v801h45v-799q0 -322 -157 -490t-422 -168z" />
    <glyph glyph-name="Udieresis" unicode="&#xdc;" horiz-adv-x="1540" 
d="M588 1595v103h78v-103h-78zM874 1595v103h78v-103h-78zM771 -23q-265 0 -423 168t-158 490v799h46v-799q0 -301 145 -459t392 -158t389 157t143 458v801h45v-799q0 -322 -157 -490t-422 -168z" />
    <glyph glyph-name="Yacute" unicode="&#xdd;" horiz-adv-x="1345" 
d="M645 1556l203 203l47 -24l-213 -179h-37zM651 0v600l-606 834h53l578 -795l571 795h53l-604 -834v-600h-45z" />
    <glyph glyph-name="Thorn" unicode="&#xde;" horiz-adv-x="1368" 
d="M256 328h451q241 0 377 102t137 291v4q1 183 -135 287t-375 104h-455v-788zM211 0v1434h45v-277h459q262 0 406 -114t145 -316v-4q0 -207 -148 -322t-411 -114h-451v-287h-45z" />
    <glyph glyph-name="germandbls" unicode="&#xdf;" horiz-adv-x="1169" 
d="M539 -6v41q209 4 339 98t130 260v4q0 152 -126 239t-343 99v39q170 43 274 137t105 240v4q0 125 -96 218t-252 93t-246 -118t-91 -314v-1034h-43v1038q0 213 102 341t280 128t284 -103t107 -247v-4q-1 -139 -91 -237t-247 -152q193 -25 311 -120t117 -245v-4
q-1 -185 -145 -293t-369 -108z" />
    <glyph glyph-name="agrave" unicode="&#xe0;" horiz-adv-x="1159" 
d="M580 1219l-199 208l49 23l178 -231h-28zM489 16q199 0 328 108t129 251v131q-174 66 -370 66t-311 -74q-116 -74 -115 -209v-4q0 -129 98 -199t241 -70zM497 -25q-169 0 -281 81t-112 227v4q0 157 128 241t333 84t381 -63v86q0 182 -101 273t-275 91t-351 -86l-16 37
q185 90 379 90t300 -106t107 -297v-637h-43v242q-37 -104 -158 -186t-291 -81z" />
    <glyph glyph-name="aacute" unicode="&#xe1;" horiz-adv-x="1159" 
d="M559 1219l178 231l49 -23l-198 -208h-29zM489 16q199 0 328 108t129 251v131q-174 66 -370 66t-311 -74q-116 -74 -115 -209v-4q0 -129 98 -199t241 -70zM497 -25q-169 0 -281 81t-112 227v4q0 157 128 241t333 84t381 -63v86q0 182 -101 273t-275 91t-351 -86l-16 37
q185 90 379 90t300 -106t107 -297v-637h-43v242q-37 -104 -158 -186t-291 -81z" />
    <glyph glyph-name="acircumflex" unicode="&#xe2;" horiz-adv-x="1159" 
d="M354 1219l215 229h29l215 -229h-37l-192 178l-193 -178h-37zM489 16q199 0 328 108t129 251v131q-174 66 -370 66t-311 -74q-116 -74 -115 -209v-4q0 -129 98 -199t241 -70zM497 -25q-169 0 -281 81t-112 227v4q0 157 128 241t333 84t381 -63v86q0 182 -101 273t-275 91
t-351 -86l-16 37q185 90 379 90t300 -106t107 -297v-637h-43v242q-37 -104 -158 -186t-291 -81z" />
    <glyph glyph-name="atilde" unicode="&#xe3;" horiz-adv-x="1159" 
d="M457 1401q43 1 138 -59t128 -60q78 0 117 129l26 -6q-35 -164 -147 -164q-43 0 -138 59t-128 60q-78 0 -117 -129l-27 6q35 164 148 164zM489 16q199 0 328 108t129 251v131q-174 66 -370 66t-311 -74q-116 -74 -115 -209v-4q0 -129 98 -199t241 -70zM497 -25
q-169 0 -281 81t-112 227v4q0 157 128 241t333 84t381 -63v86q0 182 -101 273t-275 91t-351 -86l-16 37q185 90 379 90t300 -106t107 -297v-637h-43v242q-37 -104 -158 -186t-291 -81z" />
    <glyph glyph-name="adieresis" unicode="&#xe4;" horiz-adv-x="1159" 
d="M414 1257v103h73v-103h-73zM680 1257v103h74v-103h-74zM489 16q199 0 328 108t129 251v131q-174 66 -370 66t-311 -74q-116 -74 -115 -209v-4q0 -129 98 -199t241 -70zM497 -25q-169 0 -281 81t-112 227v4q0 157 128 241t333 84t381 -63v86q0 182 -101 273t-275 91
t-351 -86l-16 37q185 90 379 90t300 -106t107 -297v-637h-43v242q-37 -104 -158 -186t-291 -81z" />
    <glyph glyph-name="aring" unicode="&#xe5;" horiz-adv-x="1159" 
d="M422 1407q0 -66 47 -112t115 -46t114 46t47 112q0 66 -47 112q-46 46 -114 46t-115 -46t-47 -112zM385 1407q0 78 58 134q59 56 141 56t140 -56t58 -134t-58 -134t-140 -56t-141 56q-58 56 -58 134zM489 16q199 0 328 108t129 251v131q-174 66 -370 66t-311 -74
q-116 -74 -115 -209v-4q0 -129 98 -199t241 -70zM497 -25q-169 0 -281 81t-112 227v4q0 157 128 241t333 84t381 -63v86q0 182 -101 273t-275 91t-351 -86l-16 37q185 90 379 90t300 -106t107 -297v-637h-43v242q-37 -104 -158 -186t-291 -81z" />
    <glyph glyph-name="ae" unicode="&#xe6;" horiz-adv-x="2007" 
d="M508 16q158 0 288 76t187 182q-47 104 -47 236q-168 61 -362 61q-194 1 -309 -73q-116 -74 -115 -209v-4q0 -131 100 -200t258 -69zM979 539h868q-6 188 -120 328q-114 141 -304 141t-313 -133t-131 -336zM505 -25q-173 0 -287 80t-114 228v4q0 157 128 241t332 84
t372 -61q10 82 12 88q-4 182 -105 271t-273 89t-351 -86l-16 37q184 90 358 90q362 0 414 -305q55 143 174 229t274 85q225 0 349 -164t122 -377v-8h-915q6 -215 139 -349t324 -135q244 0 385 189l33 -25q-150 -205 -420 -205q-139 0 -256 69t-183 189q-61 -102 -192 -180
t-304 -78z" />
    <glyph glyph-name="ccedilla" unicode="&#xe7;" horiz-adv-x="1148" 
d="M119 510v4q0 221 151 378q152 157 377 157t406 -191l-31 -29q-168 179 -376 179t-345 -144t-137 -348v-4q0 -201 140 -348q140 -148 348 -148t376 191l31 -29q-170 -195 -400 -203l-143 -264l-45 23l156 241q-213 6 -361 162q-147 156 -147 373z" />
    <glyph glyph-name="egrave" unicode="&#xe8;" horiz-adv-x="1193" 
d="M604 1219l-198 208l49 23l178 -231h-29zM166 539h868q-6 188 -120 328q-114 141 -304 141t-313 -133t-131 -336zM631 -25q-217 -1 -365 147t-147 390v4q0 227 139 380t358 153t342 -164t123 -377v-8h-915q6 -217 140 -350t327 -134q113 0 213 58t166 149l35 -24
q-71 -100 -179 -162t-237 -62z" />
    <glyph glyph-name="eacute" unicode="&#xe9;" horiz-adv-x="1193" 
d="M584 1219l178 231l49 -23l-199 -208h-28zM166 539h868q-6 188 -120 328q-114 141 -304 141t-313 -133t-131 -336zM631 -25q-217 -1 -365 147t-147 390v4q0 227 139 380t358 153t342 -164t123 -377v-8h-915q6 -217 140 -350t327 -134q113 0 213 58t166 149l35 -24
q-71 -100 -179 -162t-237 -62z" />
    <glyph glyph-name="ecircumflex" unicode="&#xea;" horiz-adv-x="1193" 
d="M379 1219l215 229h29l215 -229h-37l-193 178l-192 -178h-37zM166 539h868q-6 188 -120 328q-114 141 -304 141t-313 -133t-131 -336zM631 -25q-217 -1 -365 147t-147 390v4q0 227 139 380t358 153t342 -164t123 -377v-8h-915q6 -217 140 -350t327 -134q113 0 213 58
t166 149l35 -24q-71 -100 -179 -162t-237 -62z" />
    <glyph glyph-name="edieresis" unicode="&#xeb;" horiz-adv-x="1193" 
d="M438 1257v103h74v-103h-74zM705 1257v103h73v-103h-73zM166 539h868q-6 188 -120 328q-114 141 -304 141t-313 -133t-131 -336zM631 -25q-217 -1 -365 147t-147 390v4q0 227 139 380t358 153t342 -164t123 -377v-8h-915q6 -217 140 -350t327 -134q113 0 213 58t166 149
l35 -24q-71 -100 -179 -162t-237 -62z" />
    <glyph glyph-name="igrave" unicode="&#xec;" horiz-adv-x="448" 
d="M219 1219l-199 208l50 23l178 -231h-29zM203 0v1024h43v-1024h-43z" />
    <glyph glyph-name="iacute" unicode="&#xed;" horiz-adv-x="448" 
d="M199 1219l178 231l49 -23l-199 -208h-28zM203 0v1024h43v-1024h-43z" />
    <glyph glyph-name="icircumflex" unicode="&#xee;" horiz-adv-x="448" 
d="M-6 1219l215 229h29l215 -229h-37l-193 178l-192 -178h-37zM203 0v1024h43v-1024h-43z" />
    <glyph glyph-name="idieresis" unicode="&#xef;" horiz-adv-x="448" 
d="M53 1257v103h74v-103h-74zM319 1257v103h74v-103h-74zM203 0v1024h43v-1024h-43z" />
    <glyph glyph-name="eth" unicode="&#xf0;" horiz-adv-x="1290" 
d="M162 508q0 -212 139 -352t345 -140t344 150t138 364v5q0 203 -139 337t-344 134t-344 -144t-139 -350v-4zM1174 551v-4q0 -246 -148 -409t-378 -163t-381 152t-150 381v4q0 225 152 380q153 155 376 155q258 0 414 -193q-102 231 -371 459l-217 -139l-25 34l209 133
q-102 84 -211 154h72q117 -76 178 -127l207 133l25 -35l-199 -127q199 -173 323 -379t124 -409z" />
    <glyph glyph-name="ntilde" unicode="&#xf1;" horiz-adv-x="1245" 
d="M506 1401q43 1 138 -59t128 -60q78 0 117 129l26 -6q-35 -164 -147 -164q-43 0 -138 59t-128 60q-78 0 -117 -129l-27 6q35 164 148 164zM190 0v1024h43v-281q31 113 139 209t273 97q205 0 318 -127t112 -342v-580h-43v575q0 197 -101 315t-281 118t-298 -128
q-119 -128 -119 -313v-567h-43z" />
    <glyph glyph-name="ograve" unicode="&#xf2;" horiz-adv-x="1298" 
d="M645 1219l-199 208l50 23l178 -231h-29zM162 510q0 -206 139 -350t351 -144t348 144t137 350v4q1 205 -139 349q-140 145 -352 145t-348 -144t-136 -350v-4zM1182 512q0 -221 -148 -379t-384 -158q-234 0 -384 156t-149 377v4q0 221 148 379q149 158 383 158t384 -156
t150 -377v-4z" />
    <glyph glyph-name="oacute" unicode="&#xf3;" horiz-adv-x="1298" 
d="M625 1219l178 231l49 -23l-199 -208h-28zM162 510q0 -206 139 -350t351 -144t348 144t137 350v4q1 205 -139 349q-140 145 -352 145t-348 -144t-136 -350v-4zM1182 512q0 -221 -148 -379t-384 -158q-234 0 -384 156t-149 377v4q0 221 148 379q149 158 383 158t384 -156
t150 -377v-4z" />
    <glyph glyph-name="ocircumflex" unicode="&#xf4;" horiz-adv-x="1298" 
d="M420 1219l215 229h29l215 -229h-37l-193 178l-192 -178h-37zM162 510q0 -206 139 -350t351 -144t348 144t137 350v4q1 205 -139 349q-140 145 -352 145t-348 -144t-136 -350v-4zM1182 512q0 -221 -148 -379t-384 -158q-234 0 -384 156t-149 377v4q0 221 148 379
q149 158 383 158t384 -156t150 -377v-4z" />
    <glyph glyph-name="otilde" unicode="&#xf5;" horiz-adv-x="1298" 
d="M522 1401q43 1 138 -59t128 -60q78 0 117 129l27 -6q-35 -164 -148 -164q-43 0 -138 59t-128 60q-78 0 -117 -129l-26 6q35 164 147 164zM162 510q0 -206 139 -350t351 -144t348 144t137 350v4q1 205 -139 349q-140 145 -352 145t-348 -144t-136 -350v-4zM1182 512
q0 -221 -148 -379t-384 -158q-234 0 -384 156t-149 377v4q0 221 148 379q149 158 383 158t384 -156t150 -377v-4z" />
    <glyph glyph-name="odieresis" unicode="&#xf6;" horiz-adv-x="1298" 
d="M479 1257v103h74v-103h-74zM745 1257v103h74v-103h-74zM162 510q0 -206 139 -350t351 -144t348 144t137 350v4q1 205 -139 349q-140 145 -352 145t-348 -144t-136 -350v-4zM1182 512q0 -221 -148 -379t-384 -158q-234 0 -384 156t-149 377v4q0 221 148 379
q149 158 383 158t384 -156t150 -377v-4z" />
    <glyph glyph-name="divide" unicode="&#xf7;" horiz-adv-x="1228" 
d="M578 236v106h73v-106h-73zM1083 702h-938v37h938v-37zM578 1100v106h73v-106h-73z" />
    <glyph glyph-name="oslash" unicode="&#xf8;" horiz-adv-x="1298" 
d="M658 16q206 0 342 144t137 350v4q0 201 -131 344l-687 -719q133 -123 339 -123zM162 510q0 -205 131 -346l686 719q-135 125 -340 125t-341 -144t-136 -350v-4zM1182 512q0 -221 -148 -379t-372 -158t-373 134l-113 -119h-51l139 145q-147 152 -147 373v4q0 221 148 379
q149 158 371 158t374 -136l137 146h51l-164 -172q147 -152 148 -371v-4z" />
    <glyph glyph-name="ugrave" unicode="&#xf9;" horiz-adv-x="1245" 
d="M608 1208l-198 209l49 23l178 -232h-29zM600 -25q-206 0 -318 127t-112 342v580h43v-575q0 -197 101 -315q100 -118 280 -118t299 128t119 313v567h43v-1024h-43v281q-30 -113 -138 -209t-274 -97z" />
    <glyph glyph-name="uacute" unicode="&#xfa;" horiz-adv-x="1245" 
d="M588 1208l178 232l49 -23l-199 -209h-28zM600 -25q-206 0 -318 127t-112 342v580h43v-575q0 -197 101 -315q100 -118 280 -118t299 128t119 313v567h43v-1024h-43v281q-30 -113 -138 -209t-274 -97z" />
    <glyph glyph-name="ucircumflex" unicode="&#xfb;" horiz-adv-x="1245" 
d="M383 1208l215 230h29l215 -230h-37l-193 178l-192 -178h-37zM600 -25q-206 0 -318 127t-112 342v580h43v-575q0 -197 101 -315q100 -118 280 -118t299 128t119 313v567h43v-1024h-43v281q-30 -113 -138 -209t-274 -97z" />
    <glyph glyph-name="udieresis" unicode="&#xfc;" horiz-adv-x="1245" 
d="M442 1247v103h74v-103h-74zM709 1247v103h73v-103h-73zM600 -25q-206 0 -318 127t-112 342v580h43v-575q0 -197 101 -315q100 -118 280 -118t299 128t119 313v567h43v-1024h-43v281q-30 -113 -138 -209t-274 -97z" />
    <glyph glyph-name="yacute" unicode="&#xfd;" horiz-adv-x="1165" 
d="M561 1208l178 232l49 -23l-198 -209h-29zM284 -334q-103 0 -194 55l21 35q86 -51 175 -51t150 58t144 237l-494 1024h47l467 -979l440 979h45l-475 -1044q-86 -188 -154 -251t-172 -63z" />
    <glyph glyph-name="thorn" unicode="&#xfe;" horiz-adv-x="1341" 
d="M231 510q-1 -202 135 -348t341 -146t335 142t132 350v4q0 209 -132 352q-132 144 -336 144q-206 0 -340 -144t-135 -350v-4zM190 -328v1823h43v-788q45 153 173 247t301 95q221 0 366 -155t146 -380v-4q1 -225 -145 -380t-367 -155q-174 -1 -301 95t-173 247v-645h-43z
" />
    <glyph glyph-name="ydieresis" unicode="&#xff;" horiz-adv-x="1165" 
d="M416 1247v103h73v-103h-73zM682 1247v103h74v-103h-74zM284 -334q-103 0 -194 55l21 35q86 -51 175 -51t150 58t144 237l-494 1024h47l467 -979l440 979h45l-475 -1044q-86 -188 -154 -251t-172 -63z" />
    <glyph glyph-name="Amacron" unicode="&#x100;" horiz-adv-x="1570" 
d="M506 1630v41h557v-41h-557zM348 471h873l-437 913zM76 0l690 1444h39l690 -1444h-49l-205 430h-913l-205 -430h-47z" />
    <glyph glyph-name="amacron" unicode="&#x101;" horiz-adv-x="1159" 
d="M317 1272v39h533v-39h-533zM489 16q199 0 328 108t129 251v131q-174 66 -370 66t-311 -74q-116 -74 -115 -209v-4q0 -129 98 -199t241 -70zM497 -25q-169 0 -281 81t-112 227v4q0 157 128 241t333 84t381 -63v86q0 182 -101 273t-275 91t-351 -86l-16 37q185 90 379 90
t300 -106t107 -297v-637h-43v242q-37 -104 -158 -186t-291 -81z" />
    <glyph glyph-name="Abreve" unicode="&#x102;" horiz-adv-x="1570" 
d="M783 1575q-111 0 -177 47t-80 125h35q39 -131 222 -131t225 131h34q-16 -78 -82 -125t-177 -47zM348 471h873l-437 913zM76 0l690 1444h39l690 -1444h-49l-205 430h-913l-205 -430h-47z" />
    <glyph glyph-name="abreve" unicode="&#x103;" horiz-adv-x="1159" 
d="M583 1217q-111 0 -177 56t-78 146h32q14 -67 72 -115t152 -48q96 0 152 48t71 115h33q-12 -88 -78 -145t-179 -57zM489 16q199 0 328 108t129 251v131q-174 66 -370 66t-311 -74q-116 -74 -115 -209v-4q0 -129 98 -199t241 -70zM497 -25q-169 0 -281 81t-112 227v4
q0 157 128 241t333 84t381 -63v86q0 182 -101 273t-275 91t-351 -86l-16 37q185 90 379 90t300 -106t107 -297v-637h-43v242q-37 -104 -158 -186t-291 -81z" />
    <glyph glyph-name="Aogonek" unicode="&#x104;" horiz-adv-x="1570" 
d="M348 471h873l-437 913zM1530 -326q-98 0 -162 43q-63 43 -63 109q0 100 135 186l-199 418h-913l-205 -430h-47l690 1444h39l690 -1444h-25q-119 -78 -118 -170q0 -51 46 -84t132 -39v-33z" />
    <glyph glyph-name="aogonek" unicode="&#x105;" horiz-adv-x="1159" 
d="M489 16q199 0 328 108t129 251v131q-174 66 -370 66t-311 -74q-116 -74 -115 -209v-4q0 -129 98 -199t241 -70zM1040 -326q-98 0 -161 43t-64 109q0 100 131 184v232q-37 -104 -158 -186t-291 -81q-169 0 -281 81t-112 227v4q0 157 128 241t333 84t381 -63v86
q0 182 -101 273t-275 91t-351 -86l-16 37q185 90 379 90t300 -106t107 -297v-637h-8q-119 -78 -119 -170q0 -51 46 -84t132 -39v-33z" />
    <glyph glyph-name="Cacute" unicode="&#x106;" horiz-adv-x="1486" 
d="M817 1577l203 203l47 -25l-213 -178h-37zM864 -25q-312 0 -514 215q-201 215 -200 523v4q0 307 200 524q201 217 504 217q186 0 307 -57t238 -170l-31 -31q-104 100 -223 158t-293 59q-281 0 -469 -206t-188 -492v-4q0 -289 189 -494t481 -205t509 234l33 -31
q-231 -244 -543 -244z" />
    <glyph glyph-name="cacute" unicode="&#x107;" horiz-adv-x="1148" 
d="M623 1219l178 231l49 -23l-199 -208h-28zM654 -25q-232 0 -384 158t-151 377v4q0 221 151 378q152 157 377 157t406 -191l-31 -29q-168 179 -376 179t-345 -144t-137 -348v-4q0 -201 140 -348q140 -148 348 -148t376 191l31 -29q-173 -203 -405 -203z" />
    <glyph glyph-name="Cdotaccent" unicode="&#x10a;" horiz-adv-x="1486" 
d="M805 1616v102h78v-102h-78zM864 -25q-312 0 -514 215q-201 215 -200 523v4q0 307 200 524q201 217 504 217q186 0 307 -57t238 -170l-31 -31q-104 100 -223 158t-293 59q-281 0 -469 -206t-188 -492v-4q0 -289 189 -494t481 -205t509 234l33 -31q-231 -244 -543 -244z
" />
    <glyph glyph-name="cdotaccent" unicode="&#x10b;" horiz-adv-x="1148" 
d="M610 1257v103h74v-103h-74zM654 -25q-232 0 -384 158t-151 377v4q0 221 151 378q152 157 377 157t406 -191l-31 -29q-168 179 -376 179t-345 -144t-137 -348v-4q0 -201 140 -348q140 -148 348 -148t376 191l31 -29q-173 -203 -405 -203z" />
    <glyph glyph-name="Ccaron" unicode="&#x10c;" horiz-adv-x="1486" 
d="M1079 1776l-217 -199h-37l-217 199h43l193 -154l192 154h43zM864 -25q-312 0 -514 215q-201 215 -200 523v4q0 307 200 524q201 217 504 217q186 0 307 -57t238 -170l-31 -31q-104 100 -223 158t-293 59q-281 0 -469 -206t-188 -492v-4q0 -289 189 -494t481 -205t509 234
l33 -31q-231 -244 -543 -244z" />
    <glyph glyph-name="ccaron" unicode="&#x10d;" horiz-adv-x="1148" 
d="M877 1448l-215 -229h-29l-215 229h37l192 -178l193 178h37zM654 -25q-232 0 -384 158t-151 377v4q0 221 151 378q152 157 377 157t406 -191l-31 -29q-168 179 -376 179t-345 -144t-137 -348v-4q0 -201 140 -348q140 -148 348 -148t376 191l31 -29q-173 -203 -405 -203z
" />
    <glyph glyph-name="Dcaron" unicode="&#x10e;" horiz-adv-x="1585" 
d="M973 1765l-217 -198h-37l-217 198h43l192 -153l193 153h43zM258 41h418q313 -1 514 193t201 479v4q0 287 -203 481t-516 195h-414v-1352zM213 0v1434h461q334 0 548 -205t214 -510v-4q0 -305 -214 -510t-548 -205h-461z" />
    <glyph glyph-name="dcaron" unicode="&#x10f;" horiz-adv-x="1341" 
d="M1360 1495v-4l-62 -301h-24l35 305h51zM168 512q0 -208 131 -352t337 -144t340 144t134 350v4q0 203 -135 348q-135 146 -340 146t-336 -142t-131 -350v-4zM635 -25q-221 0 -367 155q-145 155 -145 380v4q0 225 145 380t367 155q174 1 301 -95t172 -247v788h43v-1495h-43
v317q-45 -152 -172 -247t-301 -95z" />
    <glyph glyph-name="Dcroat" unicode="&#x110;" horiz-adv-x="1646" 
d="M319 41h418q313 -1 514 193t201 479v4q0 287 -203 481t-516 195h-414v-652h517v-41h-517v-659zM274 0v700h-153v41h153v693h461q334 0 548 -205t214 -510v-4q0 -305 -214 -510t-548 -205h-461z" />
    <glyph glyph-name="dcroat" unicode="&#x111;" horiz-adv-x="1341" 
d="M168 512q0 -208 131 -352t337 -144t340 144t134 350v4q0 203 -135 348q-135 146 -340 146t-336 -142t-131 -350v-4zM729 1266v39h379v190h43v-190h143v-39h-143v-1266h-43v317q-45 -153 -172 -247t-301 -95q-221 0 -367 155q-145 155 -145 380v4q0 225 145 380t367 155
q174 1 301 -95t172 -247v559h-379z" />
    <glyph glyph-name="Emacron" unicode="&#x112;" horiz-adv-x="1353" 
d="M440 1620v41h557v-41h-557zM213 0v1434h1001v-41h-956v-652h868v-41h-868v-659h967v-41h-1012z" />
    <glyph glyph-name="emacron" unicode="&#x113;" horiz-adv-x="1193" 
d="M342 1272v39h532v-39h-532zM166 539h868q-6 188 -120 328q-114 141 -304 141t-313 -133t-131 -336zM631 -25q-217 -1 -365 147t-147 390v4q0 227 139 380t358 153t342 -164t123 -377v-8h-915q6 -217 140 -350t327 -134q113 0 213 58t166 149l35 -24q-71 -100 -179 -162
t-237 -62z" />
    <glyph glyph-name="Ebreve" unicode="&#x114;" horiz-adv-x="1353" 
d="M718 1565q-112 0 -178 47t-79 125h35q39 -131 222 -131t224 131h35q-15 -78 -81 -125t-178 -47zM213 0v1434h1001v-41h-956v-652h868v-41h-868v-659h967v-41h-1012z" />
    <glyph glyph-name="ebreve" unicode="&#x115;" horiz-adv-x="1193" 
d="M607 1217q-111 0 -177 56t-78 146h33q13 -67 71 -115t153 -48t151 48t71 115h33q-12 -88 -78 -145t-179 -57zM166 539h868q-6 188 -120 328q-114 141 -304 141t-313 -133t-131 -336zM631 -25q-217 -1 -365 147t-147 390v4q0 227 139 380t358 153t342 -164t123 -377v-8
h-915q6 -217 140 -350t327 -134q113 0 213 58t166 149l35 -24q-71 -100 -179 -162t-237 -62z" />
    <glyph glyph-name="Edotaccent" unicode="&#x116;" horiz-adv-x="1353" 
d="M680 1606v102h78v-102h-78zM213 0v1434h1001v-41h-956v-652h868v-41h-868v-659h967v-41h-1012z" />
    <glyph glyph-name="edotaccent" unicode="&#x117;" horiz-adv-x="1193" 
d="M571 1257v103h74v-103h-74zM166 539h868q-6 188 -120 328q-114 141 -304 141t-313 -133t-131 -336zM631 -25q-217 -1 -365 147t-147 390v4q0 227 139 380t358 153t342 -164t123 -377v-8h-915q6 -217 140 -350t327 -134q113 0 213 58t166 149l35 -24q-71 -100 -179 -162
t-237 -62z" />
    <glyph glyph-name="Eogonek" unicode="&#x118;" horiz-adv-x="1353" 
d="M213 0v1434h1001v-41h-956v-652h868v-41h-868v-659h967v-41h-62q-119 -78 -119 -170q0 -51 46 -84t133 -39v-33q-98 0 -162 43q-63 43 -64 109q0 92 115 174h-899z" />
    <glyph glyph-name="eogonek" unicode="&#x119;" horiz-adv-x="1193" 
d="M737 -166q0 -115 178 -127v-33q-98 0 -161 43t-64 107q0 92 107 180q-86 -29 -166 -29q-217 -1 -365 147t-147 390v4q0 227 139 380t358 153t342 -164t123 -377v-8h-915q6 -217 140 -350t327 -134q113 0 213 58t166 149l35 -24q-54 -74 -182 -174t-128 -191zM166 539h868
q-6 188 -120 328q-114 141 -304 141t-313 -133t-131 -336z" />
    <glyph glyph-name="Ecaron" unicode="&#x11a;" horiz-adv-x="1353" 
d="M954 1765l-217 -198h-37l-217 198h43l193 -153l192 153h43zM213 0v1434h1001v-41h-956v-652h868v-41h-868v-659h967v-41h-1012z" />
    <glyph glyph-name="ecaron" unicode="&#x11b;" horiz-adv-x="1193" 
d="M838 1448l-215 -229h-29l-215 229h37l192 -178l193 178h37zM166 539h868q-6 188 -120 328q-114 141 -304 141t-313 -133t-131 -336zM631 -25q-217 -1 -365 147t-147 390v4q0 227 139 380t358 153t342 -164t123 -377v-8h-915q6 -217 140 -350t327 -134q113 0 213 58
t166 149l35 -24q-71 -100 -179 -162t-237 -62z" />
    <glyph glyph-name="Gbreve" unicode="&#x11e;" horiz-adv-x="1595" 
d="M839 1575q-111 0 -177 47t-80 125h34q38 -131 222 -131t225 131h35q-16 -78 -82 -125t-177 -47zM850 -25q-320 0 -510 213t-190 525v4q0 195 84 361t248 274q165 106 376 106q156 0 270 -45t228 -139l-29 -35q-109 88 -217 133t-254 45q-291 0 -476 -210t-185 -488v-4
q0 -291 180 -495t471 -204t522 197v461h-528v45h573v-522q-243 -222 -563 -222z" />
    <glyph glyph-name="gbreve" unicode="&#x11f;" horiz-adv-x="1323" 
d="M675 1217q-111 0 -177 56t-78 146h33q14 -67 71 -115q56 -48 152 -48t152 48t71 115h33q-12 -88 -78 -145t-179 -57zM631 117q190 0 326 130t137 310v4q0 180 -136 313q-136 134 -328 134t-326 -130t-134 -313v-4q0 -184 136 -314t325 -130zM1133 156q0 -226 -131 -358
t-375 -132t-457 158l27 35q199 -152 423 -152t347 118t123 339v209q-56 -133 -182 -215t-279 -82q-209 0 -358 142q-148 142 -148 341v4q0 201 148 343t358 143q155 0 279 -82t182 -215v272h43v-868z" />
    <glyph glyph-name="Gdotaccent" unicode="&#x120;" horiz-adv-x="1595" 
d="M801 1616v102h78v-102h-78zM850 -25q-320 0 -510 213t-190 525v4q0 195 84 361t248 274q165 106 376 106q156 0 270 -45t228 -139l-29 -35q-109 88 -217 133t-254 45q-291 0 -476 -210t-185 -488v-4q0 -291 180 -495t471 -204t522 197v461h-528v45h573v-522
q-243 -222 -563 -222z" />
    <glyph glyph-name="gdotaccent" unicode="&#x121;" horiz-adv-x="1323" 
d="M639 1257v103h74v-103h-74zM631 117q190 0 326 130t137 310v4q0 180 -136 313q-136 134 -328 134t-326 -130t-134 -313v-4q0 -184 136 -314t325 -130zM1133 156q0 -226 -131 -358t-375 -132t-457 158l27 35q199 -152 423 -152t347 118t123 339v209q-56 -133 -182 -215
t-279 -82q-209 0 -358 142q-148 142 -148 341v4q0 201 148 343t358 143q155 0 279 -82t182 -215v272h43v-868z" />
    <glyph glyph-name="Gcommaaccent" unicode="&#x122;" horiz-adv-x="1595" 
d="M801 -258v96h73v-43q0 -84 -17 -122t-58 -56l-15 27q47 23 54 98h-37zM850 -25q-320 0 -510 213t-190 525v4q0 195 84 361t248 274q165 106 376 106q156 0 270 -45t228 -139l-29 -35q-109 88 -217 133t-254 45q-291 0 -476 -210t-185 -488v-4q0 -291 180 -495t471 -204
t522 197v461h-528v45h573v-522q-243 -222 -563 -222z" />
    <glyph glyph-name="gcommaaccent" unicode="&#x123;" horiz-adv-x="1323" 
d="M713 1352v-97h-74v43q-1 84 17 122t59 57l14 -27q-47 -23 -53 -98h37zM631 117q190 0 326 130t137 310v4q0 180 -136 313q-136 134 -328 134t-326 -130t-134 -313v-4q0 -184 136 -314t325 -130zM1133 156q0 -226 -131 -358t-375 -132t-457 158l27 35q199 -152 423 -152
t347 118t123 339v209q-56 -133 -182 -215t-279 -82q-209 0 -358 142q-148 142 -148 341v4q0 201 148 343t358 143q155 0 279 -82t182 -215v272h43v-868z" />
    <glyph glyph-name="Hbar" unicode="&#x126;" horiz-adv-x="1540" 
d="M258 743h1024v340h-1024v-340zM59 1083v39h154v312h45v-312h1024v312h45v-312h154v-39h-154v-1083h-45v702h-1024v-702h-45v1083h-154z" />
    <glyph glyph-name="hbar" unicode="&#x127;" horiz-adv-x="1245" 
d="M612 1266h-379v-523q31 113 139 209t273 97q205 0 318 -127t112 -342v-580h-43v575q0 197 -101 315t-281 118t-298 -128q-119 -128 -119 -313v-567h-43v1266h-143v39h143v190h43v-190h379v-39z" />
    <glyph glyph-name="Imacron" unicode="&#x12a;" horiz-adv-x="499" 
d="M-29 1620v41h557v-41h-557zM227 0v1434h45v-1434h-45z" />
    <glyph glyph-name="imacron" unicode="&#x12b;" horiz-adv-x="448" 
d="M-43 1272v39h532v-39h-532zM203 0v1024h43v-1024h-43z" />
    <glyph glyph-name="Ibreve" unicode="&#x12c;" horiz-adv-x="499" 
d="M249 1565q-111 0 -177 47t-80 125h35q39 -131 222 -131t224 131h35q-16 -78 -82 -125t-177 -47zM227 0v1434h45v-1434h-45z" />
    <glyph glyph-name="ibreve" unicode="&#x12d;" horiz-adv-x="448" 
d="M222 1217q-112 0 -178 56t-77 146h33q14 -67 72 -115t152 -48q96 0 152 48t70 115h33q-13 -88 -79 -145t-178 -57zM203 0v1024h43v-1024h-43z" />
    <glyph glyph-name="Iogonek" unicode="&#x12e;" horiz-adv-x="499" 
d="M326 -326q-98 0 -162 43q-63 43 -64 109q0 96 127 182v1426h45v-1434h-6q-119 -78 -119 -170q1 -51 47 -84t132 -39v-33z" />
    <glyph glyph-name="iogonek" unicode="&#x12f;" horiz-adv-x="448" 
d="M193 1317v117h63v-117h-63zM299 -326q-98 0 -162 43q-63 43 -63 109q0 96 129 184v1014h43v-1024h-6q-119 -78 -119 -170q0 -51 46 -84t132 -39v-33z" />
    <glyph glyph-name="Idotaccent" unicode="&#x130;" horiz-adv-x="499" 
d="M211 1606v102h78v-102h-78zM227 0v1434h45v-1434h-45z" />
    <glyph glyph-name="dotlessi" unicode="&#x131;" horiz-adv-x="448" 
d="M203 0v1024h43v-1024h-43z" />
    <glyph glyph-name="Kcommaaccent" unicode="&#x136;" horiz-adv-x="1443" 
d="M684 -238v97h74v-43q0 -84 -18 -122t-58 -56l-14 26q47 23 53 98h-37zM213 0v1434h45v-969l991 969h64l-623 -605l645 -829h-55l-621 799l-401 -391v-408h-45z" />
    <glyph glyph-name="kcommaaccent" unicode="&#x137;" horiz-adv-x="1112" 
d="M528 -238v97h74v-43q0 -84 -18 -122t-58 -56l-14 26q47 23 53 98h-37zM190 0v1495h43v-1137l711 666h57l-487 -453l520 -571h-53l-494 545l-254 -236v-309h-43z" />
    <glyph glyph-name="Lacute" unicode="&#x139;" horiz-adv-x="1196" 
d="M240 1567l202 202l47 -24l-213 -178h-36zM213 0v1434h45v-1393h881v-41h-926z" />
    <glyph glyph-name="lacute" unicode="&#x13a;" horiz-adv-x="448" 
d="M199 1591l202 203l48 -25l-213 -178h-37zM203 0v1495h43v-1495h-43z" />
    <glyph glyph-name="Lcommaaccent" unicode="&#x13b;" horiz-adv-x="1196" 
d="M627 -248v96h73v-43q0 -84 -17 -122t-58 -56l-15 27q47 23 54 98h-37zM213 0v1434h45v-1393h881v-41h-926z" />
    <glyph glyph-name="lcommaaccent" unicode="&#x13c;" horiz-adv-x="448" 
d="M184 -248v96h74v-43q0 -84 -18 -122t-58 -56l-14 27q47 23 53 98h-37zM203 0v1495h43v-1495h-43z" />
    <glyph glyph-name="Lcaron" unicode="&#x13d;" horiz-adv-x="1196" 
d="M606 1434v-4l-61 -302h-25l35 306h51zM213 0v1434h45v-1393h881v-41h-926z" />
    <glyph glyph-name="lcaron" unicode="&#x13e;" horiz-adv-x="448" 
d="M455 1495v-4l-62 -301h-24l34 305h52zM203 0v1495h43v-1495h-43z" />
    <glyph glyph-name="Ldot" unicode="&#x13f;" horiz-adv-x="1196" 
d="M213 0v1434h45v-1393h881v-41h-926zM852 666v116h68v-116h-68z" />
    <glyph glyph-name="ldot" unicode="&#x140;" horiz-adv-x="448" 
d="M203 0v1495h43v-1495h-43zM416 690v117h67v-117h-67z" />
    <glyph glyph-name="Lslash" unicode="&#x141;" horiz-adv-x="1249" 
d="M311 41h881v-41h-926v649l-194 -92v45l194 92v740h45v-717l434 209v-45l-434 -209v-631z" />
    <glyph glyph-name="lslash" unicode="&#x142;" horiz-adv-x="530" 
d="M287 0h-43v719l-164 -90v45l164 90v731h43v-707l164 93v-45l-164 -93v-743z" />
    <glyph glyph-name="Nacute" unicode="&#x143;" horiz-adv-x="1597" 
d="M788 1556l203 203l47 -24l-213 -179h-37zM213 0v1434h39l1089 -1360v1360h43v-1434h-38l-1090 1360v-1360h-43z" />
    <glyph glyph-name="nacute" unicode="&#x144;" horiz-adv-x="1245" 
d="M608 1219l178 231l50 -23l-199 -208h-29zM190 0v1024h43v-281q31 113 139 209t273 97q205 0 318 -127t112 -342v-580h-43v575q0 197 -101 315t-281 118t-298 -128q-119 -128 -119 -313v-567h-43z" />
    <glyph glyph-name="Ncommaaccent" unicode="&#x145;" horiz-adv-x="1597" 
d="M776 -238v97h74v-43q0 -84 -18 -122t-58 -56l-14 26q47 23 53 98h-37zM213 0v1434h39l1089 -1360v1360h43v-1434h-38l-1090 1360v-1360h-43z" />
    <glyph glyph-name="ncommaaccent" unicode="&#x146;" horiz-adv-x="1245" 
d="M594 -238v97h74v-43q0 -84 -18 -122t-58 -56l-14 26q47 23 53 98h-37zM190 0v1024h43v-281q31 113 139 209t273 97q205 0 318 -127t112 -342v-580h-43v575q0 197 -101 315t-281 118t-298 -128q-119 -128 -119 -313v-567h-43z" />
    <glyph glyph-name="Ncaron" unicode="&#x147;" horiz-adv-x="1597" 
d="M1051 1755l-217 -199h-37l-217 199h43l192 -153l193 153h43zM213 0v1434h39l1089 -1360v1360h43v-1434h-38l-1090 1360v-1360h-43z" />
    <glyph glyph-name="ncaron" unicode="&#x148;" horiz-adv-x="1245" 
d="M862 1448l-215 -229h-29l-215 229h37l193 -178l192 178h37zM190 0v1024h43v-281q31 113 139 209t273 97q205 0 318 -127t112 -342v-580h-43v575q0 197 -101 315t-281 118t-298 -128q-119 -128 -119 -313v-567h-43z" />
    <glyph glyph-name="Omacron" unicode="&#x14c;" horiz-adv-x="1724" 
d="M584 1630v41h557v-41h-557zM865 16q292 0 478 206t187 491v4q0 285 -190 493t-481 207q-292 0 -478 -206t-186 -490v-4q0 -285 189 -493t481 -208zM862 -25q-315 1 -514 219t-198 521v4q0 303 198 521q199 218 514 218t514 -218t199 -521v-4q0 -303 -199 -521t-514 -219z
" />
    <glyph glyph-name="omacron" unicode="&#x14d;" horiz-adv-x="1298" 
d="M383 1272v39h532v-39h-532zM162 510q0 -206 139 -350t351 -144t348 144t137 350v4q1 205 -139 349q-140 145 -352 145t-348 -144t-136 -350v-4zM1182 512q0 -221 -148 -379t-384 -158q-234 0 -384 156t-149 377v4q0 221 148 379q149 158 383 158t384 -156t150 -377v-4z
" />
    <glyph glyph-name="Obreve" unicode="&#x14e;" horiz-adv-x="1724" 
d="M861 1575q-111 0 -177 47t-80 125h35q39 -131 222 -131t224 131h35q-16 -78 -82 -125t-177 -47zM865 16q292 0 478 206t187 491v4q0 285 -190 493t-481 207q-292 0 -478 -206t-186 -490v-4q0 -285 189 -493t481 -208zM862 -25q-315 1 -514 219t-198 521v4q0 303 198 521
q199 218 514 218t514 -218t199 -521v-4q0 -303 -199 -521t-514 -219z" />
    <glyph glyph-name="obreve" unicode="&#x14f;" horiz-adv-x="1298" 
d="M648 1217q-112 0 -178 56t-77 146h33q14 -67 72 -115t152 -48q96 0 152 48t70 115h33q-13 -88 -79 -145t-178 -57zM162 510q0 -206 139 -350t351 -144t348 144t137 350v4q1 205 -139 349q-140 145 -352 145t-348 -144t-136 -350v-4zM1182 512q0 -221 -148 -379t-384 -158
q-234 0 -384 156t-149 377v4q0 221 148 379q149 158 383 158t384 -156t150 -377v-4z" />
    <glyph glyph-name="Ohungarumlaut" unicode="&#x150;" horiz-adv-x="1724" 
d="M948 1577l203 203l47 -25l-213 -178h-37zM700 1577l203 203l47 -25l-213 -178h-37zM865 16q292 0 478 206t187 491v4q0 285 -190 493t-481 207q-292 0 -478 -206t-186 -490v-4q0 -285 189 -493t481 -208zM862 -25q-315 1 -514 219t-198 521v4q0 303 198 521
q199 218 514 218t514 -218t199 -521v-4q0 -303 -199 -521t-514 -219z" />
    <glyph glyph-name="ohungarumlaut" unicode="&#x151;" horiz-adv-x="1298" 
d="M508 1219l178 231l49 -23l-198 -208h-29zM715 1219l178 231l49 -23l-199 -208h-28zM162 510q0 -206 139 -350t351 -144t348 144t137 350v4q1 205 -139 349q-140 145 -352 145t-348 -144t-136 -350v-4zM1182 512q0 -221 -148 -379t-384 -158q-234 0 -384 156t-149 377v4
q0 221 148 379q149 158 383 158t384 -156t150 -377v-4z" />
    <glyph glyph-name="OE" unicode="&#x152;" horiz-adv-x="2385" 
d="M913 41h363v1352h-367q-313 0 -514 -194t-200 -478v-4q1 -287 203 -481t515 -195zM911 0q-333 0 -547 205t-214 510v4q0 305 214 510t547 205h1336v-41h-926v-652h838v-41h-838v-659h936v-41h-1346z" />
    <glyph glyph-name="oe" unicode="&#x153;" horiz-adv-x="2205" 
d="M1178 539h868q-6 188 -120 328q-114 141 -304 141t-313 -133t-131 -336zM162 510q0 -206 139 -350t351 -144t348 144t137 350v4q1 205 -139 349q-140 145 -352 145t-348 -144t-136 -350v-4zM649 -25q-233 0 -383 156t-149 377v4q0 221 148 379t384 158q189 -1 327 -107
t179 -280q37 176 165 281t302 106q225 0 348 -164t123 -377v-8h-915q6 -215 139 -349t323 -135q244 0 385 189l33 -25q-150 -205 -420 -205q-176 1 -311 105t-172 289q-39 -176 -176 -285t-330 -109z" />
    <glyph glyph-name="Racute" unicode="&#x154;" horiz-adv-x="1482" 
d="M686 1567l203 202l47 -24l-213 -178h-37zM258 666h518q240 0 366 100t126 260v4q0 170 -125 266t-348 97h-537v-727zM213 0v1434h586q276 0 411 -136q102 -102 103 -266v-4q0 -178 -128 -284t-341 -117l477 -627h-55l-475 625h-533v-625h-45z" />
    <glyph glyph-name="racute" unicode="&#x155;" horiz-adv-x="686" 
d="M358 1219l179 231l49 -23l-199 -208h-29zM190 0v1024h43v-328q39 142 152 248t270 105v-41h-10q-178 0 -295 -156t-117 -322v-530h-43z" />
    <glyph glyph-name="Rcommaaccent" unicode="&#x156;" horiz-adv-x="1482" 
d="M674 -238v97h74v-43q0 -84 -18 -122t-58 -56l-15 26q47 23 54 98h-37zM258 666h518q240 0 366 100t126 260v4q0 170 -125 266t-348 97h-537v-727zM213 0v1434h586q276 0 411 -136q102 -102 103 -266v-4q0 -178 -128 -284t-341 -117l477 -627h-55l-475 625h-533v-625h-45z
" />
    <glyph glyph-name="rcommaaccent" unicode="&#x157;" horiz-adv-x="686" 
d="M178 -248v96h74v-43q0 -84 -18 -122t-58 -56l-14 27q47 23 53 98h-37zM190 0v1024h43v-328q39 142 152 248t270 105v-41h-10q-178 0 -295 -156t-117 -322v-530h-43z" />
    <glyph glyph-name="Rcaron" unicode="&#x158;" horiz-adv-x="1482" 
d="M948 1765l-217 -198h-37l-217 198h43l193 -153l192 153h43zM258 666h518q240 0 366 100t126 260v4q0 170 -125 266t-348 97h-537v-727zM213 0v1434h586q276 0 411 -136q102 -102 103 -266v-4q0 -178 -128 -284t-341 -117l477 -627h-55l-475 625h-533v-625h-45z" />
    <glyph glyph-name="rcaron" unicode="&#x159;" horiz-adv-x="686" 
d="M612 1448l-215 -229h-28l-215 229h36l193 -178l192 178h37zM190 0v1024h43v-328q39 142 152 248t270 105v-41h-10q-178 0 -295 -156t-117 -322v-530h-43z" />
    <glyph glyph-name="Sacute" unicode="&#x15a;" horiz-adv-x="1314" 
d="M651 1577l203 203l47 -25l-213 -178h-37zM688 -20q-326 0 -567 229l33 33q227 -221 538 -222q199 0 320 96t121 242v4q1 135 -101 213q-102 77 -368 131t-378 140t-112 237v4q0 152 133 260t334 107q274 0 487 -164l-28 -37q-211 160 -463 160q-182 0 -300 -96t-118 -227
v-5q-1 -133 101 -209t369 -129t378 -143t111 -239v-5q0 -164 -134 -272t-356 -108z" />
    <glyph glyph-name="sacute" unicode="&#x15b;" horiz-adv-x="1003" 
d="M479 1219l178 231l50 -23l-199 -208h-29zM504 -18q-233 0 -414 151l27 35q174 -145 389 -145q139 1 231 65t92 162v4q0 126 -148 187q-56 24 -87 33t-100 30q-186 53 -273 108q-86 55 -86 166v4q0 111 99 186q99 74 275 74t339 -114l-25 -37q-156 111 -331 110
q-136 0 -224 -62t-88 -155v-4q0 -92 82 -141t199 -81t199 -59q82 -26 128 -68q86 -79 86 -175v-4q0 -118 -104 -194t-266 -76z" />
    <glyph glyph-name="Scedilla" unicode="&#x15e;" horiz-adv-x="1314" 
d="M1133 358v4q1 135 -101 213q-102 77 -368 131t-378 140t-112 237v4q0 152 133 260t334 107q274 0 487 -164l-28 -37q-211 160 -463 160q-182 0 -300 -96t-118 -227v-5q-1 -133 101 -209t369 -129t378 -143t111 -239v-5q0 -162 -131 -270t-349 -110l-145 -269l-45 23
l158 246q-315 10 -545 229l33 33q227 -221 538 -222q199 0 320 96t121 242z" />
    <glyph glyph-name="scedilla" unicode="&#x15f;" horiz-adv-x="1003" 
d="M506 23q139 1 231 65t92 162v4q0 126 -148 187q-56 24 -87 33t-100 30q-186 53 -273 108q-86 55 -86 166v4q0 111 99 186q99 74 275 74t339 -114l-25 -37q-156 111 -331 110q-136 0 -224 -62t-88 -155v-4q0 -92 82 -141t199 -81t199 -59q82 -26 128 -68q86 -79 86 -175
v-4q0 -117 -101 -192t-257 -78l-147 -271l-45 23l159 248q-227 10 -393 151l27 35q174 -145 389 -145z" />
    <glyph glyph-name="Scaron" unicode="&#x160;" horiz-adv-x="1314" 
d="M913 1776l-217 -199h-37l-217 199h43l193 -154l192 154h43zM688 -20q-326 0 -567 229l33 33q227 -221 538 -222q199 0 320 96t121 242v4q1 135 -101 213q-102 77 -368 131t-378 140t-112 237v4q0 152 133 260t334 107q274 0 487 -164l-28 -37q-211 160 -463 160
q-182 0 -300 -96t-118 -227v-5q-1 -133 101 -209t369 -129t378 -143t111 -239v-5q0 -164 -134 -272t-356 -108z" />
    <glyph glyph-name="scaron" unicode="&#x161;" horiz-adv-x="1003" 
d="M733 1448l-215 -229h-29l-215 229h37l193 -178l192 178h37zM504 -18q-233 0 -414 151l27 35q174 -145 389 -145q139 1 231 65t92 162v4q0 126 -148 187q-56 24 -87 33t-100 30q-186 53 -273 108q-86 55 -86 166v4q0 111 99 186q99 74 275 74t339 -114l-25 -37
q-156 111 -331 110q-136 0 -224 -62t-88 -155v-4q0 -92 82 -141t199 -81t199 -59q82 -26 128 -68q86 -79 86 -175v-4q0 -118 -104 -194t-266 -76z" />
    <glyph glyph-name="Tcommaaccent" unicode="&#x162;" horiz-adv-x="1191" 
d="M557 -248v96h74v-43q1 -84 -17 -122t-59 -56l-14 27q47 23 53 98h-37zM573 0v1393h-518v41h1082v-41h-519v-1393h-45z" />
    <glyph glyph-name="tcommaaccent" unicode="&#x163;" horiz-adv-x="763" 
d="M389 -258v96h74v-43q1 -84 -17 -122t-59 -56l-14 27q47 23 53 98h-37zM508 -18q-127 0 -195 72t-67 208v723h-162v39h162v354h43v-354h379v-39h-379v-719q0 -117 55 -180q54 -63 150 -63t170 36v-45q-72 -32 -156 -32z" />
    <glyph glyph-name="Tcaron" unicode="&#x164;" horiz-adv-x="1191" 
d="M831 1765l-217 -198h-36l-218 198h43l193 -153l192 153h43zM573 0v1393h-518v41h1082v-41h-519v-1393h-45z" />
    <glyph glyph-name="tcaron" unicode="&#x165;" horiz-adv-x="763" 
d="M631 1501v-4l-62 -301h-24l35 305h51zM508 -18q-127 0 -195 72t-67 208v723h-162v39h162v354h43v-354h379v-39h-379v-719q0 -117 55 -180q54 -63 150 -63t170 36v-45q-72 -32 -156 -32z" />
    <glyph glyph-name="Umacron" unicode="&#x16a;" horiz-adv-x="1540" 
d="M492 1610v41h557v-41h-557zM771 -23q-265 0 -423 168t-158 490v799h46v-799q0 -301 145 -459t392 -158t389 157t143 458v801h45v-799q0 -322 -157 -490t-422 -168z" />
    <glyph glyph-name="umacron" unicode="&#x16b;" horiz-adv-x="1245" 
d="M346 1262v38h533v-38h-533zM600 -25q-206 0 -318 127t-112 342v580h43v-575q0 -197 101 -315q100 -118 280 -118t299 128t119 313v567h43v-1024h-43v281q-30 -113 -138 -209t-274 -97z" />
    <glyph glyph-name="Ubreve" unicode="&#x16c;" horiz-adv-x="1540" 
d="M769 1554q-111 0 -177 48t-80 124h35q39 -131 222 -131t224 131h35q-16 -78 -82 -125t-177 -47zM771 -23q-265 0 -423 168t-158 490v799h46v-799q0 -301 145 -459t392 -158t389 157t143 458v801h45v-799q0 -322 -157 -490t-422 -168z" />
    <glyph glyph-name="ubreve" unicode="&#x16d;" horiz-adv-x="1245" 
d="M611 1206q-111 0 -177 56t-78 147h33q13 -68 71 -116t153 -48t152 48q56 48 71 116h32q-12 -87 -78 -145t-179 -58zM600 -25q-206 0 -318 127t-112 342v580h43v-575q0 -197 101 -315q100 -118 280 -118t299 128t119 313v567h43v-1024h-43v281q-30 -113 -138 -209
t-274 -97z" />
    <glyph glyph-name="Uring" unicode="&#x16e;" horiz-adv-x="1540" 
d="M602 1714q0 -66 49 -106t119 -41q70 0 119 41q49 40 49 106t-49 107t-119 41t-119 -41t-49 -107zM563 1714q1 78 61 129t146 51t146 -51t60 -129t-60 -129t-146 -51t-146 51t-61 129zM771 -23q-265 0 -423 168t-158 490v799h46v-799q0 -301 145 -459t392 -158t389 157
t143 458v801h45v-799q0 -322 -157 -490t-422 -168z" />
    <glyph glyph-name="uring" unicode="&#x16f;" horiz-adv-x="1245" 
d="M451 1376q0 -66 47 -112q46 -46 114 -45q68 0 115 46q47 45 47 111t-47 112t-115 46t-114 -46t-47 -112zM414 1376q0 78 58 134t140 56t140 -56t59 -134q0 -78 -58 -134q-59 -56 -141 -56t-140 56t-58 134zM600 -25q-206 0 -318 127t-112 342v580h43v-575
q0 -197 101 -315q100 -118 280 -118t299 128t119 313v567h43v-1024h-43v281q-30 -113 -138 -209t-274 -97z" />
    <glyph glyph-name="Uhungarumlaut" unicode="&#x170;" horiz-adv-x="1540" 
d="M856 1556l203 203l47 -24l-213 -179h-37zM608 1556l203 203l47 -24l-213 -179h-37zM771 -23q-265 0 -423 168t-158 490v799h46v-799q0 -301 145 -459t392 -158t389 157t143 458v801h45v-799q0 -322 -157 -490t-422 -168z" />
    <glyph glyph-name="uhungarumlaut" unicode="&#x171;" horiz-adv-x="1245" 
d="M471 1208l178 232l49 -23l-198 -209h-29zM678 1208l178 232l49 -23l-198 -209h-29zM600 -25q-206 0 -318 127t-112 342v580h43v-575q0 -197 101 -315q100 -118 280 -118t299 128t119 313v567h43v-1024h-43v281q-30 -113 -138 -209t-274 -97z" />
    <glyph glyph-name="Uogonek" unicode="&#x172;" horiz-adv-x="1540" 
d="M881 -326q-98 0 -162 43q-63 43 -63 117t85 143q-254 11 -402 179t-149 479v799h46v-799q0 -301 145 -459t391 -158h25l10 7l4 -7q229 12 361 169t133 446v801h45v-799q0 -315 -151 -483t-408 -175q-88 -68 -89 -147q0 -51 46 -84t133 -39v-33z" />
    <glyph glyph-name="uogonek" unicode="&#x173;" horiz-adv-x="1245" 
d="M1106 -326q-98 0 -162 43q-63 43 -63 109q0 100 131 184v271q-31 -113 -139 -209t-273 -97q-206 0 -318 127t-112 342v580h43v-575q0 -197 101 -315q100 -118 280 -118t299 128t119 313v567h43v-1024h-8q-119 -78 -119 -170q0 -51 46 -84t132 -39v-33z" />
    <glyph glyph-name="Wcircumflex" unicode="&#x174;" horiz-adv-x="2082" 
d="M805 1567l217 198h37l217 -198h-43l-193 153l-192 -153h-43zM567 -10l-477 1444h47l451 -1373l436 1377h35l438 -1379l451 1375h45l-477 -1444h-39l-437 1364l-434 -1364h-39z" />
    <glyph glyph-name="wcircumflex" unicode="&#x175;" horiz-adv-x="1646" 
d="M594 1219l215 229h29l215 -229h-37l-193 178l-192 -178h-37zM457 -8l-359 1032h45l330 -967l334 973h35l332 -973l331 967h43l-358 -1032h-35l-332 975l-331 -975h-35z" />
    <glyph glyph-name="Ycircumflex" unicode="&#x176;" horiz-adv-x="1345" 
d="M436 1556l217 199h37l217 -199h-43l-192 154l-193 -154h-43zM651 0v600l-606 834h53l578 -795l571 795h53l-604 -834v-600h-45z" />
    <glyph glyph-name="ycircumflex" unicode="&#x177;" horiz-adv-x="1165" 
d="M356 1208l215 230h29l215 -230h-37l-192 178l-193 -178h-37zM284 -334q-103 0 -194 55l21 35q86 -51 175 -51t150 58t144 237l-494 1024h47l467 -979l440 979h45l-475 -1044q-86 -188 -154 -251t-172 -63z" />
    <glyph glyph-name="Ydieresis" unicode="&#x178;" horiz-adv-x="1345" 
d="M489 1595v103h78v-103h-78zM776 1595v103h78v-103h-78zM651 0v600l-606 834h53l578 -795l571 795h53l-604 -834v-600h-45z" />
    <glyph glyph-name="Zacute" unicode="&#x179;" horiz-adv-x="1388" 
d="M680 1567l203 202l47 -24l-213 -178h-37zM135 0v27l1039 1366h-1004v41h1067v-27l-1038 -1366h1032v-41h-1096z" />
    <glyph glyph-name="zacute" unicode="&#x17a;" horiz-adv-x="997" 
d="M489 1219l179 231l49 -23l-199 -208h-29zM74 0v25l780 960h-756v39h820v-25l-781 -960h785v-39h-848z" />
    <glyph glyph-name="Zdotaccent" unicode="&#x17b;" horiz-adv-x="1388" 
d="M668 1606v102h77v-102h-77zM135 0v27l1039 1366h-1004v41h1067v-27l-1038 -1366h1032v-41h-1096z" />
    <glyph glyph-name="zdotaccent" unicode="&#x17c;" horiz-adv-x="997" 
d="M477 1257v103h74v-103h-74zM74 0v25l780 960h-756v39h820v-25l-781 -960h785v-39h-848z" />
    <glyph glyph-name="Zcaron" unicode="&#x17d;" horiz-adv-x="1388" 
d="M942 1765l-217 -198h-37l-217 198h43l193 -153l192 153h43zM135 0v27l1039 1366h-1004v41h1067v-27l-1038 -1366h1032v-41h-1096z" />
    <glyph glyph-name="zcaron" unicode="&#x17e;" horiz-adv-x="997" 
d="M743 1448l-215 -229h-28l-215 229h37l192 -178l193 178h36zM74 0v25l780 960h-756v39h820v-25l-781 -960h785v-39h-848z" />
    <glyph glyph-name="florin" unicode="&#x192;" horiz-adv-x="950" 
d="M125 -8q-41 0 -80 8v41q33 -8 95 -8t113 52q50 52 75 185l102 549h-227v41h235l56 295q53 287 274 287q47 0 115 -19v-43q-66 18 -113 19q-94 1 -152 -59t-86 -205l-51 -275h322v-41h-330l-104 -559q-29 -154 -89 -211t-155 -57z" />
    <glyph glyph-name="Aringacute" unicode="&#x1fa;" horiz-adv-x="1570" 
d="M754 1810l184 172l45 -24l-188 -148h-41zM616 1567q0 -66 50 -107t118 -41q70 0 119 41t49 107q0 67 -49 107t-119 40t-119 -40t-49 -107zM348 471h873l-437 913zM578 1572q0 73 60 124t146 51t146 -51t61 -123q0 -72 -46 -121t-116 -61l666 -1391h-49l-205 430h-913
l-205 -430h-47l663 1391q-73 12 -117 60t-44 121z" />
    <glyph glyph-name="aringacute" unicode="&#x1fb;" horiz-adv-x="1159" 
d="M422 1407q0 -66 47 -112t115 -46t114 46t47 112q0 66 -47 112q-46 46 -114 46t-115 -46t-47 -112zM385 1407q0 78 58 134q59 56 141 56t140 -56t58 -134t-58 -134t-140 -56t-141 56q-58 56 -58 134zM489 16q199 0 328 108t129 251v131q-174 66 -370 66t-311 -74
q-116 -74 -115 -209v-4q0 -129 98 -199t241 -70zM497 -25q-169 0 -281 81t-112 227v4q0 157 128 241t333 84t381 -63v86q0 182 -101 273t-275 91t-351 -86l-16 37q185 90 379 90t300 -106t107 -297v-637h-43v242q-37 -104 -158 -186t-291 -81zM557 1683l180 191l47 -23
l-194 -168h-33z" />
    <glyph glyph-name="AEacute" unicode="&#x1fc;" horiz-adv-x="2076" 
d="M1214 1567l203 202l47 -24l-213 -178h-37zM967 471v922h-25l-592 -922h617zM1937 1434v-41h-925v-652h837v-41h-837v-659h936v-41h-981v430h-643l-275 -430h-49l920 1434h1017z" />
    <glyph glyph-name="aeacute" unicode="&#x1fd;" horiz-adv-x="2007" 
d="M975 1219l178 231l49 -23l-198 -208h-29zM508 16q158 0 288 76t187 182q-47 104 -47 236q-168 61 -362 61q-194 1 -309 -73q-116 -74 -115 -209v-4q0 -131 100 -200t258 -69zM979 539h868q-6 188 -120 328q-114 141 -304 141t-313 -133t-131 -336zM505 -25
q-173 0 -287 80t-114 228v4q0 157 128 241t332 84t372 -61q10 82 12 88q-4 182 -105 271t-273 89t-351 -86l-16 37q184 90 358 90q362 0 414 -305q55 143 174 229t274 85q225 0 349 -164t122 -377v-8h-915q6 -215 139 -349t324 -135q244 0 385 189l33 -25
q-150 -205 -420 -205q-139 0 -256 69t-183 189q-61 -102 -192 -180t-304 -78z" />
    <glyph glyph-name="Oslashacute" unicode="&#x1fe;" horiz-adv-x="1724" 
d="M836 1577l202 203l47 -25l-213 -178h-36zM195 717q0 -293 182 -494l942 1014q-186 180 -469 180t-469 -206t-186 -490v-4zM874 16q284 0 469 206q186 206 187 491v4q0 293 -182 491l-945 -1011q187 -181 471 -181zM1575 719v-4q0 -303 -199 -521t-503 -218t-498 190
l-164 -176h-53l190 203q-199 215 -198 522v4q0 303 198 521q199 218 500 218t502 -190l163 176h54l-191 -205q199 -211 199 -520z" />
    <glyph glyph-name="oslashacute" unicode="&#x1ff;" horiz-adv-x="1298" 
d="M633 1219l178 231l49 -23l-198 -208h-29zM658 16q206 0 342 144t137 350v4q0 201 -131 344l-687 -719q133 -123 339 -123zM162 510q0 -205 131 -346l686 719q-135 125 -340 125t-341 -144t-136 -350v-4zM1182 512q0 -221 -148 -379t-372 -158t-373 134l-113 -119h-51
l139 145q-147 152 -147 373v4q0 221 148 379q149 158 371 158t374 -136l137 146h51l-164 -172q147 -152 148 -371v-4z" />
    <glyph glyph-name="Scommaaccent" unicode="&#x218;" horiz-adv-x="1314" 
d="M639 -258v96h74v-43q1 -84 -17 -122t-59 -56l-14 27q47 23 53 98h-37zM688 -20q-326 0 -567 229l33 33q227 -221 538 -222q199 0 320 96t121 242v4q1 135 -101 213q-102 77 -368 131t-378 140t-112 237v4q0 152 133 260t334 107q274 0 487 -164l-28 -37
q-211 160 -463 160q-182 0 -300 -96t-118 -227v-5q-1 -133 101 -209t369 -129t378 -143t111 -239v-5q0 -164 -134 -272t-356 -108z" />
    <glyph glyph-name="scommaaccent" unicode="&#x219;" horiz-adv-x="1003" 
d="M465 -258v96h74v-43q1 -84 -17 -122t-59 -56l-14 27q47 23 53 98h-37zM504 -18q-233 0 -414 151l27 35q174 -145 389 -145q139 1 231 65t92 162v4q0 126 -148 187q-56 24 -87 33t-100 30q-186 53 -273 108q-86 55 -86 166v4q0 111 99 186q99 74 275 74t339 -114l-25 -37
q-156 111 -331 110q-136 0 -224 -62t-88 -155v-4q0 -92 82 -141t199 -81t199 -59q82 -26 128 -68q86 -79 86 -175v-4q0 -118 -104 -194t-266 -76z" />
    <glyph glyph-name="schwa" unicode="&#x259;" horiz-adv-x="1193" 
d="M1028 485h-868q6 -188 120 -328q114 -141 304 -141t313 133t131 336zM563 1049q217 1 365 -147t147 -390v-4q0 -227 -139 -380t-358 -153t-342 164t-123 377v8h915q-6 217 -140 350t-327 134q-113 0 -213 -58t-166 -149l-35 24q71 100 179 162t237 62z" />
    <glyph glyph-name="circumflex" unicode="&#x2c6;" 
d="M283 1219l215 229h28l215 -229h-36l-193 178l-193 -178h-36z" />
    <glyph glyph-name="caron" unicode="&#x2c7;" 
d="M741 1448l-215 -229h-28l-215 229h36l193 -178l193 178h36z" />
    <glyph glyph-name="breve" unicode="&#x2d8;" 
d="M511 1217q-111 0 -177 56t-78 146h33q14 -67 71 -115q56 -48 152 -48t152 48t71 115h33q-12 -88 -78 -145t-179 -57z" />
    <glyph glyph-name="dotaccent" unicode="&#x2d9;" 
d="M475 1257v103h74v-103h-74z" />
    <glyph glyph-name="ring" unicode="&#x2da;" 
d="M350 1407q0 -66 47 -112t115 -46t115 46t47 112t-47 112t-115 46t-115 -46t-47 -112zM313 1407q1 78 59 134t140 56t140 -56t58 -134t-58 -134t-140 -56t-140 56t-59 134z" />
    <glyph glyph-name="ogonek" unicode="&#x2db;" 
d="M664 -326q-98 0 -162 43q-63 43 -64 109q0 104 152 199l18 -23q-123 -82 -123 -172q0 -51 46 -84t133 -39v-33z" />
    <glyph glyph-name="tilde" unicode="&#x2dc;" 
d="M381 1401q43 1 138 -59t128 -60q78 0 117 129l27 -6q-35 -164 -148 -164q-43 0 -138 59t-128 60q-78 0 -117 -129l-27 6q35 164 148 164z" />
    <glyph glyph-name="hungarumlaut" unicode="&#x2dd;" 
d="M283 1219l178 231l49 -23l-199 -208h-28zM489 1219l179 231l49 -23l-199 -208h-29z" />
    <glyph glyph-name="commaaccent" unicode="&#x326;" 
d="M475 -248v96h74v-43q1 -84 -17 -122t-59 -56l-14 27q47 23 53 98h-37z" />
    <glyph glyph-name="Wgrave" unicode="&#x1e80;" horiz-adv-x="2082" 
d="M864 1769l203 -202h-37l-213 178zM567 -10l-477 1444h47l451 -1373l436 1377h35l438 -1379l451 1375h45l-477 -1444h-39l-437 1364l-434 -1364h-39z" />
    <glyph glyph-name="wgrave" unicode="&#x1e81;" horiz-adv-x="1646" 
d="M819 1219l-198 208l49 23l178 -231h-29zM457 -8l-359 1032h45l330 -967l334 973h35l332 -973l331 967h43l-358 -1032h-35l-332 975l-331 -975h-35z" />
    <glyph glyph-name="Wacute" unicode="&#x1e82;" horiz-adv-x="2082" 
d="M1014 1567l203 202l47 -24l-213 -178h-37zM567 -10l-477 1444h47l451 -1373l436 1377h35l438 -1379l451 1375h45l-477 -1444h-39l-437 1364l-434 -1364h-39z" />
    <glyph glyph-name="wacute" unicode="&#x1e83;" horiz-adv-x="1646" 
d="M799 1219l178 231l49 -23l-199 -208h-28zM457 -8l-359 1032h45l330 -967l334 973h35l332 -973l331 967h43l-358 -1032h-35l-332 975l-331 -975h-35z" />
    <glyph glyph-name="Wdieresis" unicode="&#x1e84;" horiz-adv-x="2082" 
d="M858 1606v102h78v-102h-78zM1145 1606v102h78v-102h-78zM567 -10l-477 1444h47l451 -1373l436 1377h35l438 -1379l451 1375h45l-477 -1444h-39l-437 1364l-434 -1364h-39z" />
    <glyph glyph-name="wdieresis" unicode="&#x1e85;" horiz-adv-x="1646" 
d="M653 1257v103h74v-103h-74zM920 1257v103h73v-103h-73zM457 -8l-359 1032h45l330 -967l334 973h35l332 -973l331 967h43l-358 -1032h-35l-332 975l-331 -975h-35z" />
    <glyph glyph-name="Ygrave" unicode="&#x1ef2;" horiz-adv-x="1345" 
d="M496 1759l202 -203h-36l-213 179zM651 0v600l-606 834h53l578 -795l571 795h53l-604 -834v-600h-45z" />
    <glyph glyph-name="ygrave" unicode="&#x1ef3;" horiz-adv-x="1165" 
d="M582 1208l-199 209l49 23l178 -232h-28zM284 -334q-103 0 -194 55l21 35q86 -51 175 -51t150 58t144 237l-494 1024h47l467 -979l440 979h45l-475 -1044q-86 -188 -154 -251t-172 -63z" />
    <glyph glyph-name="enspace" unicode="&#x2002;" 
 />
    <glyph glyph-name="emspace" unicode="&#x2003;" horiz-adv-x="2048" 
 />
    <glyph glyph-name="threeperemspace" unicode="&#x2004;" horiz-adv-x="681" 
 />
    <glyph glyph-name="fourperemspace" unicode="&#x2005;" horiz-adv-x="512" 
 />
    <glyph glyph-name="thinspace" unicode="&#x2009;" horiz-adv-x="272" 
 />
    <glyph glyph-name="hairspace" unicode="&#x200a;" horiz-adv-x="153" 
 />
    <glyph glyph-name="endash" unicode="&#x2013;" horiz-adv-x="1101" 
d="M143 588v41h815v-41h-815z" />
    <glyph glyph-name="emdash" unicode="&#x2014;" horiz-adv-x="1830" 
d="M143 588v41h1545v-41h-1545z" />
    <glyph glyph-name="quoteleft" unicode="&#x2018;" horiz-adv-x="335" 
d="M131 1167v95q0 84 17 122t59 56l14 -27q-57 -27 -53 -139h37v-107h-74z" />
    <glyph glyph-name="quoteright" unicode="&#x2019;" horiz-adv-x="335" 
d="M131 1327v107h74v-95q1 -84 -17 -122t-59 -56l-14 27q57 27 53 139h-37z" />
    <glyph glyph-name="quotesinglbase" unicode="&#x201a;" horiz-adv-x="335" 
d="M131 0v106h74v-94q1 -84 -17 -122t-59 -56l-14 27q57 27 53 139h-37z" />
    <glyph glyph-name="quotedblleft" unicode="&#x201c;" horiz-adv-x="520" 
d="M131 1167v95q0 84 17 122t59 56l14 -27q-57 -27 -53 -139h37v-107h-74zM315 1167v95q-1 84 17 122t59 56l15 -27q-57 -27 -54 -139h37v-107h-74z" />
    <glyph glyph-name="quotedblright" unicode="&#x201d;" horiz-adv-x="520" 
d="M131 1327v107h74v-95q1 -84 -17 -122t-59 -56l-14 27q57 27 53 139h-37zM315 1327v107h74v-95q1 -84 -17 -122t-59 -56l-14 27q57 27 53 139h-37z" />
    <glyph glyph-name="quotedblbase" unicode="&#x201e;" horiz-adv-x="520" 
d="M131 0v106h74v-94q1 -84 -17 -122t-59 -56l-14 27q57 27 53 139h-37zM315 0v106h74v-94q1 -84 -17 -122t-59 -56l-14 27q57 27 53 139h-37z" />
    <glyph glyph-name="dagger" unicode="&#x2020;" horiz-adv-x="794" 
d="M373 487l12 609l-256 -13v45l256 -12l-10 318h45l-10 -318l256 12v-45l-256 13l12 -609h-49z" />
    <glyph glyph-name="daggerdbl" unicode="&#x2021;" horiz-adv-x="794" 
d="M375 0l10 317l-256 -12v45l256 -12l-10 379l10 379l-256 -13v45l256 -12l-10 318h45l-10 -318l256 12v-45l-256 13l10 -379l-10 -379l256 12v-45l-256 12l10 -317h-45z" />
    <glyph glyph-name="bullet" unicode="&#x2022;" horiz-adv-x="880" 
d="M442 508q-90 0 -153 62t-64 151v4q-1 89 63 151t154 62t154 -62t63 -151v-4q0 -88 -63 -151q-64 -62 -154 -62z" />
    <glyph glyph-name="ellipsis" unicode="&#x2026;" horiz-adv-x="991" 
d="M131 0v106h74v-106h-74zM459 0v106h73v-106h-73zM786 0v106h74v-106h-74z" />
    <glyph glyph-name="perthousand" unicode="&#x2030;" horiz-adv-x="2385" 
d="M1200 23q121 0 196 95t74 230v4q0 133 -76 232q-77 98 -198 98t-196 -96t-74 -230v-4q0 -133 76 -231t198 -98zM1960 23q121 0 196 95t74 230v4q0 134 -77 232t-197 98t-196 -96q-75 -96 -74 -230v-4q0 -133 76 -231t198 -98zM430 752q121 0 196 95t74 230v4
q0 133 -76 232q-77 98 -198 98t-196 -96t-74 -230v-4q0 -133 76 -231t198 -98zM1516 350q0 -152 -88 -259t-229 -107q-140 0 -229 108t-89 258v4q0 150 89 258t228 109q139 0 228 -109t90 -258v-4zM1959 -16q-140 0 -229 108t-90 258v4q0 150 90 258t228 109q139 0 228 -109
t89 -258v-4q0 -152 -88 -259t-228 -107zM264 0l1053 1434h45l-1053 -1434h-45zM429 713q-140 1 -229 109t-89 257v4q0 151 89 259t228 108t228 -109t89 -258v-4q0 -152 -88 -259t-228 -107z" />
    <glyph glyph-name="guilsinglleft" unicode="&#x2039;" horiz-adv-x="598" 
d="M451 96l-361 420v12l361 420l24 -20l-336 -406l336 -405z" />
    <glyph glyph-name="guilsinglright" unicode="&#x203a;" horiz-adv-x="598" 
d="M147 96l-24 21l336 405l-336 406l24 20l361 -420v-12z" />
    <glyph glyph-name="fraction" unicode="&#x2044;" horiz-adv-x="921" 
d="M-53 0l499 727l478 707h51l-500 -727l-477 -707h-51z" />
    <glyph glyph-name="Euro" unicode="&#x20ac;" horiz-adv-x="1474" 
d="M854 1417q-186 0 -324 -138t-190 -357h639v-41h-647q-29 -154 -6 -308h653v-41h-645q43 -233 187 -374t347 -142q268 0 443 289l37 -20q-186 -309 -480 -310q-220 0 -376 152t-201 405h-191v41h185q-21 152 4 308h-189v41h197q49 238 201 388t356 148q311 0 489 -291
l-38 -22q-166 272 -451 272z" />
    <glyph glyph-name="published" unicode="&#x2117;" horiz-adv-x="1699" 
d="M672 659h221q117 1 185 53t69 142v4q0 90 -67 141t-181 52h-227v-392zM633 338v749h268q131 0 208 -60t77 -165v-4q0 -111 -82 -173t-211 -62h-221v-285h-39zM850 10q291 0 498 207t206 498v4q0 291 -206 498q-207 207 -498 207t-498 -208q-207 -206 -207 -497v-4
q0 -291 207 -498t498 -207zM850 -25q-307 -1 -524 217t-217 523v4q0 305 217 522t524 217t524 -217t217 -522v-4q0 -305 -217 -523t-524 -217z" />
    <glyph glyph-name="servicemark" unicode="&#x2120;" horiz-adv-x="1396" 
d="M322 793q-141 0 -252 100l20 22q102 -96 234 -96q78 0 129 41q51 40 51 100t-41 92t-156 56t-165 62q-50 40 -50 110t60 117t164 47t200 -74l-18 -24q-94 72 -186 72t-140 -41q-49 -40 -49 -96t44 -89q44 -32 160 -58q115 -26 161 -65t46 -109t-60 -119q-60 -48 -152 -48
zM709 803v631h28l264 -383l267 383h28v-631h-30v573l-265 -377h-2l-260 377v-573h-30z" />
    <glyph glyph-name="trademark" unicode="&#x2122;" horiz-adv-x="1343" 
d="M260 803v600h-225v31h481v-31h-225v-600h-31zM655 803v631h29l264 -383l266 383h29v-631h-31v573l-264 -377h-2l-260 377v-573h-31z" />
    <glyph glyph-name="minus" unicode="&#x2212;" horiz-adv-x="1228" 
d="M1083 702h-938v37h938v-37z" />
    <glyph glyph-name="Q.alt" horiz-adv-x="1724" 
d="M865 16q292 0 478 206t187 491v4q0 285 -190 493t-481 207q-292 0 -478 -206t-186 -490v-4q0 -285 189 -493t481 -208zM862 -25q-315 1 -514 219t-198 521v4q0 303 198 521q199 218 514 218t514 -218t199 -521v-4q0 -182 -77 -342t-214 -262l334 -314v-4h-51l-316 293
q-172 -111 -389 -111z" />
    <glyph glyph-name="a.alt" horiz-adv-x="1341" 
d="M168 512q0 -208 131 -352t337 -144t340 144t134 350v4q0 203 -135 348q-135 146 -340 146t-336 -142t-131 -350v-4zM635 -25q-221 0 -367 155q-145 155 -145 380v4q0 225 145 380t367 155q174 1 301 -95t172 -247v317h43v-1024h-43v317q-45 -152 -172 -247t-301 -95z" />
    <glyph glyph-name="aacute.alt" horiz-adv-x="1341" 
d="M651 1219l178 231l50 -23l-199 -208h-29zM168 512q0 -208 131 -352t337 -144t340 144t134 350v4q0 203 -135 348q-135 146 -340 146t-336 -142t-131 -350v-4zM635 -25q-221 0 -367 155q-145 155 -145 380v4q0 225 145 380t367 155q174 1 301 -95t172 -247v317h43v-1024
h-43v317q-45 -152 -172 -247t-301 -95z" />
    <glyph glyph-name="abreve.alt" horiz-adv-x="1341" 
d="M675 1217q-111 0 -177 56t-78 146h33q14 -67 71 -115q56 -48 152 -48t152 48t71 115h33q-12 -88 -78 -145t-179 -57zM168 512q0 -208 131 -352t337 -144t340 144t134 350v4q0 203 -135 348q-135 146 -340 146t-336 -142t-131 -350v-4zM635 -25q-221 0 -367 155
q-145 155 -145 380v4q0 225 145 380t367 155q174 1 301 -95t172 -247v317h43v-1024h-43v317q-45 -152 -172 -247t-301 -95z" />
    <glyph glyph-name="acircumflex.alt" horiz-adv-x="1341" 
d="M446 1219l216 229h28l215 -229h-37l-192 178l-193 -178h-37zM168 512q0 -208 131 -352t337 -144t340 144t134 350v4q0 203 -135 348q-135 146 -340 146t-336 -142t-131 -350v-4zM635 -25q-221 0 -367 155q-145 155 -145 380v4q0 225 145 380t367 155q174 1 301 -95
t172 -247v317h43v-1024h-43v317q-45 -152 -172 -247t-301 -95z" />
    <glyph glyph-name="adieresis.alt" horiz-adv-x="1341" 
d="M506 1257v103h74v-103h-74zM772 1257v103h74v-103h-74zM168 512q0 -208 131 -352t337 -144t340 144t134 350v4q0 203 -135 348q-135 146 -340 146t-336 -142t-131 -350v-4zM635 -25q-221 0 -367 155q-145 155 -145 380v4q0 225 145 380t367 155q174 1 301 -95t172 -247
v317h43v-1024h-43v317q-45 -152 -172 -247t-301 -95z" />
    <glyph glyph-name="agrave.alt" horiz-adv-x="1341" 
d="M672 1219l-199 208l49 23l178 -231h-28zM168 512q0 -208 131 -352t337 -144t340 144t134 350v4q0 203 -135 348q-135 146 -340 146t-336 -142t-131 -350v-4zM635 -25q-221 0 -367 155q-145 155 -145 380v4q0 225 145 380t367 155q174 1 301 -95t172 -247v317h43v-1024
h-43v317q-45 -152 -172 -247t-301 -95z" />
    <glyph glyph-name="amacron.alt" horiz-adv-x="1341" 
d="M410 1272v39h532v-39h-532zM168 512q0 -208 131 -352t337 -144t340 144t134 350v4q0 203 -135 348q-135 146 -340 146t-336 -142t-131 -350v-4zM635 -25q-221 0 -367 155q-145 155 -145 380v4q0 225 145 380t367 155q174 1 301 -95t172 -247v317h43v-1024h-43v317
q-45 -152 -172 -247t-301 -95z" />
    <glyph glyph-name="aogonek.alt" horiz-adv-x="1341" 
d="M168 512q0 -208 131 -352t337 -144t340 144t134 350v4q0 203 -135 348q-135 146 -340 146t-336 -142t-131 -350v-4zM1202 -326q-98 0 -162 43q-63 43 -63 109q0 100 131 184v307q-45 -153 -172 -247t-301 -95q-221 0 -367 155q-145 155 -145 380v4q0 225 145 380t367 155
q174 1 301 -95t172 -247v317h43v-1024h-8q-119 -78 -119 -170q0 -51 46 -84t132 -39v-33z" />
    <glyph glyph-name="aring.alt" horiz-adv-x="1341" 
d="M514 1407q0 -66 47 -112t115 -46t115 46t47 112t-47 112t-115 46t-115 -46t-47 -112zM477 1407q1 78 59 134t140 56t140 -56t58 -134t-58 -134t-140 -56t-140 56t-59 134zM168 512q0 -208 131 -352t337 -144t340 144t134 350v4q0 203 -135 348q-135 146 -340 146
t-336 -142t-131 -350v-4zM635 -25q-221 0 -367 155q-145 155 -145 380v4q0 225 145 380t367 155q174 1 301 -95t172 -247v317h43v-1024h-43v317q-45 -152 -172 -247t-301 -95z" />
    <glyph glyph-name="aring.alt2" horiz-adv-x="1159" 
d="M422 1198q0 -66 47 -112t115 -46t114 46t47 112q0 66 -47 112q-46 46 -114 46t-115 -46t-47 -112zM489 16q199 0 328 108t129 251v131q-174 66 -370 66t-311 -74q-116 -74 -115 -209v-4q0 -129 98 -199t241 -70zM385 1198q0 78 58 134q59 56 141 56t140 -56t58 -134
q0 -113 -104 -168q131 -23 211 -102q100 -100 100 -291v-637h-43v242q-37 -104 -158 -186t-291 -81q-169 0 -281 81t-112 227v4q0 157 128 241t333 84t381 -63v86q0 182 -101 273t-275 91t-351 -86l-16 37q143 70 276 86q-94 53 -94 162z" />
    <glyph glyph-name="aringacute.alt" horiz-adv-x="1341" 
d="M514 1407q0 -66 47 -112t115 -46t115 46t47 112t-47 112t-115 46t-115 -46t-47 -112zM477 1407q1 78 59 134t140 56t140 -56t58 -134t-58 -134t-140 -56t-140 56t-59 134zM168 512q0 -208 131 -352t337 -144t340 144t134 350v4q0 203 -135 348q-135 146 -340 146
t-336 -142t-131 -350v-4zM635 -25q-221 0 -367 155q-145 155 -145 380v4q0 225 145 380t367 155q174 1 301 -95t172 -247v317h43v-1024h-43v317q-45 -152 -172 -247t-301 -95zM649 1683l180 191l48 -23l-195 -168h-33z" />
    <glyph glyph-name="aringacute.alt2" horiz-adv-x="1159" 
d="M422 1198q0 -66 47 -112t115 -46t114 46t47 112q0 66 -47 112q-46 46 -114 46t-115 -46t-47 -112zM489 16q199 0 328 108t129 251v131q-174 66 -370 66t-311 -74q-116 -74 -115 -209v-4q0 -129 98 -199t241 -70zM385 1198q0 78 58 134q59 56 141 56t140 -56t58 -134
q0 -113 -104 -168q131 -23 211 -102q100 -100 100 -291v-637h-43v242q-37 -104 -158 -186t-291 -81q-169 0 -281 81t-112 227v4q0 157 128 241t333 84t381 -63v86q0 182 -101 273t-275 91t-351 -86l-16 37q143 70 276 86q-94 53 -94 162zM557 1475l180 190l47 -23l-194 -167
h-33z" />
    <glyph glyph-name="atilde.alt" horiz-adv-x="1341" 
d="M549 1401q43 1 138 -59t128 -60q78 0 117 129l26 -6q-35 -164 -147 -164q-43 0 -138 59t-128 60q-78 0 -117 -129l-27 6q35 164 148 164zM168 512q0 -208 131 -352t337 -144t340 144t134 350v4q0 203 -135 348q-135 146 -340 146t-336 -142t-131 -350v-4zM635 -25
q-221 0 -367 155q-145 155 -145 380v4q0 225 145 380t367 155q174 1 301 -95t172 -247v317h43v-1024h-43v317q-45 -152 -172 -247t-301 -95z" />
    <glyph glyph-name="three.alt" horiz-adv-x="1146" 
d="M575 -25q-322 0 -518 263l39 26q82 -112 207 -180t290 -68t290 98t125 261v4q0 166 -127 246t-340 80h-160v40h162q188 1 308 93t120 243v4q0 137 -117 235t-293 97q-270 0 -438 -252l-37 25q82 120 205 194t272 74q197 0 325 -108t128 -263v-4q0 -143 -95 -238
t-235 -116q162 -23 264 -107t103 -241v-4q-1 -174 -141 -288t-337 -114z" />
    <glyph glyph-name="registered.alt" horiz-adv-x="1699" 
d="M625 717h264q111 0 173 48t62 132v4q0 82 -62 128t-171 46h-266v-358zM584 362v750h311q141 0 205 -64t63 -145v-4q0 -92 -61 -147t-168 -68l248 -322h-49l-244 318h-264v-318h-41zM850 10q291 0 498 207t206 498v4q0 291 -206 498q-207 207 -498 207t-498 -208
q-207 -206 -207 -497v-4q0 -291 207 -498t498 -207zM850 -25q-307 -1 -524 217t-217 523v4q0 305 217 522t524 217t524 -217t217 -522v-4q0 -305 -217 -523t-524 -217z" />
    <glyph glyph-name="NUL" horiz-adv-x="0" 
 />
    <glyph glyph-name="hfjslug" horiz-adv-x="1421" 
d="M872 580q-33 0 -32 34q0 12 9 24t23 11q14 0 24 -11t9 -24q0 -34 -33 -34zM997 612h-22v35h22q20 0 21 -16q-1 -19 -21 -19zM659 823q-33 0 -33 45t33 78l41 -80q-16 -43 -41 -43zM645 1056q0 30 29 29q27 -1 27 -35t-31 -69q-25 45 -25 75zM494 662l28 -97h17l22 70h2
l23 -70h16l29 97h-17l-20 -72h-2l-23 72h-14l-23 -72h-2l-20 72h-16zM270 662v-95h17v66l51 -66h14v95h-16v-66l-51 66h-15zM395 662v-95h70v15h-53v26h47v15h-47v24h53v15h-70zM750 567h16v35l37 60h-19l-26 -46l-27 46h-18l37 -60v-35zM872 565q20 1 34 15q33 33 1 68
q-15 16 -35 16t-34 -16t-14 -34q0 -20 14 -34t34 -15zM1034 631q0 31 -35 31h-41v-95h17v31h24l21 -31h18l-24 35q20 8 20 29zM1071 662v-95h16v25l17 16l31 -41h20l-41 54l37 41h-21l-40 -50h-3v50h-16zM729 1047q0 63 -55 63q-25 0 -41 -18q-35 -39 12 -125
q-47 -37 -47 -83q0 -91 59 -89q39 0 60 49h2l24 -49l25 12l-35 65q13 29 27 80l-27 6q-8 -37 -16 -61h-2l-33 64q47 43 47 86zM985 799q63 0 64 73v281h-33v-281q0 -45 -33 -45q-16 0 -41 11v-31q20 -8 43 -8zM377 1153v-352h31v162h96v-162h31v352h-31v-162h-96v162h-31z
M819 1153v-352h31v160h78v28h-78v135h88v29h-119zM1319 -410h-426l-16 29h-334l-17 -29h-424v621q29 0 48 19q18 19 18 46q0 26 -20 46t-46 20v1135h205l62 161h684l59 -161h207v-1887z" />
    <glyph glyph-name="i.dot" horiz-adv-x="448" 
d="M203 0v1024h43v-1024h-43zM193 1317v117h63v-117h-63z" />
    <glyph glyph-name="caron.alt" 
d="M557 1495v-4l-61 -301h-25l35 305h51z" />
    <glyph glyph-name="acute.cap" 
d="M420 1567l203 202l47 -24l-213 -178h-37z" />
    <glyph glyph-name="hungarumlaut.cap" 
d="M506 1567l203 202l47 -24l-213 -178h-37zM258 1567l203 202l47 -24l-213 -178h-37z" />
    <glyph glyph-name="grave.cap" 
d="M401 1769l203 -202h-37l-213 178z" />
    <glyph glyph-name="circumflex.cap" 
d="M276 1567l218 198h36l218 -198h-43l-193 153l-193 -153h-43z" />
    <glyph glyph-name="caron.cap" 
d="M748 1765l-218 -198h-36l-218 198h43l193 -153l193 153h43z" />
    <glyph glyph-name="breve.cap" 
d="M511 1565q-111 0 -177 47t-80 125h35q39 -131 222 -131t224 131h35q-16 -78 -82 -125t-177 -47z" />
    <glyph glyph-name="tilde.cap" 
d="M381 1737q43 1 138 -53t128 -54q78 0 117 117l27 -6q-35 -152 -148 -152q-43 0 -138 53t-128 54q-78 0 -117 -117l-27 6q35 152 148 152z" />
    <glyph glyph-name="macron.cap" 
d="M233 1620v41h558v-41h-558z" />
    <glyph glyph-name="dieresis.cap" 
d="M330 1606v102h78v-102h-78zM616 1606v102h78v-102h-78z" />
    <glyph glyph-name="dotaccent.cap" 
d="M473 1606v102h78v-102h-78z" />
    <glyph glyph-name="ring.cap" 
d="M344 1745q0 -66 49 -107t119 -41t119 41t49 107q0 67 -49 107t-119 40t-119 -40t-49 -107zM305 1745q1 78 61 129t146 51t146 -51t60 -129t-60 -129t-146 -51t-146 51t-61 129z" />
    </font>
</defs>
</svg>
