<?xml version="1.0" standalone="no"?>
<!DOCTYPE svg PUBLIC "-//W3C//DTD SVG 1.1//EN" "http://www.w3.org/Graphics/SVG/1.1/DTD/svg11.dtd" >
<svg xmlns="http://www.w3.org/2000/svg">
<metadata>
Created by FontPrep 20130207 at Wed Dec 14 14:35:18 2016
 By Denis Valcke
Copyright (C) 2000, 2007 Hoefler &#38; Frere-Jones. http://www.typography.com
</metadata>
<defs>
<font id="0c4f2df0933d5b98e3f6d69baea7ffe6" horiz-adv-x='1024' >
  <font-face 
    font-family="Gotham-ExtraLight"
    font-weight="275"
    font-stretch="normal"
    units-per-em="2048"
    panose-1="2 0 6 4 3 0 0 2 0 4"
    ascent="1638"
    descent="-410"
    x-height="1032"
    cap-height="1434"
    bbox="-61 -414 2304 1997"
    underline-thickness="40"
    underline-position="-231"
    unicode-range="U+0020-FB04"
  />
<missing-glyph 
d="M512 492l-367 -799h734zM922 1384l-353 -770l353 -770v1540zM102 -156l353 770l-353 770v-1540zM145 1536l367 -799l367 799h-734zM0 -410v2048h1024v-2048h-1024z" />
    <glyph glyph-name="f_f" unicode="ff" horiz-adv-x="1392" 
d="M258 0v973h-158v59h158v129q0 180 88 264q76 76 203 76q80 0 149 -26v-64q-68 27 -149 27q-225 0 -225 -283v-123h370v-59h-370v-973h-66zM954 0v973h-157v59h157v129q0 178 86 264q80 76 205 76q76 0 150 -26v-64q-68 27 -150 27q-225 0 -225 -283v-123h371v-59h-371
v-973h-66z" />
    <glyph glyph-name="fi" unicode="fi" horiz-adv-x="1169" 
d="M899 0v1032h66v-1032h-66zM258 0v973h-158v59h158v129q0 180 88 264q76 76 203 76q80 0 149 -26v-64q-68 27 -149 27q-225 0 -225 -283v-123h370v-59h-370v-973h-66zM889 1317v125h88v-125h-88z" />
    <glyph glyph-name="fl" unicode="fl" horiz-adv-x="1169" 
d="M899 0v1495h66v-1495h-66zM258 0v973h-158v59h158v129q0 180 88 264q76 76 203 76q80 0 149 -26v-64q-68 27 -149 27q-225 0 -225 -283v-123h370v-59h-370v-973h-66z" />
    <glyph glyph-name="f_f_i" unicode="ffi" horiz-adv-x="1865" 
d="M1595 0v1032h66v-1032h-66zM258 0v973h-158v59h158v129q0 180 88 264q76 76 203 76q80 0 149 -26v-64q-68 27 -149 27q-225 0 -225 -283v-123h370v-59h-370v-973h-66zM954 0v973h-157v59h157v129q0 178 86 264q80 76 205 76q76 0 150 -26v-64q-68 27 -150 27
q-225 0 -225 -283v-123h371v-59h-371v-973h-66zM1585 1317v125h88v-125h-88z" />
    <glyph glyph-name="f_f_l" unicode="ffl" horiz-adv-x="1865" 
d="M1595 0v1495h66v-1495h-66zM258 0v973h-158v59h158v129q0 180 88 264q76 76 203 76q80 0 149 -26v-64q-68 27 -149 27q-225 0 -225 -283v-123h370v-59h-370v-973h-66zM954 0v973h-157v59h157v129q0 178 86 264q80 76 205 76q76 0 150 -26v-64q-68 27 -150 27
q-225 0 -225 -283v-123h371v-59h-371v-973h-66z" />
    <glyph glyph-name=".notdef" 
d="M512 492l-367 -799h734zM922 1384l-353 -770l353 -770v1540zM102 -156l353 770l-353 770v-1540zM145 1536l367 -799l367 799h-734zM0 -410v2048h1024v-2048h-1024z" />
    <glyph glyph-name=".null" horiz-adv-x="0" 
 />
    <glyph glyph-name="nonmarkingreturn" horiz-adv-x="681" 
 />
    <glyph glyph-name="space" unicode=" " horiz-adv-x="589" 
 />
    <glyph glyph-name="exclam" unicode="!" horiz-adv-x="444" 
d="M174 0v133h98v-133h-98zM184 1434h76v-191l-20 -868h-35l-21 868v191z" />
    <glyph glyph-name="quotedbl" unicode="&#x22;" horiz-adv-x="708" 
d="M285 1434v-7l-117 -514h-39l72 521h84zM590 1434v-7l-117 -514h-39l72 521h84z" />
    <glyph glyph-name="numbersign" unicode="#" horiz-adv-x="1384" 
d="M416 461h463l90 522h-463zM100 399v64h250l90 520h-258v61h269l67 390h64l-66 -390h463l68 390h63l-68 -390h240v-61h-250l-88 -520h256v-64h-268l-68 -399h-63l67 399h-462l-70 -399h-64l68 399h-240z" />
    <glyph glyph-name="dollar" unicode="$" horiz-adv-x="1282" 
d="M676 59q176 0 280 87t105 223v4q0 127 -87 195t-298 118v-627zM254 1077v-4q0 -121 82 -189t280 -116v606q-162 -2 -262 -87t-100 -210zM614 -201v203q-272 20 -483 219l45 51q197 -190 440 -211v639q-225 52 -328 136t-104 233v4q0 152 121 254t309 105v120h64v-120
q225 -14 407 -168l-43 -54q-170 147 -366 162v-620q236 -50 346 -138t108 -237v-4q0 -164 -124 -269q-125 -104 -328 -104v-201h-64z" />
    <glyph glyph-name="percent" unicode="%" horiz-adv-x="1650" 
d="M1226 43q108 0 176 89t68 216v4q0 127 -70 218q-72 92 -180 92t-177 -90t-68 -216v-4q0 -129 72 -219q71 -90 179 -90zM432 772q108 0 176 89t68 216v4q0 127 -71 218t-179 91t-178 -90q-68 -90 -68 -215v-4q0 -129 72 -219t180 -90zM1223 -16q-139 0 -229 107
q-89 108 -89 257v4q0 150 89 258q88 108 228 109q140 0 229 -109t89 -256v-4q0 -150 -89 -258t-228 -108zM264 0l1053 1434h69l-1052 -1434h-70zM428 715q-139 -1 -228 107t-89 257v4q0 151 89 259t228 108t228 -109t89 -256v-4q0 -150 -89 -258t-228 -108z" />
    <glyph glyph-name="ampersand" unicode="&#x26;" horiz-adv-x="1388" 
d="M535 41q244 0 442 242l-445 469q-172 -70 -265 -160t-93 -225v-5q0 -133 102 -227t259 -94zM903 1155v4q0 96 -72 168q-71 72 -187 72t-190 -74t-75 -172v-4q0 -74 40 -149t140 -179q186 74 265 152t79 182zM535 -20q-186 0 -309 109q-122 110 -122 271v5q0 153 102 253
t283 179q-180 195 -180 348v4q0 125 94 217q93 92 239 92t238 -88t91 -209v-4q0 -121 -87 -210t-282 -169l416 -440q104 147 194 379l62 -23q-98 -248 -213 -403l256 -271l-51 -45l-246 263q-213 -258 -485 -258z" />
    <glyph glyph-name="quotesingle" unicode="'" horiz-adv-x="405" 
d="M285 1434v-7l-117 -514h-39l72 521h84z" />
    <glyph glyph-name="parenleft" unicode="(" horiz-adv-x="831" 
d="M211 588q0 -260 130 -472t378 -358l-29 -45q-268 152 -408 376q-140 225 -140 499t140 498t408 376l29 -45q-248 -145 -378 -357t-130 -472z" />
    <glyph glyph-name="parenright" unicode=")" horiz-adv-x="831" 
d="M690 588q0 -274 -140 -499q-141 -224 -409 -376l-28 45q247 146 377 358t131 472q-1 260 -131 472t-377 357l28 45q269 -152 409 -376t140 -498z" />
    <glyph glyph-name="asterisk" unicode="*" horiz-adv-x="880" 
d="M410 831l14 277l-231 -154l-33 56l252 125l-252 125l33 55l231 -154l-14 277h61l-14 -277l231 154l33 -55l-252 -125l252 -125l-33 -56l-231 154l14 -277h-61z" />
    <glyph glyph-name="plus" unicode="+" horiz-adv-x="1245" 
d="M590 231v459h-447v62h447v458h65v-458h447v-62h-447v-459h-65z" />
    <glyph glyph-name="comma" unicode="," horiz-adv-x="389" 
d="M145 0v133h99v-117q0 -90 -26 -134t-87 -68l-18 34q84 41 77 152h-45z" />
    <glyph glyph-name="hyphen" unicode="-" horiz-adv-x="811" 
d="M143 573v72h525v-72h-525z" />
    <glyph glyph-name="period" unicode="." horiz-adv-x="389" 
d="M145 0v133h99v-133h-99z" />
    <glyph glyph-name="slash" unicode="/" horiz-adv-x="989" 
d="M-37 -262l965 1896h67l-964 -1896h-68z" />
    <glyph glyph-name="zero" unicode="0" horiz-adv-x="1454" 
d="M729 39q236 0 376 199t140 475v4q0 276 -142 477t-378 201t-376 -198t-140 -476v-4q0 -276 142 -477t378 -201zM1317 715q0 -307 -162 -523t-429 -217q-267 0 -428 215t-161 525v4q0 307 162 523t429 216t428 -215t161 -524v-4z" />
    <glyph glyph-name="one" unicode="1" horiz-adv-x="661" 
d="M358 0v1368l-270 -108l-22 55l307 129h53v-1444h-68z" />
    <glyph glyph-name="two" unicode="2" horiz-adv-x="1179" 
d="M88 0v47l604 571q162 152 221 254t59 219t-102 209t-254 93q-268 0 -436 -281l-55 35q180 307 496 307q184 0 304 -108t119 -265v-4q0 -119 -64 -227t-243 -277l-536 -507h862v-66h-975z" />
    <glyph glyph-name="three" unicode="3" horiz-adv-x="1159" 
d="M575 -25q-326 0 -518 256l54 45q180 -238 467 -237q164 0 278 96t115 242v4q0 168 -135 253t-365 85h-59l-21 41l533 608h-791v66h885v-50l-526 -602q252 -4 400 -104t148 -295v-4q0 -174 -136 -289t-329 -115z" />
    <glyph glyph-name="four" unicode="4" horiz-adv-x="1306" 
d="M922 426v915l-750 -915h750zM922 0v365h-818l-22 49l846 1030h59v-1018h236v-61h-236v-365h-65z" />
    <glyph glyph-name="five" unicode="5" horiz-adv-x="1222" 
d="M608 -25q-139 0 -272 66t-221 164l51 49q195 -215 446 -215q184 -1 303 109t119 278v4q0 162 -120 264t-302 102t-356 -94l-49 29l41 703h780v-66h-717l-37 -588q162 78 359 78t334 -119t137 -307v-4q0 -199 -140 -326t-356 -127z" />
    <glyph glyph-name="six" unicode="6" horiz-adv-x="1294" 
d="M678 39q180 0 300 118t120 279v4q0 164 -122 272t-302 108t-304 -116q-124 -114 -124 -266v-4q0 -164 126 -280t306 -115zM1169 438q0 -193 -143 -328t-357 -135t-356 146q-174 170 -174 553v4q0 340 155 560t417 220q217 0 405 -166l-45 -53q-168 156 -366 156
q-225 0 -359 -201t-137 -516v-4q0 -88 2 -131q35 141 161 239t318 98t335 -123q144 -124 144 -315v-4z" />
    <glyph glyph-name="seven" unicode="7" horiz-adv-x="1136" 
d="M119 1368v66h940v-48l-686 -1386h-76l684 1368h-862z" />
    <glyph glyph-name="eight" unicode="8" horiz-adv-x="1286" 
d="M186 371q0 -137 126 -233t332 -95q206 0 331 94t125 232v4q0 143 -133 238t-326 95t-324 -94t-131 -237v-4zM240 1081q0 -137 118 -225t286 -88q169 0 285 86t115 225v4q0 131 -116 220q-117 88 -287 88t-286 -87t-115 -219v-4zM642 -20q-234 0 -381 112
q-146 112 -146 281v4q0 129 99 227t253 135q-135 43 -216 130t-81 210v4q0 159 138 265t335 106t335 -105t138 -266v-4q0 -123 -81 -210t-216 -130q154 -39 252 -136t98 -226v-4q0 -168 -146 -281q-147 -112 -381 -112z" />
    <glyph glyph-name="nine" unicode="9" horiz-adv-x="1294" 
d="M197 985q0 -167 122 -275t303 -108t304 116t123 271v4q0 168 -125 285q-126 117 -306 117t-301 -120t-120 -286v-4zM1157 754q1 -340 -157 -560t-400 -219q-242 0 -436 179l45 53q178 -168 391 -168t349 202t138 513v4q0 18 -1 64t-1 65q-35 -147 -161 -248
q-127 -100 -301 -100q-215 0 -357 126q-141 126 -141 318v4q0 197 143 334q142 137 354 137t361 -145q174 -174 174 -555v-4z" />
    <glyph glyph-name="colon" unicode=":" horiz-adv-x="403" 
d="M152 0v133h98v-133h-98zM152 899v133h98v-133h-98z" />
    <glyph glyph-name="semicolon" unicode=";" horiz-adv-x="403" 
d="M152 0v133h98v-117q0 -90 -26 -134t-87 -68l-18 34q84 41 78 152h-45zM152 899v133h98v-133h-98z" />
    <glyph glyph-name="less" unicode="&#x3c;" horiz-adv-x="1245" 
d="M1067 213l-946 485v45l946 486v-72l-856 -436l856 -436v-72z" />
    <glyph glyph-name="equal" unicode="=" horiz-adv-x="1245" 
d="M182 453v65h881v-65h-881zM182 926v65h881v-65h-881z" />
    <glyph glyph-name="greater" unicode="&#x3e;" horiz-adv-x="1245" 
d="M178 213v72l856 436l-856 436v72l946 -486v-45z" />
    <glyph glyph-name="question" unicode="?" horiz-adv-x="1050" 
d="M420 0v133h98v-133h-98zM874 1059q0 141 -102 236t-266 96q-240 0 -397 -230l-52 39q172 252 451 252q196 0 316 -112t120 -277v-4q0 -175 -127 -281t-313 -127l-17 -276h-38l-21 325l8 9q199 10 319 101t119 245v4z" />
    <glyph glyph-name="at" unicode="@" horiz-adv-x="1968" 
d="M916 223q138 0 252 128q112 127 112 271t-81 229t-202 85q-153 0 -265 -123t-111 -301q1 -135 79 -212t216 -77zM1010 -334q-379 0 -633 250t-254 626t252 646t614 270t610 -238t248 -563q-1 -245 -109 -371t-230 -126t-183 63t-72 162q-133 -225 -354 -225
q-150 0 -249 95t-99 253q0 205 136 348t310 143q117 0 200 -62t110 -161l34 185l64 -11l-74 -407q-14 -75 -14 -149t46 -128t136 -55q115 0 205 114t90 332q0 301 -232 527t-576 225q-344 0 -577 -255q-235 -255 -235 -611t239 -592t599 -236q268 0 489 138l25 -39
q-225 -148 -516 -148z" />
    <glyph glyph-name="A" unicode="A" horiz-adv-x="1589" 
d="M381 481h825l-413 881zM82 0l680 1444h65l680 -1444h-75l-195 418h-887l-196 -418h-72z" />
    <glyph glyph-name="B" unicode="B" horiz-adv-x="1482" 
d="M283 63h553q208 0 324 84t116 230v4q0 147 -119 229t-313 82h-561v-629zM283 756h534q168 0 276 81t107 230v4q0 137 -106 218t-293 81h-518v-614zM213 0v1434h590q250 0 375 -125q92 -92 92 -232v-4q0 -131 -74 -219t-190 -121q150 -27 246 -119t96 -231v-4
q0 -179 -138 -279t-376 -100h-621z" />
    <glyph glyph-name="C" unicode="C" horiz-adv-x="1497" 
d="M864 -25q-312 0 -513 214q-202 214 -201 524v4q0 307 202 524q203 217 506 217q184 0 307 -57t244 -170l-49 -51q-104 100 -222 157t-282 58q-270 0 -452 -198t-183 -478v-4q0 -281 183 -479t463 -197q280 0 501 229l49 -47q-241 -246 -553 -246z" />
    <glyph glyph-name="D" unicode="D" horiz-adv-x="1591" 
d="M283 63h399q303 1 496 187t192 463v4q0 276 -192 465q-193 188 -498 188h-397v-1307zM213 0v1434h467q334 0 548 -205t214 -510v-4q0 -305 -214 -510t-548 -205h-467z" />
    <glyph glyph-name="E" unicode="E" horiz-adv-x="1361" 
d="M213 0v1434h1010v-64h-940v-616h850v-64h-850v-627h950v-63h-1020z" />
    <glyph glyph-name="F" unicode="F" horiz-adv-x="1304" 
d="M213 0v1434h999v-64h-929v-635h839v-63h-839v-672h-70z" />
    <glyph glyph-name="G" unicode="G" horiz-adv-x="1599" 
d="M856 -25q-322 0 -514 212t-192 526v4q0 301 197 521q198 220 511 220q160 0 277 -46t231 -140l-45 -53q-104 86 -212 131t-255 45q-276 0 -454 -201t-179 -475v-4q0 -289 175 -484q174 -195 456 -195t502 185v441h-510v67h577v-534q-243 -220 -565 -220z" />
    <glyph glyph-name="H" unicode="H" horiz-adv-x="1546" 
d="M213 0v1434h70v-680h981v680h69v-1434h-69v690h-981v-690h-70z" />
    <glyph glyph-name="I" unicode="I" horiz-adv-x="524" 
d="M227 0v1434h70v-1434h-70z" />
    <glyph glyph-name="J" unicode="J" horiz-adv-x="1105" 
d="M502 -23q-158 0 -266 75t-168 206l59 33q115 -250 365 -250q156 0 254 112t98 322v959h69v-951q0 -254 -133 -391q-120 -115 -278 -115z" />
    <glyph glyph-name="K" unicode="K" horiz-adv-x="1452" 
d="M213 0v1434h70v-959l960 959h96l-624 -617l649 -817h-90l-608 770l-383 -379v-391h-70z" />
    <glyph glyph-name="L" unicode="L" horiz-adv-x="1224" 
d="M213 0v1434h70v-1371h864v-63h-934z" />
    <glyph glyph-name="M" unicode="M" horiz-adv-x="1767" 
d="M213 0v1434h66l606 -873l604 873h65v-1434h-69v1313l-600 -860h-4l-600 860v-1313h-68z" />
    <glyph glyph-name="N" unicode="N" horiz-adv-x="1605" 
d="M213 0v1434h63l1049 -1315v1315h68v-1434h-56l-1056 1325v-1325h-68z" />
    <glyph glyph-name="O" unicode="O" horiz-adv-x="1730" 
d="M221 717q0 -279 183 -479t463 -199q280 0 461 198t181 476v4q0 279 -182 479t-463 199q-281 0 -462 -198t-181 -476v-4zM864 -25q-315 1 -515 219t-199 521v4q0 303 200 521q201 218 516 218t515 -218t200 -521v-4q0 -303 -201 -521t-516 -219z" />
    <glyph glyph-name="P" unicode="P" horiz-adv-x="1368" 
d="M281 616h428q225 0 356 100t131 277v4q0 177 -128 275t-351 98h-436v-754zM211 0v1434h512q252 0 397 -116t146 -319v-4q0 -211 -154 -327t-405 -117h-426v-551h-70z" />
    <glyph glyph-name="Q" unicode="Q" horiz-adv-x="1730" 
d="M868 39q246 0 422 160l-301 260l47 53l301 -266q172 190 172 467v4q0 279 -182 479t-463 199q-281 0 -462 -198t-181 -476v-4q0 -279 183 -479t464 -199zM150 719q0 303 200 521q201 218 516 218t515 -218t200 -521v-4q0 -299 -192 -514l204 -176l-47 -54l-205 183
q-201 -178 -477 -179q-315 1 -515 219t-199 521v4z" />
    <glyph glyph-name="R" unicode="R" horiz-adv-x="1482" 
d="M283 676h503q217 0 340 95t123 251v4q0 162 -119 253t-329 91h-518v-694zM213 0v1434h592q268 0 409 -138q104 -109 105 -266v-4q0 -176 -123 -282t-328 -123l478 -621h-89l-466 612h-508v-612h-70z" />
    <glyph glyph-name="S" unicode="S" horiz-adv-x="1312" 
d="M692 -20q-324 0 -571 229l47 51q229 -217 528 -217q184 0 297 89t113 226v4q0 129 -94 203t-352 126q-258 53 -371 143t-113 245v4q0 156 132 264t333 107q274 0 487 -168l-43 -55q-201 160 -448 160q-172 0 -282 -89t-109 -212v-5q0 -129 95 -203t354 -126
q259 -54 370 -144t111 -243v-4q0 -169 -134 -277t-350 -108z" />
    <glyph glyph-name="T" unicode="T" horiz-adv-x="1245" 
d="M588 0v1370h-510v64h1091v-64h-512v-1370h-69z" />
    <glyph glyph-name="U" unicode="U" horiz-adv-x="1546" 
d="M774 -23q-266 0 -425 166t-159 475v816h70v-811q0 -281 139 -432t377 -151t374 148q136 147 136 430v816h70v-809q0 -313 -158 -481t-424 -167z" />
    <glyph glyph-name="V" unicode="V" horiz-adv-x="1507" 
d="M725 -10l-643 1444h76l598 -1356l598 1356h71l-643 -1444h-57z" />
    <glyph glyph-name="W" unicode="W" horiz-adv-x="2152" 
d="M590 -10l-496 1444h76l451 -1334l430 1338h53l432 -1340l451 1336h71l-495 -1444h-58l-430 1317l-428 -1317h-57z" />
    <glyph glyph-name="X" unicode="X" horiz-adv-x="1417" 
d="M88 0l580 729l-559 705h81l519 -658l518 658h82l-557 -703l577 -731h-82l-538 684l-539 -684h-82z" />
    <glyph glyph-name="Y" unicode="Y" horiz-adv-x="1394" 
d="M664 0v588l-611 846h86l561 -785l557 785h84l-608 -846v-588h-69z" />
    <glyph glyph-name="Z" unicode="Z" horiz-adv-x="1396" 
d="M137 0v39l1016 1331h-981v64h1079v-39l-1015 -1332h1011v-63h-1110z" />
    <glyph glyph-name="bracketleft" unicode="[" horiz-adv-x="856" 
d="M201 -266v1700h547v-52h-482v-1597h482v-51h-547z" />
    <glyph glyph-name="backslash" unicode="\" horiz-adv-x="989" 
d="M956 -262l-964 1896h69l965 -1896h-70z" />
    <glyph glyph-name="bracketright" unicode="]" horiz-adv-x="856" 
d="M109 -266v51h481v1597h-481v52h546v-1700h-546z" />
    <glyph glyph-name="asciicircum" unicode="^" 
d="M166 1012l321 428h50l321 -428h-63l-283 360l-285 -360h-61z" />
    <glyph glyph-name="underscore" unicode="_" horiz-adv-x="1167" 
d="M-4 -313v59h1175v-59h-1175z" />
    <glyph glyph-name="grave" unicode="`" 
d="M559 1219l-207 208l80 39l178 -247h-51z" />
    <glyph glyph-name="a" unicode="a" horiz-adv-x="1165" 
d="M500 37q184 0 308 101t124 243v127q-176 57 -362 57q-186 -1 -290 -71q-105 -70 -106 -195v-4q0 -121 94 -190q95 -68 232 -68zM498 -25q-162 0 -278 83t-116 233v4q0 158 127 245t325 87t374 -58v70q0 172 -96 260t-266 88t-343 -86l-24 57q187 90 383 90t309 -112
q102 -106 102 -293v-643h-65v215q-46 -98 -158 -169t-274 -71z" />
    <glyph glyph-name="b" unicode="b" horiz-adv-x="1345" 
d="M252 514q0 -199 134 -337t324 -138q192 0 318 133t125 340v4q0 205 -127 341t-318 136q-192 0 -324 -138t-132 -337v-4zM713 -25q-164 0 -283 85t-174 221v-281h-66v1495h66v-747q57 137 176 223t281 86q213 0 361 -153t149 -386v-4q-1 -231 -149 -385t-361 -154z" />
    <glyph glyph-name="c" unicode="c" horiz-adv-x="1157" 
d="M658 -25q-234 0 -387 159t-152 380v4q0 221 153 380q154 159 379 159t408 -191l-47 -47q-166 176 -363 176t-329 -139t-132 -336v-4q0 -197 134 -338t334 -141q198 0 364 184l47 -41q-175 -205 -409 -205z" />
    <glyph glyph-name="d" unicode="d" horiz-adv-x="1345" 
d="M193 516q1 -205 127 -341t318 -136t324 138t132 337v4q0 199 -133 337t-325 138t-318 -133t-125 -340v-4zM633 -25q-213 0 -362 153q-148 153 -148 386v4q0 231 148 385t362 154q165 0 283 -85t174 -220v743h65v-1495h-65v285q-57 -137 -176 -223t-281 -87z" />
    <glyph glyph-name="e" unicode="e" horiz-adv-x="1193" 
d="M612 995q-178 1 -295 -125t-127 -319h824q-8 182 -116 313t-286 131zM631 -25q-215 0 -364 150q-148 150 -148 391v4q0 229 140 383t357 154t343 -160t126 -383v-22h-895q8 -205 136 -330t307 -125q223 0 371 190l49 -39q-164 -213 -422 -213z" />
    <glyph glyph-name="f" unicode="f" horiz-adv-x="696" 
d="M258 0v973h-158v59h158v129q0 180 88 264q76 76 203 76q80 0 149 -26v-64q-68 27 -149 27q-225 0 -225 -283v-123h370v-59h-370v-973h-66z" />
    <glyph glyph-name="g" unicode="g" horiz-adv-x="1335" 
d="M634 139q181 0 315 123t134 301v4q0 178 -134 302t-316 124t-310 -122t-128 -302v-4q0 -178 129 -302t310 -124zM1145 158q0 -224 -134 -358t-382 -134t-459 160l39 53q197 -149 415 -149t336 112t117 324v186q-63 -124 -181 -200t-269 -76q-205 0 -355 141t-149 346v4
q0 207 149 348q150 141 355 142q151 0 269 -76t181 -197v248h68v-874z" />
    <glyph glyph-name="h" unicode="h" horiz-adv-x="1249" 
d="M190 0v1495h66v-709q41 109 143 190t254 81q201 0 314 -124t112 -329v-604h-65v594q0 184 -96 293t-266 109t-284 -120q-112 -118 -112 -294v-582h-66z" />
    <glyph glyph-name="i" unicode="i" horiz-adv-x="473" 
d="M203 0v1032h67v-1032h-67zM193 1317v125h88v-125h-88z" />
    <glyph glyph-name="j" unicode="j" horiz-adv-x="475" 
d="M61 -338q-43 0 -77 8v60q121 -31 182 38q41 46 41 132v1132h65v-1128q0 -118 -56 -180t-155 -62zM195 1317v125h88v-125h-88z" />
    <glyph glyph-name="k" unicode="k" horiz-adv-x="1126" 
d="M190 0v1495h66v-1130l686 667h88l-475 -457l500 -575h-82l-463 530l-254 -243v-287h-66z" />
    <glyph glyph-name="l" unicode="l" horiz-adv-x="473" 
d="M203 0v1495h67v-1495h-67z" />
    <glyph glyph-name="m" unicode="m" horiz-adv-x="1912" 
d="M190 0v1032h66v-231q39 102 132 179t229 77q135 0 227 -76t129 -197q43 113 141 193t229 80q179 0 285 -117t107 -324v-616h-66v610q0 184 -89 284q-90 100 -234 101t-247 -111t-104 -282v-602h-65v612q0 180 -89 282t-233 101q-144 0 -248 -115q-104 -116 -104 -280
v-600h-66z" />
    <glyph glyph-name="n" unicode="n" horiz-adv-x="1249" 
d="M190 0v1032h66v-246q41 109 143 190t254 81q201 0 314 -124t112 -329v-604h-65v594q0 184 -96 293t-266 109t-284 -120q-112 -118 -112 -294v-582h-66z" />
    <glyph glyph-name="o" unicode="o" horiz-adv-x="1302" 
d="M188 514q0 -199 133 -338t333 -139t331 139t131 338v4q0 197 -134 337t-334 140t-330 -139t-130 -338v-4zM652 -25q-232 0 -384 158t-151 379v4q0 221 151 381q152 160 384 160t383 -158t151 -379v-4q0 -223 -151 -382t-383 -159z" />
    <glyph glyph-name="p" unicode="p" horiz-adv-x="1345" 
d="M252 514q0 -199 134 -337t324 -138q192 0 318 133t125 340v4q0 205 -127 341t-318 136q-192 0 -324 -138t-132 -337v-4zM190 -328v1360h66v-284q57 137 176 223t281 86q213 0 361 -153t149 -386v-4q-1 -231 -149 -385t-361 -154q-164 0 -283 85t-174 221v-609h-66z" />
    <glyph glyph-name="q" unicode="q" horiz-adv-x="1345" 
d="M193 516q1 -205 127 -341t318 -136t324 138t132 337v4q0 199 -133 337t-325 138t-318 -133t-125 -340v-4zM1090 -328v613q-56 -137 -176 -223t-281 -87q-213 0 -362 153q-148 153 -148 386v4q0 231 148 385t362 154q165 0 283 -85t174 -220v280h65v-1360h-65z" />
    <glyph glyph-name="r" unicode="r" horiz-adv-x="739" 
d="M190 0v1032h66v-315q49 143 166 241t272 95v-68h-10q-182 1 -305 -149t-123 -347v-489h-66z" />
    <glyph glyph-name="s" unicode="s" horiz-adv-x="1009" 
d="M514 -18q-112 0 -224 41t-196 110l39 51q180 -141 385 -141q125 0 210 60t85 155v4q0 143 -218 207q-35 11 -101 29t-107 31q-115 37 -180 94q-64 58 -66 153v4q1 117 99 194t274 77t342 -115l-37 -55q-154 109 -327 108q-125 0 -204 -57t-79 -146v-4q0 -74 63 -122
q63 -49 245 -98q181 -50 273 -111t91 -183v-4q-1 -126 -105 -204t-262 -78z" />
    <glyph glyph-name="t" unicode="t" horiz-adv-x="786" 
d="M502 -18q-108 0 -183 72q-74 72 -73 210v709h-158v59h158v346h65v-346h375v-59h-375v-703q1 -113 57 -170t145 -57t169 37v-64q-72 -34 -180 -34z" />
    <glyph glyph-name="u" unicode="u" horiz-adv-x="1249" 
d="M596 -25q-202 0 -314 124t-112 329v604h66v-594q0 -184 96 -293t266 -109t283 120q113 119 112 295v581h66v-1032h-66v246q-41 -109 -143 -190t-254 -81z" />
    <glyph glyph-name="v" unicode="v" horiz-adv-x="1165" 
d="M557 -8l-473 1040h76l424 -960l426 960h71l-471 -1040h-53z" />
    <glyph glyph-name="w" unicode="w" horiz-adv-x="1693" 
d="M467 -8l-369 1040h74l324 -946l325 952h53l326 -952l326 946h67l-366 -1040h-56l-323 942l-326 -942h-55z" />
    <glyph glyph-name="x" unicode="x" horiz-adv-x="1118" 
d="M78 0l440 524l-424 508h82l383 -463l387 463h78l-424 -506l440 -526h-82l-399 481l-403 -481h-78z" />
    <glyph glyph-name="y" unicode="y" horiz-adv-x="1181" 
d="M302 -334q-104 0 -204 51l27 56q84 -45 173 -45t149 57t133 217l-496 1030h74l454 -960l416 960h70l-465 -1059q-79 -179 -153 -243t-178 -64z" />
    <glyph glyph-name="z" unicode="z" horiz-adv-x="1052" 
d="M92 0v37l770 936h-743v59h839v-37l-768 -936h773v-59h-871z" />
    <glyph glyph-name="braceleft" unicode="{" horiz-adv-x="933" 
d="M399 293q0 266 -252 266h-45v57h45q252 0 252 267v161q-1 92 11 148t51 114q75 110 336 158l10 -49q-117 -27 -187 -59t-102 -82q-33 -51 -42 -99t-9 -135v-159q0 -256 -221 -293q221 -43 221 -293v-160q0 -86 9 -134t42 -99t103 -83t186 -59l-10 -49q-262 49 -336 158
q-39 57 -50 113t-12 149v162z" />
    <glyph glyph-name="bar" unicode="|" horiz-adv-x="550" 
d="M246 -262v1896h59v-1896h-59z" />
    <glyph glyph-name="braceright" unicode="}" horiz-adv-x="933" 
d="M467 135v160q0 256 221 293q-221 43 -221 293v159q0 86 -9 134t-42 100q-33 51 -103 83t-186 58l10 49q262 -49 336 -157q39 -57 50 -113t12 -150v-161q0 -266 251 -267h45v-57h-45q-252 0 -251 -266v-162q1 -92 -11 -148q-12 -55 -51 -113q-74 -109 -336 -159l-10 49
q117 27 187 59t102 83q33 51 42 99t9 134z" />
    <glyph glyph-name="asciitilde" unicode="~" horiz-adv-x="917" 
d="M328 694q43 0 137 -52t130 -52q37 0 61 26t46 93l46 -13q-41 -174 -158 -174q-43 0 -137 52t-130 52q-37 0 -61 -24q-24 -26 -47 -92l-45 10q41 174 158 174z" />
    <glyph glyph-name="uni00A0" unicode="&#xa0;" horiz-adv-x="589" 
 />
    <glyph glyph-name="exclamdown" unicode="&#xa1;" horiz-adv-x="444" 
d="M184 0v190l21 869h35l20 -869v-190h-76zM174 1300v134h98v-134h-98z" />
    <glyph glyph-name="cent" unicode="&#xa2;" horiz-adv-x="1165" 
d="M659 1206q-190 0 -323 -140t-133 -335v-4q0 -156 88 -283t227 -174l182 936h-41zM135 729q0 219 154 379t373 160q31 0 49 -2l34 180h66l-37 -189q160 -35 301 -180l-47 -47q-133 137 -268 166l-185 -942q39 -6 84 -6q215 0 377 182l45 -39q-176 -205 -426 -205
q-29 0 -90 9l-41 -207h-63l43 221q-164 51 -266 194t-103 322v4z" />
    <glyph glyph-name="sterling" unicode="&#xa3;" horiz-adv-x="1263" 
d="M137 0v37l182 26v578h-182v66h182v239q-1 254 127 381t312 127q250 0 405 -223l-53 -41q-143 201 -354 201q-154 0 -252 -99q-115 -111 -115 -342v-243h615v-66h-615v-578h766v-63h-1018z" />
    <glyph glyph-name="yen" unicode="&#xa5;" horiz-adv-x="1320" 
d="M627 0v250h-428v61h428v264h-428v62h399l-545 797h86l525 -783l522 783h82l-545 -797h397v-62h-426v-264h426v-61h-426v-250h-67z" />
    <glyph glyph-name="section" unicode="&#xa7;" horiz-adv-x="1294" 
d="M796 506q120 0 204 51t83 125v4q0 139 -311 208q-154 34 -272 34t-203 -51q-84 -51 -84 -125v-4q0 -72 79 -123t263 -90q121 -29 241 -29zM1024 227q0 -109 -100 -178t-246 -69t-264 46t-191 115l47 49q68 -61 174 -103t230 -42t202 51q77 51 76 131v4q0 87 -96 141
t-308 98t-308 109t-97 162v4q1 96 97 162t262 66q-231 76 -232 229v4q0 108 100 178t248 70q146 0 263 -46t192 -116l-49 -49q-68 61 -173 103t-229 43t-201 -51t-77 -132v-4q0 -86 96 -140t308 -98t309 -109q96 -65 96 -163v-4q0 -96 -96 -162t-262 -65q229 -74 229 -230
v-4z" />
    <glyph glyph-name="dieresis" unicode="&#xa8;" 
d="M315 1241v127h101v-127h-101zM608 1241v127h101v-127h-101z" />
    <glyph glyph-name="copyright" unicode="&#xa9;" horiz-adv-x="1699" 
d="M867 338q-163 0 -271 114t-107 271v4q0 161 108 275q109 114 269 114t287 -123l-43 -43q-111 111 -246 111t-224 -97t-89 -235q-4 0 0 -4q0 -135 91 -233t227 -98t247 114l41 -39q-127 -131 -290 -131zM850 18q290 0 492 205t202 492v4q0 289 -202 493t-492 203
q-290 0 -493 -205q-202 -205 -201 -491v-4q0 -289 202 -493t492 -204zM1591 715q0 -305 -217 -523t-525 -217q-308 0 -524 216t-216 524v4q0 305 217 522t525 217t524 -216t216 -523v-4z" />
    <glyph glyph-name="ordfeminine" unicode="&#xaa;" horiz-adv-x="835" 
d="M152 631v51h510v-51h-510zM390 895q81 0 145 51q63 51 63 125v66q-94 27 -186 27t-146 -37q-54 -36 -53 -97v-4q0 -59 48 -95t129 -36zM375 846q-88 0 -154 47t-65 129v4q0 88 69 136q71 48 179 48t194 -26v26q0 88 -50 133t-136 45t-185 -49l-20 50q104 49 214 49
t170 -60t60 -166v-354h-53v103q-71 -115 -223 -115z" />
    <glyph glyph-name="guillemotleft" unicode="&#xab;" horiz-adv-x="989" 
d="M442 92l-346 424v12l346 424l45 -32l-313 -398l313 -397zM819 92l-348 424v12l348 424l45 -32l-313 -398l313 -397z" />
    <glyph glyph-name="registered" unicode="&#xae;" horiz-adv-x="851" 
d="M340 1098h104q43 0 68 19t25 52q0 70 -91 70h-106v-141zM295 922v358h156q57 0 95 -28t38 -78q0 -82 -92 -109l104 -143h-57l-99 137h-100v-137h-45zM425 772q134 0 227 95t93 229t-92 229q-92 94 -226 94t-227 -95q-94 -95 -94 -229q0 -135 92 -229t227 -94zM782 1096
q0 -147 -104 -253t-254 -106q-148 1 -251 105t-103 252v2q0 146 104 252t253 106t252 -104t103 -252v-2z" />
    <glyph glyph-name="macron" unicode="&#xaf;" 
d="M231 1272v61h562v-61h-562z" />
    <glyph glyph-name="degree" unicode="&#xb0;" horiz-adv-x="897" 
d="M449 920q97 0 165 68t68 163v4q0 94 -69 164t-165 70t-164 -70q-69 -70 -69 -164v-4q0 -95 69 -163t165 -68zM449 860q-121 0 -210 86t-89 205v4q0 119 89 205t210 86t209 -86t90 -205v-4q0 -119 -89 -205t-210 -86z" />
    <glyph glyph-name="plusminus" unicode="&#xb1;" horiz-adv-x="1245" 
d="M1094 0h-942v61h942v-61zM1094 752h-439v-428h-65v428h-438v61h438v428h65v-428h439v-61z" />
    <glyph glyph-name="acute" unicode="&#xb4;" 
d="M414 1219l178 247l80 -39l-207 -208h-51z" />
    <glyph glyph-name="paragraph" unicode="&#xb6;" horiz-adv-x="956" 
d="M680 0v567h-18q-240 0 -398 116t-158 316v5q0 198 146 314t379 116h121v-1434h-72z" />
    <glyph glyph-name="periodcentered" unicode="&#xb7;" horiz-adv-x="389" 
d="M145 537v133h99v-133h-99z" />
    <glyph glyph-name="cedilla" unicode="&#xb8;" 
d="M420 -295l-72 35l178 270h54z" />
    <glyph glyph-name="ordmasculine" unicode="&#xba;" horiz-adv-x="837" 
d="M421 899q101 0 167 71t65 171v4q0 102 -68 174q-69 72 -168 72t-166 -71t-67 -171v-4q0 -102 68 -174t169 -72zM131 631v51h576v-51h-576zM418 846q-127 0 -210 87t-83 208v4q0 125 83 212t211 87t211 -86t83 -209v-4q0 -123 -84 -211t-211 -88z" />
    <glyph glyph-name="guillemotright" unicode="&#xbb;" horiz-adv-x="989" 
d="M170 92l-45 33l313 397l-313 398l45 32l348 -424v-12zM547 92l-45 33l313 397l-313 398l45 32l346 -424v-12z" />
    <glyph glyph-name="questiondown" unicode="&#xbf;" horiz-adv-x="1050" 
d="M543 -18q-195 0 -316 112t-121 277v4q0 176 127 281t314 126l16 277h39l21 -326l-9 -8q-198 -10 -318 -101t-120 -245v-4q0 -141 102 -237t267 -95q240 0 397 229l51 -39q-171 -251 -450 -251zM532 1300v134h99v-134h-99z" />
    <glyph glyph-name="Agrave" unicode="&#xc0;" horiz-adv-x="1589" 
d="M629 1800l198 -219h-59l-215 180zM381 481h825l-413 881zM82 0l680 1444h65l680 -1444h-75l-195 418h-887l-196 -418h-72z" />
    <glyph glyph-name="Aacute" unicode="&#xc1;" horiz-adv-x="1589" 
d="M760 1581l198 219l76 -39l-215 -180h-59zM381 481h825l-413 881zM82 0l680 1444h65l680 -1444h-75l-195 418h-887l-196 -418h-72z" />
    <glyph glyph-name="Acircumflex" unicode="&#xc2;" horiz-adv-x="1589" 
d="M549 1575l213 207h61l213 -207h-69l-174 141l-177 -141h-67zM381 481h825l-413 881zM82 0l680 1444h65l680 -1444h-75l-195 418h-887l-196 -418h-72z" />
    <glyph glyph-name="Atilde" unicode="&#xc3;" horiz-adv-x="1589" 
d="M930 1661q69 0 110 108l45 -12q-39 -162 -155 -162q-41 0 -135 47q-94 48 -129 48q-34 0 -60 -25t-49 -84l-47 12q43 162 156 162q43 0 137 -47t127 -47zM381 481h825l-413 881zM82 0l680 1444h65l680 -1444h-75l-195 418h-887l-196 -418h-72z" />
    <glyph glyph-name="Adieresis" unicode="&#xc4;" horiz-adv-x="1589" 
d="M584 1604v125h106v-125h-106zM899 1604v125h107v-125h-107zM381 481h825l-413 881zM82 0l680 1444h65l680 -1444h-75l-195 418h-887l-196 -418h-72z" />
    <glyph glyph-name="Aring" unicode="&#xc5;" horiz-adv-x="1589" 
d="M637 1556q0 -61 46 -100t112 -39q67 0 111 39t44 100q0 62 -45 102t-111 40t-111 -40q-46 -40 -46 -102zM381 481h825l-413 881zM584 1564q0 72 61 126t149 53q88 0 150 -53t62 -125t-41 -121t-107 -66l649 -1378h-75l-195 418h-887l-196 -418h-72l649 1378
q-67 16 -107 66q-40 48 -40 120z" />
    <glyph glyph-name="AE" unicode="&#xc6;" horiz-adv-x="2101" 
d="M985 481v889h-37l-557 -889h594zM1962 1434v-64h-907v-616h819v-64h-819v-627h917v-63h-987v418h-633l-260 -418h-76l899 1434h1047z" />
    <glyph glyph-name="Ccedilla" unicode="&#xc7;" horiz-adv-x="1497" 
d="M150 713v4q0 307 202 524q203 217 506 217q184 0 307 -57t244 -170l-49 -51q-104 100 -222 157t-282 58q-270 0 -452 -198t-183 -478v-4q0 -281 183 -479t463 -197q280 0 501 229l49 -47q-233 -238 -545 -246l-141 -270l-72 35l156 237q-289 13 -477 225t-188 511z" />
    <glyph glyph-name="Egrave" unicode="&#xc8;" horiz-adv-x="1361" 
d="M213 0v1434h1010v-64h-940v-616h850v-64h-850v-627h950v-63h-1020zM557 1786l199 -219h-60l-215 180z" />
    <glyph glyph-name="Eacute" unicode="&#xc9;" horiz-adv-x="1361" 
d="M213 0v1434h1010v-64h-940v-616h850v-64h-850v-627h950v-63h-1020zM688 1567l199 219l76 -39l-215 -180h-60z" />
    <glyph glyph-name="Ecircumflex" unicode="&#xca;" horiz-adv-x="1361" 
d="M477 1567l213 207h62l213 -207h-70l-174 141l-176 -141h-68zM213 0v1434h1010v-64h-940v-616h850v-64h-850v-627h950v-63h-1020z" />
    <glyph glyph-name="Edieresis" unicode="&#xcb;" horiz-adv-x="1361" 
d="M213 0v1434h1010v-64h-940v-616h850v-64h-850v-627h950v-63h-1020zM512 1589v125h106v-125h-106zM827 1589v125h107v-125h-107z" />
    <glyph glyph-name="Igrave" unicode="&#xcc;" horiz-adv-x="524" 
d="M98 1786l199 -219h-59l-215 180zM227 0v1434h70v-1434h-70z" />
    <glyph glyph-name="Iacute" unicode="&#xcd;" horiz-adv-x="524" 
d="M229 1567l199 219l76 -39l-215 -180h-60zM227 0v1434h70v-1434h-70z" />
    <glyph glyph-name="Icircumflex" unicode="&#xce;" horiz-adv-x="524" 
d="M18 1567l213 207h62l213 -207h-70l-174 141l-176 -141h-68zM227 0v1434h70v-1434h-70z" />
    <glyph glyph-name="Idieresis" unicode="&#xcf;" horiz-adv-x="524" 
d="M53 1589v125h107v-125h-107zM369 1589v125h106v-125h-106zM227 0v1434h70v-1434h-70z" />
    <glyph glyph-name="Eth" unicode="&#xd0;" horiz-adv-x="1652" 
d="M344 63h399q303 1 496 187t193 463v4q0 277 -193 465t-498 188h-397v-616h500v-66h-500v-625zM274 0v688h-153v66h153v680h467q334 0 548 -205t214 -510v-4q0 -305 -214 -510t-548 -205h-467z" />
    <glyph glyph-name="Ntilde" unicode="&#xd1;" horiz-adv-x="1605" 
d="M213 0v1434h63l1049 -1315v1315h68v-1434h-56l-1056 1325v-1325h-68zM684 1731q43 1 137 -47t129 -48q68 0 109 109l45 -12q-39 -162 -156 -162q-41 0 -135 47t-129 47q-34 0 -60 -25t-49 -84l-47 13q43 162 156 162z" />
    <glyph glyph-name="Ograve" unicode="&#xd2;" horiz-adv-x="1730" 
d="M221 717q0 -279 183 -479t463 -199q280 0 461 198t181 476v4q0 279 -182 479t-463 199q-281 0 -462 -198t-181 -476v-4zM864 -25q-315 1 -515 219t-199 521v4q0 303 200 521q201 218 516 218t515 -218t200 -521v-4q0 -303 -201 -521t-516 -219zM700 1800l199 -219h-59
l-215 180z" />
    <glyph glyph-name="Oacute" unicode="&#xd3;" horiz-adv-x="1730" 
d="M221 717q0 -279 183 -479t463 -199q280 0 461 198t181 476v4q0 279 -182 479t-463 199q-281 0 -462 -198t-181 -476v-4zM864 -25q-315 1 -515 219t-199 521v4q0 303 200 521q201 218 516 218t515 -218t200 -521v-4q0 -303 -201 -521t-516 -219zM831 1581l199 219l76 -39
l-215 -180h-60z" />
    <glyph glyph-name="Ocircumflex" unicode="&#xd4;" horiz-adv-x="1730" 
d="M621 1581l213 207h61l213 -207h-70l-174 141l-176 -141h-67zM221 717q0 -279 183 -479t463 -199q280 0 461 198t181 476v4q0 279 -182 479t-463 199q-281 0 -462 -198t-181 -476v-4zM864 -25q-315 1 -515 219t-199 521v4q0 303 200 521q201 218 516 218t515 -218
t200 -521v-4q0 -303 -201 -521t-516 -219z" />
    <glyph glyph-name="Otilde" unicode="&#xd5;" horiz-adv-x="1730" 
d="M221 717q0 -279 183 -479t463 -199q280 0 461 198t181 476v4q0 279 -182 479t-463 199q-281 0 -462 -198t-181 -476v-4zM864 -25q-315 1 -515 219t-199 521v4q0 303 200 521q201 218 516 218t515 -218t200 -521v-4q0 -303 -201 -521t-516 -219zM737 1755q43 0 137 -47
t129 -47q68 0 109 108l45 -12q-39 -162 -156 -162q-41 0 -135 47q-94 48 -129 48t-60 -25t-48 -84l-47 12q43 162 155 162z" />
    <glyph glyph-name="Odieresis" unicode="&#xd6;" horiz-adv-x="1730" 
d="M221 717q0 -279 183 -479t463 -199q280 0 461 198t181 476v4q0 279 -182 479t-463 199q-281 0 -462 -198t-181 -476v-4zM864 -25q-315 1 -515 219t-199 521v4q0 303 200 521q201 218 516 218t515 -218t200 -521v-4q0 -303 -201 -521t-516 -219zM655 1604v125h107v-125
h-107zM971 1604v125h106v-125h-106z" />
    <glyph glyph-name="multiply" unicode="&#xd7;" horiz-adv-x="1245" 
d="M1006 291l-385 387l-385 -387l-43 43l387 385l-387 385l47 47l385 -387l385 387l43 -43l-387 -385l387 -385z" />
    <glyph glyph-name="Oslash" unicode="&#xd8;" horiz-adv-x="1730" 
d="M876 39q270 0 452 198q181 198 181 476v4q0 274 -170 467l-909 -975q176 -170 446 -170zM854 1395q-270 0 -452 -198q-181 -198 -181 -476v-4q0 -274 170 -467l909 975q-176 170 -446 170zM1581 715q0 -303 -201 -521t-499 -219q-298 0 -496 183l-156 -168h-82l197 209
q-195 213 -194 516v4q0 303 200 521q201 218 499 218t497 -182l155 168h82l-197 -209q195 -213 195 -516v-4z" />
    <glyph glyph-name="Ugrave" unicode="&#xd9;" horiz-adv-x="1546" 
d="M774 -23q-266 0 -425 166t-159 475v816h70v-811q0 -281 139 -432t377 -151t374 148q136 147 136 430v816h70v-809q0 -313 -158 -481t-424 -167zM608 1776l199 -220h-59l-216 181z" />
    <glyph glyph-name="Uacute" unicode="&#xda;" horiz-adv-x="1546" 
d="M774 -23q-266 0 -425 166t-159 475v816h70v-811q0 -281 139 -432t377 -151t374 148q136 147 136 430v816h70v-809q0 -313 -158 -481t-424 -167zM739 1556l199 220l76 -39l-215 -181h-60z" />
    <glyph glyph-name="Ucircumflex" unicode="&#xdb;" horiz-adv-x="1546" 
d="M528 1556l213 207h62l213 -207h-70l-174 142l-176 -142h-68zM774 -23q-266 0 -425 166t-159 475v816h70v-811q0 -281 139 -432t377 -151t374 148q136 147 136 430v816h70v-809q0 -313 -158 -481t-424 -167z" />
    <glyph glyph-name="Udieresis" unicode="&#xdc;" horiz-adv-x="1546" 
d="M774 -23q-266 0 -425 166t-159 475v816h70v-811q0 -281 139 -432t377 -151t374 148q136 147 136 430v816h70v-809q0 -313 -158 -481t-424 -167zM563 1579v125h107v-125h-107zM879 1579v125h106v-125h-106z" />
    <glyph glyph-name="Yacute" unicode="&#xdd;" horiz-adv-x="1394" 
d="M662 1556l198 220l76 -39l-215 -181h-59zM664 0v588l-611 846h86l561 -785l557 785h84l-608 -846v-588h-69z" />
    <glyph glyph-name="Thorn" unicode="&#xde;" horiz-adv-x="1372" 
d="M707 281h-426v-281h-70v1434h70v-271h442q252 1 397 -115t146 -319v-4q0 -211 -154 -327t-405 -117zM281 346h428q225 0 356 100t131 277v4q0 176 -128 274t-351 99h-436v-754z" />
    <glyph glyph-name="germandbls" unicode="&#xdf;" horiz-adv-x="1210" 
d="M559 -6v61q209 4 334 91t125 243v4q0 145 -122 229t-337 99v57q166 47 266 138t101 231v4q0 123 -91 209t-242 86t-244 -114t-93 -302v-1030h-66v1032q0 215 111 345t294 130t293 -102t109 -250v-4q0 -139 -92 -239t-239 -150q188 -27 305 -120t116 -247v-4
q0 -185 -145 -291t-383 -106z" />
    <glyph glyph-name="agrave" unicode="&#xe0;" horiz-adv-x="1165" 
d="M565 1219l-207 208l80 39l178 -247h-51zM500 37q184 0 308 101t124 243v127q-176 57 -362 57q-186 -1 -290 -71q-105 -70 -106 -195v-4q0 -121 94 -190q95 -68 232 -68zM498 -25q-162 0 -278 83t-116 233v4q0 158 127 245t325 87t374 -58v70q0 172 -96 260t-266 88
t-343 -86l-24 57q187 90 383 90t309 -112q102 -106 102 -293v-643h-65v215q-46 -98 -158 -169t-274 -71z" />
    <glyph glyph-name="aacute" unicode="&#xe1;" horiz-adv-x="1165" 
d="M553 1219l178 247l80 -39l-207 -208h-51zM500 37q184 0 308 101t124 243v127q-176 57 -362 57q-186 -1 -290 -71q-105 -70 -106 -195v-4q0 -121 94 -190q95 -68 232 -68zM498 -25q-162 0 -278 83t-116 233v4q0 158 127 245t325 87t374 -58v70q0 172 -96 260t-266 88
t-343 -86l-24 57q187 90 383 90t309 -112q102 -106 102 -293v-643h-65v215q-46 -98 -158 -169t-274 -71z" />
    <glyph glyph-name="acircumflex" unicode="&#xe2;" horiz-adv-x="1165" 
d="M348 1219l211 237h49l211 -237h-59l-176 161l-176 -161h-60zM500 37q184 0 308 101t124 243v127q-176 57 -362 57q-186 -1 -290 -71q-105 -70 -106 -195v-4q0 -121 94 -190q95 -68 232 -68zM498 -25q-162 0 -278 83t-116 233v4q0 158 127 245t325 87t374 -58v70
q0 172 -96 260t-266 88t-343 -86l-24 57q187 90 383 90t309 -112q102 -106 102 -293v-643h-65v215q-46 -98 -158 -169t-274 -71z" />
    <glyph glyph-name="atilde" unicode="&#xe3;" horiz-adv-x="1165" 
d="M459 1405q43 0 137 -53q94 -54 129 -54t61 27t48 92l45 -10q-41 -174 -158 -174q-43 0 -137 52t-130 52t-60 -25t-48 -93l-45 10q41 176 158 176zM500 37q184 0 308 101t124 243v127q-176 57 -362 57q-186 -1 -290 -71q-105 -70 -106 -195v-4q0 -121 94 -190
q95 -68 232 -68zM498 -25q-162 0 -278 83t-116 233v4q0 158 127 245t325 87t374 -58v70q0 172 -96 260t-266 88t-343 -86l-24 57q187 90 383 90t309 -112q102 -106 102 -293v-643h-65v215q-46 -98 -158 -169t-274 -71z" />
    <glyph glyph-name="adieresis" unicode="&#xe4;" horiz-adv-x="1165" 
d="M387 1241v127h100v-127h-100zM680 1241v127h100v-127h-100zM500 37q184 0 308 101t124 243v127q-176 57 -362 57q-186 -1 -290 -71q-105 -70 -106 -195v-4q0 -121 94 -190q95 -68 232 -68zM498 -25q-162 0 -278 83t-116 233v4q0 158 127 245t325 87t374 -58v70
q0 172 -96 260t-266 88t-343 -86l-24 57q187 90 383 90t309 -112q102 -106 102 -293v-643h-65v215q-46 -98 -158 -169t-274 -71z" />
    <glyph glyph-name="aring" unicode="&#xe5;" horiz-adv-x="1165" 
d="M430 1411q0 -63 45 -107t109 -44t108 44q45 44 45 107t-45 109t-108 45q-63 0 -109 -45q-45 -46 -45 -109zM379 1412q0 81 60 138q61 58 145 58t144 -58t60 -138q0 -81 -60 -138t-144 -57t-145 57q-60 57 -60 138zM500 37q184 0 308 101t124 243v127q-176 57 -362 57
q-186 -1 -290 -71q-105 -70 -106 -195v-4q0 -121 94 -190q95 -68 232 -68zM498 -25q-162 0 -278 83t-116 233v4q0 158 127 245t325 87t374 -58v70q0 172 -96 260t-266 88t-343 -86l-24 57q187 90 383 90t309 -112q102 -106 102 -293v-643h-65v215q-46 -98 -158 -169
t-274 -71z" />
    <glyph glyph-name="ae" unicode="&#xe6;" horiz-adv-x="1986" 
d="M1404 995q-180 1 -296 -125q-117 -126 -127 -319h825q-10 182 -116 313t-286 131zM174 295q0 -123 93 -191t239 -67q146 -1 265 69q120 70 187 175q-45 104 -47 229q-166 55 -347 55q-181 -1 -285 -71t-105 -195v-4zM499 -25q-163 0 -279 83t-116 233v4q0 158 126 245
t320 87t363 -56l7 72q-2 170 -98 257t-260 87q-165 0 -337 -86l-24 57q186 90 358 91q348 0 406 -289q57 135 174 216t264 81q221 0 348 -161t127 -382q0 -14 -2 -22h-895q8 -203 136 -329t304 -126q231 0 375 180l47 -41q-160 -201 -424 -201q-135 0 -250 66t-182 180
q-73 -102 -199 -174t-289 -72z" />
    <glyph glyph-name="ccedilla" unicode="&#xe7;" horiz-adv-x="1157" 
d="M119 514v4q0 221 153 380q154 159 379 159t408 -191l-47 -47q-166 176 -363 176t-329 -139t-132 -336v-4q0 -197 134 -338t334 -141q198 0 364 184l47 -41q-168 -197 -401 -205l-142 -270l-71 35l155 237q-207 14 -348 170t-141 367z" />
    <glyph glyph-name="egrave" unicode="&#xe8;" horiz-adv-x="1193" 
d="M590 1219l-207 208l80 39l178 -247h-51zM612 995q-178 1 -295 -125t-127 -319h824q-8 182 -116 313t-286 131zM631 -25q-215 0 -364 150q-148 150 -148 391v4q0 229 140 383t357 154t343 -160t126 -383v-22h-895q8 -205 136 -330t307 -125q223 0 371 190l49 -39
q-164 -213 -422 -213z" />
    <glyph glyph-name="eacute" unicode="&#xe9;" horiz-adv-x="1193" 
d="M578 1219l178 247l80 -39l-207 -208h-51zM612 995q-178 1 -295 -125t-127 -319h824q-8 182 -116 313t-286 131zM631 -25q-215 0 -364 150q-148 150 -148 391v4q0 229 140 383t357 154t343 -160t126 -383v-22h-895q8 -205 136 -330t307 -125q223 0 371 190l49 -39
q-164 -213 -422 -213z" />
    <glyph glyph-name="ecircumflex" unicode="&#xea;" horiz-adv-x="1193" 
d="M375 1219l211 237h49l211 -237h-60l-176 161l-176 -161h-59zM612 995q-178 1 -295 -125t-127 -319h824q-8 182 -116 313t-286 131zM631 -25q-215 0 -364 150q-148 150 -148 391v4q0 229 140 383t357 154t343 -160t126 -383v-22h-895q8 -205 136 -330t307 -125
q223 0 371 190l49 -39q-164 -213 -422 -213z" />
    <glyph glyph-name="edieresis" unicode="&#xeb;" horiz-adv-x="1193" 
d="M414 1241v127h100v-127h-100zM707 1241v127h100v-127h-100zM612 995q-178 1 -295 -125t-127 -319h824q-8 182 -116 313t-286 131zM631 -25q-215 0 -364 150q-148 150 -148 391v4q0 229 140 383t357 154t343 -160t126 -383v-22h-895q8 -205 136 -330t307 -125
q223 0 371 190l49 -39q-164 -213 -422 -213z" />
    <glyph glyph-name="igrave" unicode="&#xec;" horiz-adv-x="473" 
d="M217 1219l-207 208l80 39l178 -247h-51zM203 0v1032h67v-1032h-67z" />
    <glyph glyph-name="iacute" unicode="&#xed;" horiz-adv-x="473" 
d="M203 0v1032h67v-1032h-67zM205 1219l178 247l80 -39l-207 -208h-51z" />
    <glyph glyph-name="icircumflex" unicode="&#xee;" horiz-adv-x="473" 
d="M203 0v1032h67v-1032h-67zM0 1219l211 237h49l211 -237h-59l-176 161l-177 -161h-59z" />
    <glyph glyph-name="idieresis" unicode="&#xef;" horiz-adv-x="473" 
d="M203 0v1032h67v-1032h-67zM39 1241v127h100v-127h-100zM332 1241v127h100v-127h-100z" />
    <glyph glyph-name="eth" unicode="&#xf0;" horiz-adv-x="1298" 
d="M188 512q0 -201 133 -338t329 -137t327 142t131 347v4q0 195 -133 325t-331 130t-327 -136t-129 -333v-4zM1180 561v-4q0 -254 -150 -418t-379 -164t-382 155t-152 384v4q0 225 152 377q153 152 383 152t397 -187q-98 223 -353 445l-223 -129l-33 49l209 121
q-74 61 -198 149h106q88 -63 150 -115l206 121l33 -51l-192 -113q426 -383 426 -776z" />
    <glyph glyph-name="ntilde" unicode="&#xf1;" horiz-adv-x="1249" 
d="M508 1405q43 0 137 -53q94 -54 129 -54q69 -1 109 119l45 -10q-41 -174 -158 -174q-43 0 -137 52t-130 52q-37 0 -61 -25t-47 -93l-45 10q41 176 158 176zM190 0v1032h66v-246q41 109 143 190t254 81q201 0 314 -124t112 -329v-604h-65v594q0 184 -96 293t-266 109
t-284 -120q-112 -118 -112 -294v-582h-66z" />
    <glyph glyph-name="ograve" unicode="&#xf2;" horiz-adv-x="1302" 
d="M631 1219l-207 208l80 39l178 -247h-51zM188 514q0 -199 133 -338t333 -139t331 139t131 338v4q0 197 -134 337t-334 140t-330 -139t-130 -338v-4zM652 -25q-232 0 -384 158t-151 379v4q0 221 151 381q152 160 384 160t383 -158t151 -379v-4q0 -223 -151 -382t-383 -159z
" />
    <glyph glyph-name="oacute" unicode="&#xf3;" horiz-adv-x="1302" 
d="M188 514q0 -199 133 -338t333 -139t331 139t131 338v4q0 197 -134 337t-334 140t-330 -139t-130 -338v-4zM652 -25q-232 0 -384 158t-151 379v4q0 221 151 381q152 160 384 160t383 -158t151 -379v-4q0 -223 -151 -382t-383 -159zM618 1219l179 247l80 -39l-207 -208h-52
z" />
    <glyph glyph-name="ocircumflex" unicode="&#xf4;" horiz-adv-x="1302" 
d="M188 514q0 -199 133 -338t333 -139t331 139t131 338v4q0 197 -134 337t-334 140t-330 -139t-130 -338v-4zM652 -25q-232 0 -384 158t-151 379v4q0 221 151 381q152 160 384 160t383 -158t151 -379v-4q0 -223 -151 -382t-383 -159zM416 1219l211 237h49l211 -237h-60
l-176 161l-176 -161h-59z" />
    <glyph glyph-name="otilde" unicode="&#xf5;" horiz-adv-x="1302" 
d="M524 1405q44 0 138 -53q94 -54 128 -54q68 -1 109 119l45 -10q-41 -174 -158 -174q-43 0 -137 52t-130 52t-60 -25t-47 -93l-45 10q41 176 157 176zM188 514q0 -199 133 -338t333 -139t331 139t131 338v4q0 197 -134 337t-334 140t-330 -139t-130 -338v-4zM652 -25
q-232 0 -384 158t-151 379v4q0 221 151 381q152 160 384 160t383 -158t151 -379v-4q0 -223 -151 -382t-383 -159z" />
    <glyph glyph-name="odieresis" unicode="&#xf6;" horiz-adv-x="1302" 
d="M188 514q0 -199 133 -338t333 -139t331 139t131 338v4q0 197 -134 337t-334 140t-330 -139t-130 -338v-4zM652 -25q-232 0 -384 158t-151 379v4q0 221 151 381q152 160 384 160t383 -158t151 -379v-4q0 -223 -151 -382t-383 -159zM455 1241v127h100v-127h-100zM748 1241
v127h100v-127h-100z" />
    <glyph glyph-name="divide" unicode="&#xf7;" horiz-adv-x="1245" 
d="M567 236v137h111v-137h-111zM1102 690h-959v62h959v-62zM567 1069v137h111v-137h-111z" />
    <glyph glyph-name="oslash" unicode="&#xf8;" horiz-adv-x="1302" 
d="M664 37q190 0 321 139t131 338v4q0 184 -119 320l-655 -684q132 -117 322 -117zM188 518v-4q0 -186 117 -321l656 684q-129 119 -321 119t-322 -140q-130 -139 -130 -338zM664 -25q-220 0 -365 129l-111 -114h-77l147 153q-141 154 -141 369v4q0 221 151 381
q152 160 371 160t367 -131l124 133h78l-164 -170q141 -154 142 -369v-4q0 -223 -151 -382t-371 -159z" />
    <glyph glyph-name="ugrave" unicode="&#xf9;" horiz-adv-x="1249" 
d="M594 1212l-207 209l80 39l178 -248h-51zM596 -25q-202 0 -314 124t-112 329v604h66v-594q0 -184 96 -293t266 -109t283 120q113 119 112 295v581h66v-1032h-66v246q-41 -109 -143 -190t-254 -81z" />
    <glyph glyph-name="uacute" unicode="&#xfa;" horiz-adv-x="1249" 
d="M596 -25q-202 0 -314 124t-112 329v604h66v-594q0 -184 96 -293t266 -109t283 120q113 119 112 295v581h66v-1032h-66v246q-41 -109 -143 -190t-254 -81zM582 1212l178 248l80 -39l-207 -209h-51z" />
    <glyph glyph-name="ucircumflex" unicode="&#xfb;" horiz-adv-x="1249" 
d="M596 -25q-202 0 -314 124t-112 329v604h66v-594q0 -184 96 -293t266 -109t283 120q113 119 112 295v581h66v-1032h-66v246q-41 -109 -143 -190t-254 -81zM377 1212l211 238h49l211 -238h-60l-176 162l-176 -162h-59z" />
    <glyph glyph-name="udieresis" unicode="&#xfc;" horiz-adv-x="1249" 
d="M596 -25q-202 0 -314 124t-112 329v604h66v-594q0 -184 96 -293t266 -109t283 120q113 119 112 295v581h66v-1032h-66v246q-41 -109 -143 -190t-254 -81zM416 1235v127h100v-127h-100zM709 1235v127h100v-127h-100z" />
    <glyph glyph-name="yacute" unicode="&#xfd;" horiz-adv-x="1181" 
d="M563 1212l178 248l80 -39l-207 -209h-51zM302 -334q-104 0 -204 51l27 56q84 -45 173 -45t149 57t133 217l-496 1030h74l454 -960l416 960h70l-465 -1059q-79 -179 -153 -243t-178 -64z" />
    <glyph glyph-name="thorn" unicode="&#xfe;" horiz-adv-x="1345" 
d="M252 514q0 -199 134 -337t324 -138q192 0 318 133t125 340v4q0 205 -127 341t-318 136q-192 0 -324 -138t-132 -337v-4zM190 -328v1823h66v-747q57 137 176 223t281 86q213 0 361 -153t149 -386v-4q-1 -231 -149 -385t-361 -154q-164 0 -283 85t-174 221v-609h-66z" />
    <glyph glyph-name="ydieresis" unicode="&#xff;" horiz-adv-x="1181" 
d="M397 1235v127h101v-127h-101zM690 1235v127h101v-127h-101zM302 -334q-104 0 -204 51l27 56q84 -45 173 -45t149 57t133 217l-496 1030h74l454 -960l416 960h70l-465 -1059q-79 -179 -153 -243t-178 -64z" />
    <glyph glyph-name="Amacron" unicode="&#x100;" horiz-adv-x="1589" 
d="M498 1634v66h589v-66h-589zM381 481h825l-413 881zM82 0l680 1444h65l680 -1444h-75l-195 418h-887l-196 -418h-72z" />
    <glyph glyph-name="amacron" unicode="&#x101;" horiz-adv-x="1165" 
d="M303 1272v61h561v-61h-561zM500 37q184 0 308 101t124 243v127q-176 57 -362 57q-186 -1 -290 -71q-105 -70 -106 -195v-4q0 -121 94 -190q95 -68 232 -68zM498 -25q-162 0 -278 83t-116 233v4q0 158 127 245t325 87t374 -58v70q0 172 -96 260t-266 88t-343 -86l-24 57
q187 90 383 90t309 -112q102 -106 102 -293v-643h-65v215q-46 -98 -158 -169t-274 -71z" />
    <glyph glyph-name="Abreve" unicode="&#x102;" horiz-adv-x="1589" 
d="M792 1579q-114 0 -183 50t-81 134h58q37 -121 206 -121t207 121h58q-11 -84 -81 -134t-184 -50zM381 481h825l-413 881zM82 0l680 1444h65l680 -1444h-75l-195 418h-887l-196 -418h-72z" />
    <glyph glyph-name="abreve" unicode="&#x103;" horiz-adv-x="1165" 
d="M584 1217q-113 0 -183 58t-79 155h51q16 -64 70 -108q53 -44 141 -44t141 43t70 109h51q-10 -96 -80 -154t-182 -59zM500 37q184 0 308 101t124 243v127q-176 57 -362 57q-186 -1 -290 -71q-105 -70 -106 -195v-4q0 -121 94 -190q95 -68 232 -68zM498 -25q-162 0 -278 83
t-116 233v4q0 158 127 245t325 87t374 -58v70q0 172 -96 260t-266 88t-343 -86l-24 57q187 90 383 90t309 -112q102 -106 102 -293v-643h-65v215q-46 -98 -158 -169t-274 -71z" />
    <glyph glyph-name="Aogonek" unicode="&#x104;" horiz-adv-x="1589" 
d="M381 481h825l-413 881zM1296 -174q0 96 129 186l-188 406h-887l-196 -418h-72l680 1444h65l680 -1444h-24q-117 -84 -117 -166q0 -102 170 -115v-49q-112 2 -176 45t-64 111z" />
    <glyph glyph-name="aogonek" unicode="&#x105;" horiz-adv-x="1165" 
d="M500 37q184 0 308 101t124 243v127q-176 57 -362 57q-186 -1 -290 -71q-105 -70 -106 -195v-4q0 -121 94 -190q95 -68 232 -68zM498 -25q-162 0 -278 83t-116 233v4q0 158 127 245t325 87t374 -58v70q0 172 -96 260t-266 88t-343 -86l-24 57q187 90 383 90t309 -112
q102 -106 102 -293v-643h-10q-117 -84 -117 -166q0 -102 170 -115v-49q-112 2 -176 45t-63 111q0 98 131 188v201q-45 -98 -158 -169q-112 -71 -274 -71z" />
    <glyph glyph-name="Cacute" unicode="&#x106;" horiz-adv-x="1497" 
d="M813 1581l199 219l75 -39l-215 -180h-59zM864 -25q-312 0 -513 214q-202 214 -201 524v4q0 307 202 524q203 217 506 217q184 0 307 -57t244 -170l-49 -51q-104 100 -222 157t-282 58q-270 0 -452 -198t-183 -478v-4q0 -281 183 -479t463 -197q280 0 501 229l49 -47
q-241 -246 -553 -246z" />
    <glyph glyph-name="cacute" unicode="&#x107;" horiz-adv-x="1157" 
d="M658 -25q-234 0 -387 159t-152 380v4q0 221 153 380q154 159 379 159t408 -191l-47 -47q-166 176 -363 176t-329 -139t-132 -336v-4q0 -197 134 -338t334 -141q198 0 364 184l47 -41q-175 -205 -409 -205zM612 1219l179 247l79 -39l-206 -208h-52z" />
    <glyph glyph-name="Cdotaccent" unicode="&#x10a;" horiz-adv-x="1497" 
d="M864 -25q-312 0 -513 214q-202 214 -201 524v4q0 307 202 524q203 217 506 217q184 0 307 -57t244 -170l-49 -51q-104 100 -222 157t-282 58q-270 0 -452 -198t-183 -478v-4q0 -281 183 -479t463 -197q280 0 501 229l49 -47q-241 -246 -553 -246zM793 1604v125h110v-125
h-110z" />
    <glyph glyph-name="cdotaccent" unicode="&#x10b;" horiz-adv-x="1157" 
d="M592 1241v129h102v-129h-102zM658 -25q-234 0 -387 159t-152 380v4q0 221 153 380q154 159 379 159t408 -191l-47 -47q-166 176 -363 176t-329 -139t-132 -336v-4q0 -197 134 -338t334 -141q198 0 364 184l47 -41q-175 -205 -409 -205z" />
    <glyph glyph-name="Ccaron" unicode="&#x10c;" horiz-adv-x="1497" 
d="M1092 1788l-213 -207h-62l-213 207h70l174 -141l176 141h68zM864 -25q-312 0 -513 214q-202 214 -201 524v4q0 307 202 524q203 217 506 217q184 0 307 -57t244 -170l-49 -51q-104 100 -222 157t-282 58q-270 0 -452 -198t-183 -478v-4q0 -281 183 -479t463 -197
q280 0 501 229l49 -47q-241 -246 -553 -246z" />
    <glyph glyph-name="ccaron" unicode="&#x10d;" horiz-adv-x="1157" 
d="M658 -25q-234 0 -387 159t-152 380v4q0 221 153 380q154 159 379 159t408 -191l-47 -47q-166 176 -363 176t-329 -139t-132 -336v-4q0 -197 134 -338t334 -141q198 0 364 184l47 -41q-175 -205 -409 -205zM879 1456l-211 -237h-50l-210 237h59l176 -162l176 162h60z" />
    <glyph glyph-name="Dcaron" unicode="&#x10e;" horiz-adv-x="1591" 
d="M283 63h399q303 1 496 187t192 463v4q0 276 -192 465q-193 188 -498 188h-397v-1307zM213 0v1434h467q334 0 548 -205t214 -510v-4q0 -305 -214 -510t-548 -205h-467zM993 1774l-213 -207h-61l-213 207h69l175 -142l176 142h67z" />
    <glyph glyph-name="dcaron" unicode="&#x10f;" horiz-adv-x="1345" 
d="M193 516q1 -205 127 -341t318 -136t324 138t132 337v4q0 199 -133 337t-325 138t-318 -133t-125 -340v-4zM633 -25q-213 0 -362 153q-148 153 -148 386v4q0 231 148 385t362 154q165 0 283 -85t174 -220v743h65v-1495h-65v285q-57 -137 -176 -223t-281 -87zM1401 1495v-4
l-78 -301h-39l35 305h82z" />
    <glyph glyph-name="Dcroat" unicode="&#x110;" horiz-adv-x="1652" 
d="M344 63h399q303 1 496 187t193 463v4q0 277 -193 465t-498 188h-397v-616h500v-66h-500v-625zM274 0v688h-153v66h153v680h467q334 0 548 -205t214 -510v-4q0 -305 -214 -510t-548 -205h-467z" />
    <glyph glyph-name="dcroat" unicode="&#x111;" horiz-adv-x="1345" 
d="M193 516q1 -205 127 -341t318 -136t324 138t132 337v4q0 199 -133 337t-325 138t-318 -133t-125 -340v-4zM711 1266v59h379v170h65v-170h143v-59h-143v-1266h-65v285q-56 -137 -176 -223t-281 -87q-213 0 -362 153q-148 153 -148 386v4q0 231 148 385t362 154
q165 0 283 -85t174 -220v514h-379z" />
    <glyph glyph-name="Emacron" unicode="&#x112;" horiz-adv-x="1361" 
d="M213 0v1434h1010v-64h-940v-616h850v-64h-850v-627h950v-63h-1020zM426 1620v66h590v-66h-590z" />
    <glyph glyph-name="emacron" unicode="&#x113;" horiz-adv-x="1193" 
d="M330 1272v61h561v-61h-561zM612 995q-178 1 -295 -125t-127 -319h824q-8 182 -116 313t-286 131zM631 -25q-215 0 -364 150q-148 150 -148 391v4q0 229 140 383t357 154t343 -160t126 -383v-22h-895q8 -205 136 -330t307 -125q223 0 371 190l49 -39q-164 -213 -422 -213z
" />
    <glyph glyph-name="Ebreve" unicode="&#x114;" horiz-adv-x="1361" 
d="M213 0v1434h1010v-64h-940v-616h850v-64h-850v-627h950v-63h-1020zM720 1565q-114 0 -182 50t-81 134h57q37 -121 206 -121t208 121h57q-11 -84 -81 -134t-184 -50z" />
    <glyph glyph-name="ebreve" unicode="&#x115;" horiz-adv-x="1193" 
d="M610 1217q-112 0 -182 58t-80 155h51q17 -64 71 -108t141 -44t141 43q53 43 69 109h51q-10 -96 -79 -155q-70 -58 -183 -58zM612 995q-178 1 -295 -125t-127 -319h824q-8 182 -116 313t-286 131zM631 -25q-215 0 -364 150q-148 150 -148 391v4q0 229 140 383t357 154
t343 -160t126 -383v-22h-895q8 -205 136 -330t307 -125q223 0 371 190l49 -39q-164 -213 -422 -213z" />
    <glyph glyph-name="Edotaccent" unicode="&#x116;" horiz-adv-x="1361" 
d="M213 0v1434h1010v-64h-940v-616h850v-64h-850v-627h950v-63h-1020zM666 1589v125h110v-125h-110z" />
    <glyph glyph-name="edotaccent" unicode="&#x117;" horiz-adv-x="1193" 
d="M559 1241v129h103v-129h-103zM612 995q-178 1 -295 -125t-127 -319h824q-8 182 -116 313t-286 131zM631 -25q-215 0 -364 150q-148 150 -148 391v4q0 229 140 383t357 154t343 -160t126 -383v-22h-895q8 -205 136 -330t307 -125q223 0 371 190l49 -39
q-164 -213 -422 -213z" />
    <glyph glyph-name="Eogonek" unicode="&#x118;" horiz-adv-x="1361" 
d="M213 0v1434h1010v-64h-940v-616h850v-64h-850v-627h950v-63h-57q-117 -84 -117 -166q0 -102 170 -115v-49q-111 2 -175 45t-65 111q0 92 111 174h-887z" />
    <glyph glyph-name="eogonek" unicode="&#x119;" horiz-adv-x="1193" 
d="M762 -160q0 -106 170 -121v-49q-111 2 -174 45q-64 43 -64 121t94 164q-84 -25 -157 -25q-215 0 -364 150q-148 150 -148 391v4q0 229 140 383t357 154t343 -160t126 -383v-22h-895q8 -205 136 -330t307 -125q223 0 371 190l49 -39q-47 -62 -169 -160t-122 -188zM612 995
q-178 1 -295 -125t-127 -319h824q-8 182 -116 313t-286 131z" />
    <glyph glyph-name="Ecaron" unicode="&#x11a;" horiz-adv-x="1361" 
d="M213 0v1434h1010v-64h-940v-616h850v-64h-850v-627h950v-63h-1020zM965 1774l-213 -207h-62l-213 207h70l174 -142l176 142h68z" />
    <glyph glyph-name="ecaron" unicode="&#x11b;" horiz-adv-x="1193" 
d="M846 1456l-211 -237h-49l-211 237h59l176 -162l176 162h60zM612 995q-178 1 -295 -125t-127 -319h824q-8 182 -116 313t-286 131zM631 -25q-215 0 -364 150q-148 150 -148 391v4q0 229 140 383t357 154t343 -160t126 -383v-22h-895q8 -205 136 -330t307 -125
q223 0 371 190l49 -39q-164 -213 -422 -213z" />
    <glyph glyph-name="Gbreve" unicode="&#x11e;" horiz-adv-x="1599" 
d="M856 -25q-322 0 -514 212t-192 526v4q0 301 197 521q198 220 511 220q160 0 277 -46t231 -140l-45 -53q-104 86 -212 131t-255 45q-276 0 -454 -201t-179 -475v-4q0 -289 175 -484q174 -195 456 -195t502 185v441h-510v67h577v-534q-243 -220 -565 -220zM839 1579
q-114 0 -183 50t-81 134h58q37 -121 206 -121t208 121h57q-12 -84 -82 -134t-183 -50z" />
    <glyph glyph-name="gbreve" unicode="&#x11f;" horiz-adv-x="1335" 
d="M676 1217q-112 0 -182 58t-80 155h51q17 -64 71 -108t141 -44t140 43t70 109h51q-10 -96 -80 -154t-182 -59zM634 139q181 0 315 123t134 301v4q0 178 -134 302t-316 124t-310 -122t-128 -302v-4q0 -178 129 -302t310 -124zM1145 158q0 -224 -134 -358t-382 -134
t-459 160l39 53q197 -149 415 -149t336 112t117 324v186q-63 -124 -181 -200t-269 -76q-205 0 -355 141t-149 346v4q0 207 149 348q150 141 355 142q151 0 269 -76t181 -197v248h68v-874z" />
    <glyph glyph-name="Gdotaccent" unicode="&#x120;" horiz-adv-x="1599" 
d="M856 -25q-322 0 -514 212t-192 526v4q0 301 197 521q198 220 511 220q160 0 277 -46t231 -140l-45 -53q-104 86 -212 131t-255 45q-276 0 -454 -201t-179 -475v-4q0 -289 175 -484q174 -195 456 -195t502 185v441h-510v67h577v-534q-243 -220 -565 -220zM784 1604v125
h111v-125h-111z" />
    <glyph glyph-name="gdotaccent" unicode="&#x121;" horiz-adv-x="1335" 
d="M625 1241v129h102v-129h-102zM634 139q181 0 315 123t134 301v4q0 178 -134 302t-316 124t-310 -122t-128 -302v-4q0 -178 129 -302t310 -124zM1145 158q0 -224 -134 -358t-382 -134t-459 160l39 53q197 -149 415 -149t336 112t117 324v186q-63 -124 -181 -200t-269 -76
q-205 0 -355 141t-149 346v4q0 207 149 348q150 141 355 142q151 0 269 -76t181 -197v248h68v-874z" />
    <glyph glyph-name="Gcommaaccent" unicode="&#x122;" horiz-adv-x="1599" 
d="M856 -25q-322 0 -514 212t-192 526v4q0 301 197 521q198 220 511 220q160 0 277 -46t231 -140l-45 -53q-104 86 -212 131t-255 45q-276 0 -454 -201t-179 -475v-4q0 -289 175 -484q174 -195 456 -195t502 185v441h-510v67h577v-534q-243 -220 -565 -220zM834 -274h-48
v116h103v-75q0 -81 -28 -123t-91 -58l-14 35q78 27 78 105z" />
    <glyph glyph-name="gcommaaccent" unicode="&#x123;" horiz-adv-x="1335" 
d="M634 139q181 0 315 123t134 301v4q0 178 -134 302t-316 124t-310 -122t-128 -302v-4q0 -178 129 -302t310 -124zM1145 158q0 -224 -134 -358t-382 -134t-459 160l39 53q197 -149 415 -149t336 112t117 324v186q-63 -124 -181 -200t-269 -76q-205 0 -355 141t-149 346v4
q0 207 149 348q150 141 355 142q151 0 269 -76t181 -197v248h68v-874zM680 1356h47v-117h-102v76q0 82 27 123q28 41 91 57l15 -35q-78 -27 -78 -104z" />
    <glyph glyph-name="Hbar" unicode="&#x126;" horiz-adv-x="1595" 
d="M307 750h981v317h-981v-317zM84 1067v59h154v308h69v-308h981v308h70v-308h153v-59h-153v-1067h-70v686h-981v-686h-69v1067h-154z" />
    <glyph glyph-name="hbar" unicode="&#x127;" horiz-adv-x="1249" 
d="M635 1266h-379v-480q41 109 143 190t254 81q201 0 314 -124t112 -329v-604h-65v594q0 184 -96 293t-266 109t-284 -120q-112 -118 -112 -294v-582h-66v1266h-143v59h143v170h66v-170h379v-59z" />
    <glyph glyph-name="Imacron" unicode="&#x12a;" horiz-adv-x="524" 
d="M-33 1620v66h590v-66h-590zM227 0v1434h70v-1434h-70z" />
    <glyph glyph-name="imacron" unicode="&#x12b;" horiz-adv-x="473" 
d="M-45 1272v61h561v-61h-561zM203 0v1032h67v-1032h-67z" />
    <glyph glyph-name="Ibreve" unicode="&#x12c;" horiz-adv-x="524" 
d="M261 1565q-115 0 -183 50t-80 134h57q37 -121 206 -121t208 121h57q-12 -84 -82 -134t-183 -50zM227 0v1434h70v-1434h-70z" />
    <glyph glyph-name="ibreve" unicode="&#x12d;" horiz-adv-x="473" 
d="M236 1217q-113 0 -183 58t-80 155h52q16 -64 70 -108q53 -44 141 -44t141 43t69 109h52q-10 -96 -80 -154t-182 -59zM203 0v1032h67v-1032h-67z" />
    <glyph glyph-name="Iogonek" unicode="&#x12e;" horiz-adv-x="524" 
d="M104 -174q0 96 123 182v1426h70v-1434h-6q-117 -84 -117 -166q0 -102 170 -115v-49q-112 2 -176 45t-64 111z" />
    <glyph glyph-name="iogonek" unicode="&#x12f;" horiz-adv-x="473" 
d="M193 1317v125h88v-125h-88zM203 1032h67v-1032h-6q-117 -84 -117 -166q0 -102 170 -115v-49q-111 2 -175 45t-64 111q0 94 125 184v1022z" />
    <glyph glyph-name="Idotaccent" unicode="&#x130;" horiz-adv-x="524" 
d="M207 1589v125h110v-125h-110zM227 0v1434h70v-1434h-70z" />
    <glyph glyph-name="dotlessi" unicode="&#x131;" horiz-adv-x="473" 
d="M203 0v1032h67v-1032h-67z" />
    <glyph glyph-name="Kcommaaccent" unicode="&#x136;" horiz-adv-x="1452" 
d="M213 0v1434h70v-959l960 959h96l-624 -617l649 -817h-90l-608 770l-383 -379v-391h-70zM723 -258h-47v117h102v-76q0 -82 -28 -123t-91 -57l-14 35q78 27 78 104z" />
    <glyph glyph-name="kcommaaccent" unicode="&#x137;" horiz-adv-x="1126" 
d="M190 0v1495h66v-1130l686 667h88l-475 -457l500 -575h-82l-463 530l-254 -243v-287h-66zM578 -262h-48v117h103v-76q0 -82 -28 -123t-91 -57l-14 34q78 27 78 105z" />
    <glyph glyph-name="Lacute" unicode="&#x139;" horiz-adv-x="1224" 
d="M213 0v1434h70v-1371h864v-63h-934zM240 1567l198 219l76 -39l-215 -180h-59z" />
    <glyph glyph-name="lacute" unicode="&#x13a;" horiz-adv-x="473" 
d="M203 0v1495h67v-1495h-67zM203 1599l198 220l76 -39l-215 -181h-59z" />
    <glyph glyph-name="Lcommaaccent" unicode="&#x13b;" horiz-adv-x="1224" 
d="M213 0v1434h70v-1371h864v-63h-934zM664 -268h-48v116h103v-75q0 -81 -28 -123t-91 -58l-14 35q78 27 78 105z" />
    <glyph glyph-name="lcommaaccent" unicode="&#x13c;" horiz-adv-x="473" 
d="M203 0v1495h67v-1495h-67zM182 -268v116h103v-75q0 -81 -28 -123t-91 -58l-14 35q78 27 77 105h-47z" />
    <glyph glyph-name="Lcaron" unicode="&#x13d;" horiz-adv-x="1224" 
d="M213 0v1434h70v-1371h864v-63h-934zM637 1434v-4l-78 -302h-39l35 306h82z" />
    <glyph glyph-name="lcaron" unicode="&#x13e;" horiz-adv-x="473" 
d="M203 0v1495h67v-1495h-67zM518 1495v-4l-78 -301h-39l35 305h82z" />
    <glyph glyph-name="Ldot" unicode="&#x13f;" horiz-adv-x="1224" 
d="M213 0v1434h70v-1371h864v-63h-934zM856 664v135h100v-135h-100z" />
    <glyph glyph-name="ldot" unicode="&#x140;" horiz-adv-x="522" 
d="M203 0v1495h67v-1495h-67zM449 680v137h100v-137h-100z" />
    <glyph glyph-name="Lslash" unicode="&#x141;" horiz-adv-x="1282" 
d="M340 63h864v-63h-934v631l-178 -84v71l178 84v732h70v-699l414 199v-70l-414 -198v-603z" />
    <glyph glyph-name="lslash" unicode="&#x142;" horiz-adv-x="571" 
d="M319 0h-67v698l-160 -88v72l160 88v725h67v-686l160 88v-70l-160 -90v-737z" />
    <glyph glyph-name="Nacute" unicode="&#x143;" horiz-adv-x="1605" 
d="M213 0v1434h63l1049 -1315v1315h68v-1434h-56l-1056 1325v-1325h-68zM778 1556l199 220l76 -39l-215 -181h-60z" />
    <glyph glyph-name="nacute" unicode="&#x144;" horiz-adv-x="1249" 
d="M190 0v1032h66v-246q41 109 143 190t254 81q201 0 314 -124t112 -329v-604h-65v594q0 184 -96 293t-266 109t-284 -120q-112 -118 -112 -294v-582h-66zM602 1219l178 247l80 -39l-207 -208h-51z" />
    <glyph glyph-name="Ncommaaccent" unicode="&#x145;" horiz-adv-x="1605" 
d="M213 0v1434h63l1049 -1315v1315h68v-1434h-56l-1056 1325v-1325h-68zM805 -258h-47v117h102v-76q0 -82 -28 -123t-91 -57l-14 35q78 27 78 104z" />
    <glyph glyph-name="ncommaaccent" unicode="&#x146;" horiz-adv-x="1249" 
d="M190 0v1032h66v-246q41 109 143 190t254 81q201 0 314 -124t112 -329v-604h-65v594q0 184 -96 293t-266 109t-284 -120q-112 -118 -112 -294v-582h-66zM627 -262h-47v117h102v-76q0 -82 -28 -123t-91 -57l-14 34q78 27 78 105z" />
    <glyph glyph-name="Ncaron" unicode="&#x147;" horiz-adv-x="1605" 
d="M213 0v1434h63l1049 -1315v1315h68v-1434h-56l-1056 1325v-1325h-68zM1055 1763l-213 -207h-62l-213 207h70l174 -141l176 141h68z" />
    <glyph glyph-name="ncaron" unicode="&#x148;" horiz-adv-x="1249" 
d="M190 0v1032h66v-246q41 109 143 190t254 81q201 0 314 -124t112 -329v-604h-65v594q0 184 -96 293t-266 109t-284 -120q-112 -118 -112 -294v-582h-66zM868 1456l-211 -237h-49l-211 237h60l176 -162l176 162h59z" />
    <glyph glyph-name="Omacron" unicode="&#x14c;" horiz-adv-x="1730" 
d="M221 717q0 -279 183 -479t463 -199q280 0 461 198t181 476v4q0 279 -182 479t-463 199q-281 0 -462 -198t-181 -476v-4zM864 -25q-315 1 -515 219t-199 521v4q0 303 200 521q201 218 516 218t515 -218t200 -521v-4q0 -303 -201 -521t-516 -219zM569 1634v66h590v-66h-590
z" />
    <glyph glyph-name="omacron" unicode="&#x14d;" horiz-adv-x="1302" 
d="M188 514q0 -199 133 -338t333 -139t331 139t131 338v4q0 197 -134 337t-334 140t-330 -139t-130 -338v-4zM652 -25q-232 0 -384 158t-151 379v4q0 221 151 381q152 160 384 160t383 -158t151 -379v-4q0 -223 -151 -382t-383 -159zM371 1272v61h561v-61h-561z" />
    <glyph glyph-name="Obreve" unicode="&#x14e;" horiz-adv-x="1730" 
d="M221 717q0 -279 183 -479t463 -199q280 0 461 198t181 476v4q0 279 -182 479t-463 199q-281 0 -462 -198t-181 -476v-4zM864 -25q-315 1 -515 219t-199 521v4q0 303 200 521q201 218 516 218t515 -218t200 -521v-4q0 -303 -201 -521t-516 -219zM863 1579q-115 0 -183 50
t-80 134h57q37 -121 206 -121t208 121h57q-12 -84 -82 -134t-183 -50z" />
    <glyph glyph-name="obreve" unicode="&#x14f;" horiz-adv-x="1302" 
d="M651 1217q-113 0 -183 58t-79 155h51q16 -64 70 -108t142 -44q87 0 141 43q53 43 69 109h51q-10 -96 -79 -155q-70 -58 -183 -58zM188 514q0 -199 133 -338t333 -139t331 139t131 338v4q0 197 -134 337t-334 140t-330 -139t-130 -338v-4zM652 -25q-232 0 -384 158
t-151 379v4q0 221 151 381q152 160 384 160t383 -158t151 -379v-4q0 -223 -151 -382t-383 -159z" />
    <glyph glyph-name="Ohungarumlaut" unicode="&#x150;" horiz-adv-x="1730" 
d="M948 1581l197 219l78 -39l-217 -180h-58zM684 1581l199 219l75 -39l-215 -180h-59zM221 717q0 -279 183 -479t463 -199q280 0 461 198t181 476v4q0 279 -182 479t-463 199q-281 0 -462 -198t-181 -476v-4zM864 -25q-315 1 -515 219t-199 521v4q0 303 200 521
q201 218 516 218t515 -218t200 -521v-4q0 -303 -201 -521t-516 -219z" />
    <glyph glyph-name="ohungarumlaut" unicode="&#x151;" horiz-adv-x="1302" 
d="M188 514q0 -199 133 -338t333 -139t331 139t131 338v4q0 197 -134 337t-334 140t-330 -139t-130 -338v-4zM652 -25q-232 0 -384 158t-151 379v4q0 221 151 381q152 160 384 160t383 -158t151 -379v-4q0 -223 -151 -382t-383 -159zM487 1219l181 247l73 -36l-202 -211h-52
zM723 1219l180 247l74 -36l-203 -211h-51z" />
    <glyph glyph-name="OE" unicode="&#x152;" horiz-adv-x="2375" 
d="M913 63h344v1307h-348q-303 0 -495 -186t-193 -463v-4q1 -276 193 -465t499 -189zM911 0q-333 0 -547 205t-214 510v4q0 305 214 510t547 205h1325v-64h-909v-616h819v-64h-819v-627h920v-63h-1336z" />
    <glyph glyph-name="oe" unicode="&#x153;" horiz-adv-x="2187" 
d="M1606 995q-178 1 -296 -125t-128 -319h825q-8 182 -116 313q-107 131 -285 131zM188 514q0 -199 133 -338t333 -139t331 139t131 338v4q0 197 -134 337t-334 140t-330 -139t-130 -338v-4zM649 -25q-231 0 -382 158t-150 379v4q0 221 151 381q152 160 383 160
q179 1 313 -99t183 -262q45 164 169 262t290 99q221 0 347 -160t126 -383v-22h-897q8 -205 136 -330t306 -125q231 0 375 180l47 -41q-164 -201 -424 -201q-166 -1 -297 97t-178 268q-49 -164 -183 -264t-315 -101z" />
    <glyph glyph-name="Racute" unicode="&#x154;" horiz-adv-x="1482" 
d="M680 1567l199 219l75 -39l-215 -180h-59zM283 676h503q217 0 340 95t123 251v4q0 162 -119 253t-329 91h-518v-694zM213 0v1434h592q268 0 409 -138q104 -109 105 -266v-4q0 -176 -123 -282t-328 -123l478 -621h-89l-466 612h-508v-612h-70z" />
    <glyph glyph-name="racute" unicode="&#x155;" horiz-adv-x="739" 
d="M373 1219l178 247l80 -39l-207 -208h-51zM190 0v1032h66v-315q49 143 166 241t272 95v-68h-10q-182 1 -305 -149t-123 -347v-489h-66z" />
    <glyph glyph-name="Rcommaaccent" unicode="&#x156;" horiz-adv-x="1482" 
d="M709 -258h-47v117h102v-76q0 -82 -28 -123t-91 -57l-14 35q78 27 78 104zM283 676h503q217 0 340 95t123 251v4q0 162 -119 253t-329 91h-518v-694zM213 0v1434h592q268 0 409 -138q104 -109 105 -266v-4q0 -176 -123 -282t-328 -123l478 -621h-89l-466 612h-508v-612
h-70z" />
    <glyph glyph-name="rcommaaccent" unicode="&#x157;" horiz-adv-x="739" 
d="M180 -268v116h103v-75q0 -81 -28 -123t-91 -58l-14 35q78 27 77 105h-47zM190 0v1032h66v-315q49 143 166 241t272 95v-68h-10q-182 1 -305 -149t-123 -347v-489h-66z" />
    <glyph glyph-name="Rcaron" unicode="&#x158;" horiz-adv-x="1482" 
d="M958 1774l-213 -207h-61l-213 207h70l174 -142l176 142h67zM283 676h503q217 0 340 95t123 251v4q0 162 -119 253t-329 91h-518v-694zM213 0v1434h592q268 0 409 -138q104 -109 105 -266v-4q0 -176 -123 -282t-328 -123l478 -621h-89l-466 612h-508v-612h-70z" />
    <glyph glyph-name="rcaron" unicode="&#x159;" horiz-adv-x="739" 
d="M639 1456l-211 -237h-49l-211 237h59l176 -162l177 162h59zM190 0v1032h66v-315q49 143 166 241t272 95v-68h-10q-182 1 -305 -149t-123 -347v-489h-66z" />
    <glyph glyph-name="Sacute" unicode="&#x15a;" horiz-adv-x="1312" 
d="M641 1581l199 219l75 -39l-215 -180h-59zM692 -20q-324 0 -571 229l47 51q229 -217 528 -217q184 0 297 89t113 226v4q0 129 -94 203t-352 126q-258 53 -371 143t-113 245v4q0 156 132 264t333 107q274 0 487 -168l-43 -55q-201 160 -448 160q-172 0 -282 -89t-109 -212
v-5q0 -129 95 -203t354 -126q259 -54 370 -144t111 -243v-4q0 -169 -134 -277t-350 -108z" />
    <glyph glyph-name="sacute" unicode="&#x15b;" horiz-adv-x="1009" 
d="M514 -18q-112 0 -224 41t-196 110l39 51q180 -141 385 -141q125 0 210 60t85 155v4q0 143 -218 207q-35 11 -101 29t-107 31q-115 37 -180 94q-64 58 -66 153v4q1 117 99 194t274 77t342 -115l-37 -55q-154 109 -327 108q-125 0 -204 -57t-79 -146v-4q0 -74 63 -122
q63 -49 245 -98q181 -50 273 -111t91 -183v-4q-1 -126 -105 -204t-262 -78zM477 1219l178 247l80 -39l-207 -208h-51z" />
    <glyph glyph-name="Scedilla" unicode="&#x15e;" horiz-adv-x="1312" 
d="M696 43q184 0 297 89t113 226v4q0 129 -94 203t-352 126q-258 53 -371 143t-113 245v4q0 156 132 264t333 107q274 0 487 -168l-43 -55q-201 160 -448 160q-172 0 -282 -89t-109 -212v-5q0 -129 95 -203t354 -126q259 -54 370 -144t111 -243v-4q0 -164 -127 -272
t-338 -113l-144 -275l-71 35l157 242q-301 12 -532 227l47 51q229 -217 528 -217z" />
    <glyph glyph-name="scedilla" unicode="&#x15f;" horiz-adv-x="1009" 
d="M518 43q125 0 210 60t85 155v4q0 143 -218 207q-35 11 -101 29t-107 31q-115 37 -180 94q-64 58 -66 153v4q1 117 99 194t274 77t342 -115l-37 -55q-154 109 -327 108q-125 0 -204 -57t-79 -146v-4q0 -74 63 -122q63 -49 245 -98q181 -50 273 -111t91 -183v-4
q1 -123 -99 -201t-254 -81l-143 -277l-72 35l160 244q-221 16 -379 149l39 51q180 -141 385 -141z" />
    <glyph glyph-name="Scaron" unicode="&#x160;" horiz-adv-x="1312" 
d="M918 1788l-213 -207h-62l-213 207h70l174 -141l176 141h68zM692 -20q-324 0 -571 229l47 51q229 -217 528 -217q184 0 297 89t113 226v4q0 129 -94 203t-352 126q-258 53 -371 143t-113 245v4q0 156 132 264t333 107q274 0 487 -168l-43 -55q-201 160 -448 160
q-172 0 -282 -89t-109 -212v-5q0 -129 95 -203t354 -126q259 -54 370 -144t111 -243v-4q0 -169 -134 -277t-350 -108z" />
    <glyph glyph-name="scaron" unicode="&#x161;" horiz-adv-x="1009" 
d="M514 -18q-112 0 -224 41t-196 110l39 51q180 -141 385 -141q125 0 210 60t85 155v4q0 143 -218 207q-35 11 -101 29t-107 31q-115 37 -180 94q-64 58 -66 153v4q1 117 99 194t274 77t342 -115l-37 -55q-154 109 -327 108q-125 0 -204 -57t-79 -146v-4q0 -74 63 -122
q63 -49 245 -98q181 -50 273 -111t91 -183v-4q-1 -126 -105 -204t-262 -78zM745 1456l-210 -237h-50l-211 237h60l176 -162l176 162h59z" />
    <glyph glyph-name="Tcommaaccent" unicode="&#x162;" horiz-adv-x="1245" 
d="M588 0v1370h-510v64h1091v-64h-512v-1370h-69zM569 -268v116h103v-75q0 -81 -28 -123t-91 -58l-14 35q78 27 77 105h-47z" />
    <glyph glyph-name="tcommaaccent" unicode="&#x163;" horiz-adv-x="786" 
d="M502 -18q-108 0 -183 72q-74 72 -73 210v709h-158v59h158v346h65v-346h375v-59h-375v-703q1 -113 57 -170t145 -57t169 37v-64q-72 -34 -180 -34zM436 -274h-47v116h103v-75q0 -81 -28 -123t-91 -58l-15 35q78 27 78 105z" />
    <glyph glyph-name="Tcaron" unicode="&#x164;" horiz-adv-x="1245" 
d="M588 0v1370h-510v64h1091v-64h-512v-1370h-69zM866 1774l-213 -207h-61l-213 207h70l174 -142l176 142h67z" />
    <glyph glyph-name="tcaron" unicode="&#x165;" horiz-adv-x="786" 
d="M502 -18q-108 0 -183 72q-74 72 -73 210v709h-158v59h158v346h65v-346h375v-59h-375v-703q1 -113 57 -170t145 -57t169 37v-64q-72 -34 -180 -34zM678 1499v-4l-78 -301h-39l35 305h82z" />
    <glyph glyph-name="Umacron" unicode="&#x16a;" horiz-adv-x="1546" 
d="M774 -23q-266 0 -425 166t-159 475v816h70v-811q0 -281 139 -432t377 -151t374 148q136 147 136 430v816h70v-809q0 -313 -158 -481t-424 -167zM477 1610v65h590v-65h-590z" />
    <glyph glyph-name="umacron" unicode="&#x16b;" horiz-adv-x="1249" 
d="M332 1266v61h561v-61h-561zM596 -25q-202 0 -314 124t-112 329v604h66v-594q0 -184 96 -293t266 -109t283 120q113 119 112 295v581h66v-1032h-66v246q-41 -109 -143 -190t-254 -81z" />
    <glyph glyph-name="Ubreve" unicode="&#x16c;" horiz-adv-x="1546" 
d="M774 -23q-266 0 -425 166t-159 475v816h70v-811q0 -281 139 -432t377 -151t374 148q136 147 136 430v816h70v-809q0 -313 -158 -481t-424 -167zM771 1554q-115 0 -183 50t-80 135h57q37 -121 206 -121t208 121h57q-12 -85 -82 -135t-183 -50z" />
    <glyph glyph-name="ubreve" unicode="&#x16d;" horiz-adv-x="1249" 
d="M612 1210q-112 0 -182 58t-80 155h51q17 -63 71 -107t141 -44t141 43q53 43 69 108h51q-10 -97 -80 -155t-182 -58zM596 -25q-202 0 -314 124t-112 329v604h66v-594q0 -184 96 -293t266 -109t283 120q113 119 112 295v581h66v-1032h-66v246q-41 -109 -143 -190t-254 -81z
" />
    <glyph glyph-name="Uring" unicode="&#x16e;" horiz-adv-x="1546" 
d="M616 1718q0 -61 46 -100t110 -39q66 0 111 39t45 100q0 62 -45 102t-111 40t-111 -40t-45 -102zM561 1718q-1 80 61 133t150 53t150 -52q62 -54 61 -134q0 -80 -61 -132q-62 -52 -150 -52t-150 52t-61 132zM774 -23q-266 0 -425 166t-159 475v816h70v-811
q0 -281 139 -432t377 -151t374 148q136 147 136 430v816h70v-809q0 -313 -158 -481t-424 -167z" />
    <glyph glyph-name="uring" unicode="&#x16f;" horiz-adv-x="1249" 
d="M596 -25q-202 0 -314 124t-112 329v604h66v-594q0 -184 96 -293t266 -109t283 120q113 119 112 295v581h66v-1032h-66v246q-41 -109 -143 -190t-254 -81zM459 1384q0 -63 45 -107t108 -44t109 44q45 44 45 107q0 62 -45 108t-109 46t-108 -46q-45 -46 -45 -108zM408 1385
q0 81 60 139t144 57q84 0 144 -57q60 -56 61 -138q0 -82 -60 -139q-61 -57 -145 -57t-144 57t-60 138z" />
    <glyph glyph-name="Uhungarumlaut" unicode="&#x170;" horiz-adv-x="1546" 
d="M856 1556l197 220l77 -39l-217 -181h-57zM592 1556l199 220l75 -39l-215 -181h-59zM774 -23q-266 0 -425 166t-159 475v816h70v-811q0 -281 139 -432t377 -151t374 148q136 147 136 430v816h70v-809q0 -313 -158 -481t-424 -167z" />
    <glyph glyph-name="uhungarumlaut" unicode="&#x171;" horiz-adv-x="1249" 
d="M449 1212l180 248l73 -37l-202 -211h-51zM684 1212l180 248l74 -37l-203 -211h-51zM596 -25q-202 0 -314 124t-112 329v604h66v-594q0 -184 96 -293t266 -109t283 120q113 119 112 295v581h66v-1032h-66v246q-41 -109 -143 -190t-254 -81z" />
    <glyph glyph-name="Uogonek" unicode="&#x172;" horiz-adv-x="1546" 
d="M647 -168q0 74 84 148q-248 12 -394 177t-147 461v816h70v-811q0 -281 139 -432t377 -151t374 148q136 147 136 430v816h70v-809q0 -305 -148 -471t-403 -177q-88 -74 -88 -143q0 -102 170 -115v-49q-111 2 -175 45t-65 117z" />
    <glyph glyph-name="uogonek" unicode="&#x173;" horiz-adv-x="1249" 
d="M596 -25q-202 0 -314 124t-112 329v604h66v-594q0 -184 96 -293t266 -109t283 120q113 119 112 295v581h66v-1032h-10q-117 -84 -117 -166q0 -102 170 -115v-49q-112 2 -176 45t-64 111q0 98 131 188v232q-41 -109 -143 -190t-254 -81z" />
    <glyph glyph-name="Wcircumflex" unicode="&#x174;" horiz-adv-x="2152" 
d="M831 1567l213 207h62l213 -207h-70l-174 141l-176 -141h-68zM590 -10l-496 1444h76l451 -1334l430 1338h53l432 -1340l451 1336h71l-495 -1444h-58l-430 1317l-428 -1317h-57z" />
    <glyph glyph-name="wcircumflex" unicode="&#x175;" horiz-adv-x="1693" 
d="M467 -8l-369 1040h74l324 -946l325 952h53l326 -952l326 946h67l-366 -1040h-56l-323 942l-326 -942h-55zM610 1219l211 237h49l211 -237h-59l-176 161l-176 -161h-60z" />
    <glyph glyph-name="Ycircumflex" unicode="&#x176;" horiz-adv-x="1394" 
d="M453 1556l213 207h61l213 -207h-70l-174 142l-176 -142h-67zM664 0v588l-611 846h86l561 -785l557 785h84l-608 -846v-588h-69z" />
    <glyph glyph-name="ycircumflex" unicode="&#x177;" horiz-adv-x="1181" 
d="M358 1212l211 238h49l211 -238h-59l-176 162l-176 -162h-60zM302 -334q-104 0 -204 51l27 56q84 -45 173 -45t149 57t133 217l-496 1030h74l454 -960l416 960h70l-465 -1059q-79 -179 -153 -243t-178 -64z" />
    <glyph glyph-name="Ydieresis" unicode="&#x178;" horiz-adv-x="1394" 
d="M485 1579v125h107v-125h-107zM801 1579v125h106v-125h-106zM664 0v588l-611 846h86l561 -785l557 785h84l-608 -846v-588h-69z" />
    <glyph glyph-name="Zacute" unicode="&#x179;" horiz-adv-x="1396" 
d="M678 1567l199 219l75 -39l-215 -180h-59zM137 0v39l1016 1331h-981v64h1079v-39l-1015 -1332h1011v-63h-1110z" />
    <glyph glyph-name="zacute" unicode="&#x17a;" horiz-adv-x="1052" 
d="M92 0v37l770 936h-743v59h839v-37l-768 -936h773v-59h-871zM508 1219l178 247l80 -39l-207 -208h-51z" />
    <glyph glyph-name="Zdotaccent" unicode="&#x17b;" horiz-adv-x="1396" 
d="M137 0v39l1016 1331h-981v64h1079v-39l-1015 -1332h1011v-63h-1110zM657 1589v125h111v-125h-111z" />
    <glyph glyph-name="zdotaccent" unicode="&#x17c;" horiz-adv-x="1052" 
d="M487 1241v129h103v-129h-103zM92 0v37l770 936h-743v59h839v-37l-768 -936h773v-59h-871z" />
    <glyph glyph-name="Zcaron" unicode="&#x17d;" horiz-adv-x="1396" 
d="M137 0v39l1016 1331h-981v64h1079v-39l-1015 -1332h1011v-63h-1110zM956 1774l-213 -207h-61l-213 207h70l174 -142l176 142h67z" />
    <glyph glyph-name="zcaron" unicode="&#x17e;" horiz-adv-x="1052" 
d="M92 0v37l770 936h-743v59h839v-37l-768 -936h773v-59h-871zM774 1456l-211 -237h-49l-211 237h59l177 -162l176 162h59z" />
    <glyph glyph-name="florin" unicode="&#x192;" horiz-adv-x="985" 
d="M150 -8q-53 0 -89 8v59q35 -8 97 -8q136 0 178 211l100 545h-225v61h238l53 287q53 287 282 287q59 0 131 -19v-61q-72 18 -124 18q-89 0 -143 -54t-79 -185l-51 -273h320v-61h-332l-103 -555q-29 -144 -90 -202t-163 -58z" />
    <glyph glyph-name="Aringacute" unicode="&#x1fa;" horiz-adv-x="1589" 
d="M756 1806l186 191l74 -37l-199 -154h-61zM637 1556q0 -61 46 -100t112 -39q67 0 111 39t44 100q0 62 -45 102t-111 40t-111 -40q-46 -40 -46 -102zM381 481h825l-413 881zM584 1564q0 72 61 126t149 53q88 0 150 -53t62 -125t-41 -121t-107 -66l649 -1378h-75l-195 418
h-887l-196 -418h-72l649 1378q-67 16 -107 66q-40 48 -40 120z" />
    <glyph glyph-name="aringacute" unicode="&#x1fb;" horiz-adv-x="1165" 
d="M430 1411q0 -63 45 -107t109 -44t108 44q45 44 45 107t-45 109t-108 45q-63 0 -109 -45q-45 -46 -45 -109zM379 1412q0 81 60 138q61 58 145 58t144 -58t60 -138q0 -81 -60 -138t-144 -57t-145 57q-60 57 -60 138zM500 37q184 0 308 101t124 243v127q-176 57 -362 57
q-186 -1 -290 -71q-105 -70 -106 -195v-4q0 -121 94 -190q95 -68 232 -68zM498 -25q-162 0 -278 83t-116 233v4q0 158 127 245t325 87t374 -58v70q0 172 -96 260t-266 88t-343 -86l-24 57q187 90 383 90t309 -112q102 -106 102 -293v-643h-65v215q-46 -98 -158 -169
t-274 -71zM551 1681l182 211l76 -37l-203 -174h-55z" />
    <glyph glyph-name="AEacute" unicode="&#x1fc;" horiz-adv-x="2101" 
d="M985 481v889h-37l-557 -889h594zM1962 1434v-64h-907v-616h819v-64h-819v-627h917v-63h-987v418h-633l-260 -418h-76l899 1434h1047zM1229 1567l198 219l76 -39l-215 -180h-59z" />
    <glyph glyph-name="aeacute" unicode="&#x1fd;" horiz-adv-x="1986" 
d="M958 1219l179 247l80 -39l-207 -208h-52zM1404 995q-180 1 -296 -125q-117 -126 -127 -319h825q-10 182 -116 313t-286 131zM174 295q0 -123 93 -191t239 -67q146 -1 265 69q120 70 187 175q-45 104 -47 229q-166 55 -347 55q-181 -1 -285 -71t-105 -195v-4zM499 -25
q-163 0 -279 83t-116 233v4q0 158 126 245t320 87t363 -56l7 72q-2 170 -98 257t-260 87q-165 0 -337 -86l-24 57q186 90 358 91q348 0 406 -289q57 135 174 216t264 81q221 0 348 -161t127 -382q0 -14 -2 -22h-895q8 -203 136 -329t304 -126q231 0 375 180l47 -41
q-160 -201 -424 -201q-135 0 -250 66t-182 180q-73 -102 -199 -174t-289 -72z" />
    <glyph glyph-name="Oslashacute" unicode="&#x1fe;" horiz-adv-x="1730" 
d="M831 1581l199 219l76 -39l-215 -180h-60zM876 39q270 0 452 198q181 198 181 476v4q0 274 -170 467l-909 -975q176 -170 446 -170zM854 1395q-270 0 -452 -198q-181 -198 -181 -476v-4q0 -274 170 -467l909 975q-176 170 -446 170zM1581 715q0 -303 -201 -521t-499 -219
q-298 0 -496 183l-156 -168h-82l197 209q-195 213 -194 516v4q0 303 200 521q201 218 499 218t497 -182l155 168h82l-197 -209q195 -213 195 -516v-4z" />
    <glyph glyph-name="oslashacute" unicode="&#x1ff;" horiz-adv-x="1302" 
d="M625 1219l178 247l80 -39l-207 -208h-51zM664 37q190 0 321 139t131 338v4q0 184 -119 320l-655 -684q132 -117 322 -117zM188 518v-4q0 -186 117 -321l656 684q-129 119 -321 119t-322 -140q-130 -139 -130 -338zM664 -25q-220 0 -365 129l-111 -114h-77l147 153
q-141 154 -141 369v4q0 221 151 381q152 160 371 160t367 -131l124 133h78l-164 -170q141 -154 142 -369v-4q0 -223 -151 -382t-371 -159z" />
    <glyph glyph-name="Scommaaccent" unicode="&#x218;" horiz-adv-x="1312" 
d="M692 -20q-324 0 -571 229l47 51q229 -217 528 -217q184 0 297 89t113 226v4q0 129 -94 203t-352 126q-258 53 -371 143t-113 245v4q0 156 132 264t333 107q274 0 487 -168l-43 -55q-201 160 -448 160q-172 0 -282 -89t-109 -212v-5q0 -129 95 -203t354 -126
q259 -54 370 -144t111 -243v-4q0 -169 -134 -277t-350 -108zM668 -274h-47v116h102v-75q0 -81 -28 -123t-91 -58l-14 35q78 27 78 105z" />
    <glyph glyph-name="scommaaccent" unicode="&#x219;" horiz-adv-x="1009" 
d="M514 -18q-112 0 -224 41t-196 110l39 51q180 -141 385 -141q125 0 210 60t85 155v4q0 143 -218 207q-35 11 -101 29t-107 31q-115 37 -180 94q-64 58 -66 153v4q1 117 99 194t274 77t342 -115l-37 -55q-154 109 -327 108q-125 0 -204 -57t-79 -146v-4q0 -74 63 -122
q63 -49 245 -98q181 -50 273 -111t91 -183v-4q-1 -126 -105 -204t-262 -78zM504 -274h-47v116h102v-75q0 -81 -28 -123t-91 -58l-14 35q78 27 78 105z" />
    <glyph glyph-name="schwa" unicode="&#x259;" horiz-adv-x="1193" 
d="M582 37q178 -1 295 125t127 319h-824q8 -182 116 -313t286 -131zM563 1057q215 0 363 -150t149 -391v-4q0 -229 -140 -383t-357 -154t-344 160q-126 160 -125 383v23h895q-8 205 -136 329t-307 125q-223 0 -371 -190l-49 39q164 213 422 213z" />
    <glyph glyph-name="circumflex" unicode="&#x2c6;" 
d="M276 1219l211 237h50l211 -237h-60l-176 161l-176 -161h-60z" />
    <glyph glyph-name="caron" unicode="&#x2c7;" 
d="M748 1456l-211 -237h-50l-211 237h60l176 -162l176 162h60z" />
    <glyph glyph-name="breve" unicode="&#x2d8;" 
d="M512 1217q-112 0 -182 58t-80 155h51q17 -64 71 -108t141 -44t140 43t70 109h51q-10 -96 -80 -154t-182 -59z" />
    <glyph glyph-name="dotaccent" unicode="&#x2d9;" 
d="M461 1241v129h102v-129h-102z" />
    <glyph glyph-name="ring" unicode="&#x2da;" 
d="M358 1411q0 -63 45 -107t109 -44t109 44t45 107t-45 109t-109 45q-64 0 -109 -45q-45 -46 -45 -109zM512 1217q-84 0 -144 57t-61 138q1 81 61 138q60 58 144 58t144 -58t60 -138q0 -81 -60 -138t-144 -57z" />
    <glyph glyph-name="ogonek" unicode="&#x2db;" 
d="M662 -330q-111 2 -176 45t-64 111q0 102 151 203l39 -27q-121 -88 -120 -168q0 -102 170 -115v-49z" />
    <glyph glyph-name="tilde" unicode="&#x2dc;" 
d="M381 1405q43 0 137 -53q94 -54 129 -54q69 -1 109 119l45 -10q-41 -174 -158 -174q-43 0 -137 52t-130 52t-60 -25t-48 -93l-45 10q41 176 158 176z" />
    <glyph glyph-name="hungarumlaut" unicode="&#x2dd;" 
d="M260 1219l180 247l74 -36l-203 -211h-51zM496 1219l180 247l74 -36l-203 -211h-51z" />
    <glyph glyph-name="commaaccent" unicode="&#x326;" 
d="M508 -268h-47v116h102v-75q0 -81 -28 -123t-91 -58l-14 35q78 27 78 105z" />
    <glyph glyph-name="Wgrave" unicode="&#x1e80;" horiz-adv-x="2152" 
d="M590 -10l-496 1444h76l451 -1334l430 1338h53l432 -1340l451 1336h71l-495 -1444h-58l-430 1317l-428 -1317h-57zM909 1786l199 -219h-59l-215 180z" />
    <glyph glyph-name="wgrave" unicode="&#x1e81;" horiz-adv-x="1693" 
d="M825 1219l-207 208l80 39l179 -247h-52zM467 -8l-369 1040h74l324 -946l325 952h53l326 -952l326 946h67l-366 -1040h-56l-323 942l-326 -942h-55z" />
    <glyph glyph-name="Wacute" unicode="&#x1e82;" horiz-adv-x="2152" 
d="M590 -10l-496 1444h76l451 -1334l430 1338h53l432 -1340l451 1336h71l-495 -1444h-58l-430 1317l-428 -1317h-57zM1040 1567l199 219l76 -39l-215 -180h-60z" />
    <glyph glyph-name="wacute" unicode="&#x1e83;" horiz-adv-x="1693" 
d="M467 -8l-369 1040h74l324 -946l325 952h53l326 -952l326 946h67l-366 -1040h-56l-323 942l-326 -942h-55zM813 1219l178 247l80 -39l-207 -208h-51z" />
    <glyph glyph-name="Wdieresis" unicode="&#x1e84;" horiz-adv-x="2152" 
d="M590 -10l-496 1444h76l451 -1334l430 1338h53l432 -1340l451 1336h71l-495 -1444h-58l-430 1317l-428 -1317h-57zM864 1589v125h107v-125h-107zM1180 1589v125h106v-125h-106z" />
    <glyph glyph-name="wdieresis" unicode="&#x1e85;" horiz-adv-x="1693" 
d="M467 -8l-369 1040h74l324 -946l325 952h53l326 -952l326 946h67l-366 -1040h-56l-323 942l-326 -942h-55zM649 1241v127h101v-127h-101zM942 1241v127h100v-127h-100z" />
    <glyph glyph-name="Ygrave" unicode="&#x1ef2;" horiz-adv-x="1394" 
d="M530 1776l199 -220h-59l-215 181zM664 0v588l-611 846h86l561 -785l557 785h84l-608 -846v-588h-69z" />
    <glyph glyph-name="ygrave" unicode="&#x1ef3;" horiz-adv-x="1181" 
d="M575 1212l-206 209l80 39l178 -248h-52zM302 -334q-104 0 -204 51l27 56q84 -45 173 -45t149 57t133 217l-496 1030h74l454 -960l416 960h70l-465 -1059q-79 -179 -153 -243t-178 -64z" />
    <glyph glyph-name="enspace" unicode="&#x2002;" 
 />
    <glyph glyph-name="emspace" unicode="&#x2003;" horiz-adv-x="2048" 
 />
    <glyph glyph-name="threeperemspace" unicode="&#x2004;" horiz-adv-x="681" 
 />
    <glyph glyph-name="fourperemspace" unicode="&#x2005;" horiz-adv-x="512" 
 />
    <glyph glyph-name="thinspace" unicode="&#x2009;" horiz-adv-x="272" 
 />
    <glyph glyph-name="hairspace" unicode="&#x200a;" horiz-adv-x="153" 
 />
    <glyph glyph-name="endash" unicode="&#x2013;" horiz-adv-x="1093" 
d="M143 575v66h807v-66h-807z" />
    <glyph glyph-name="emdash" unicode="&#x2014;" horiz-adv-x="1835" 
d="M143 575v66h1549v-66h-1549z" />
    <glyph glyph-name="quoteleft" unicode="&#x2018;" horiz-adv-x="389" 
d="M141 1120v117q0 90 26 135t89 70l18 -37q-84 -41 -77 -152h43v-133h-99z" />
    <glyph glyph-name="quoteright" unicode="&#x2019;" horiz-adv-x="389" 
d="M150 1300v134h98v-117q0 -88 -26 -134t-87 -71l-18 37q84 41 78 151h-45z" />
    <glyph glyph-name="quotesinglbase" unicode="&#x201a;" horiz-adv-x="389" 
d="M145 0v133h99v-117q0 -90 -26 -134t-87 -68l-18 34q84 41 77 152h-45z" />
    <glyph glyph-name="quotedblleft" unicode="&#x201c;" horiz-adv-x="647" 
d="M141 1120v117q0 90 26 135t89 70l18 -37q-84 -41 -77 -152h43v-133h-99zM399 1120v117q0 90 26 135t89 70l18 -37q-84 -41 -77 -152h43v-133h-99z" />
    <glyph glyph-name="quotedblright" unicode="&#x201d;" horiz-adv-x="647" 
d="M150 1300v134h98v-117q0 -88 -26 -134t-87 -71l-18 37q84 41 78 151h-45zM408 1300v134h98v-117q0 -88 -26 -134t-87 -71l-18 37q84 41 78 151h-45z" />
    <glyph glyph-name="quotedblbase" unicode="&#x201e;" horiz-adv-x="647" 
d="M145 0v133h99v-117q0 -90 -26 -134t-87 -68l-18 34q84 41 77 152h-45zM403 0v133h99v-117q0 -90 -26 -134t-87 -68l-18 34q84 41 78 152h-46z" />
    <glyph glyph-name="dagger" unicode="&#x2020;" horiz-adv-x="813" 
d="M373 487l12 600l-256 -14v64l256 -13l-12 310h67l-12 -310l256 13v-64l-256 14l10 -600h-65z" />
    <glyph glyph-name="daggerdbl" unicode="&#x2021;" horiz-adv-x="829" 
d="M381 0l12 309l-256 -12v63l256 -14l-10 371l10 370l-256 -14v64l256 -13l-12 310h68l-13 -310l256 13v-64l-256 14l10 -370l-10 -371l256 14v-63l-256 12l13 -309h-68z" />
    <glyph glyph-name="bullet" unicode="&#x2022;" horiz-adv-x="913" 
d="M459 492q-96 0 -165 68t-69 161v4q0 92 70 160q70 67 163 67t163 -68t69 -159v-4q0 -94 -67 -162q-68 -67 -164 -67z" />
    <glyph glyph-name="ellipsis" unicode="&#x2026;" horiz-adv-x="1150" 
d="M145 0v131h97v-131h-97zM528 0v131h97v-131h-97zM909 0v131h97v-131h-97z" />
    <glyph glyph-name="perthousand" unicode="&#x2030;" horiz-adv-x="2414" 
d="M1226 43q108 0 176 89t68 216v4q0 127 -70 218q-72 92 -180 92t-177 -90t-68 -216v-4q0 -129 72 -219q71 -90 179 -90zM1739 352q0 -129 72 -219q71 -90 179 -90t176 89t68 216v4q0 127 -70 218q-72 92 -180 92t-177 -90t-68 -216v-4zM432 772q108 0 176 89t68 216v4
q0 127 -71 218t-179 91t-178 -90q-68 -90 -68 -215v-4q0 -129 72 -219t180 -90zM1223 -16q-139 0 -229 107q-89 108 -89 257v4q0 150 89 258q88 108 228 109q140 0 229 -109t89 -256v-4q0 -150 -89 -258t-228 -108zM1987 -16q-139 0 -229 107q-89 108 -89 257v4
q0 150 89 258q88 108 228 109q140 0 229 -109t89 -256v-4q0 -150 -89 -258t-228 -108zM264 0l1053 1434h69l-1052 -1434h-70zM428 715q-139 -1 -228 107t-89 257v4q0 151 89 259t228 108t228 -109t89 -256v-4q0 -150 -89 -258t-228 -108z" />
    <glyph glyph-name="guilsinglleft" unicode="&#x2039;" horiz-adv-x="614" 
d="M442 92l-346 424v12l346 424l45 -32l-313 -398l313 -397z" />
    <glyph glyph-name="guilsinglright" unicode="&#x203a;" horiz-adv-x="614" 
d="M170 92l-45 33l313 397l-313 398l45 32l348 -424v-12z" />
    <glyph glyph-name="fraction" unicode="&#x2044;" horiz-adv-x="921" 
d="M-61 0l501 727l475 707h68l-502 -727l-475 -707h-67z" />
    <glyph glyph-name="Euro" unicode="&#x20ac;" horiz-adv-x="1474" 
d="M872 -25q-216 1 -372 149t-203 396h-188v64h178q-6 63 -6 129v4q0 82 12 151h-184v66h194q53 232 204 378t351 146q307 0 490 -289l-56 -36q-84 131 -185 197t-263 67q-162 0 -292 -129t-181 -334h616v-66h-629q-12 -90 -12 -149v-4q0 -45 8 -131h633v-64h-620
q45 -217 181 -350t326 -133q252 0 424 278l54 -32q-193 -308 -480 -308z" />
    <glyph glyph-name="published" unicode="&#x2117;" horiz-adv-x="1699" 
d="M682 678h207q109 0 173 48t64 132v4q0 86 -61 132t-170 46h-213v-362zM623 346v750h276q131 0 209 -60t78 -170v-4q0 -115 -84 -177t-213 -62h-207v-277h-59zM850 18q290 0 492 205t202 492v4q0 289 -202 493t-492 203q-290 0 -493 -205q-202 -205 -201 -491v-4
q0 -289 202 -493t492 -204zM1591 715q0 -305 -217 -523t-525 -217q-308 0 -524 216t-216 524v4q0 305 217 522t525 217t524 -216t216 -523v-4z" />
    <glyph glyph-name="servicemark" unicode="&#x2120;" horiz-adv-x="1417" 
d="M713 803v631h47l258 -379l258 379h47v-631h-47v545l-256 -371h-6l-254 371v-545h-47zM328 793q-145 0 -258 100l30 35q98 -92 230 -92q74 0 120 36t46 92q0 54 -39 84t-150 52t-162 64q-51 40 -51 112t60 120t170 48q108 0 202 -76l-28 -35q-86 68 -176 68t-134 -36
q-45 -36 -45 -88t40 -82q40 -31 153 -55t161 -64t48 -112q-1 -72 -63 -122q-62 -49 -154 -49z" />
    <glyph glyph-name="trademark" unicode="&#x2122;" horiz-adv-x="1372" 
d="M260 803v583h-217v48h481v-48h-217v-583h-47zM666 803v631h47l258 -379l258 379h47v-631h-47v545l-256 -371h-6l-254 371v-545h-47z" />
    <glyph glyph-name="minus" unicode="&#x2212;" horiz-adv-x="1245" 
d="M1102 690h-959v62h959v-62z" />
    <glyph glyph-name="Q.alt" horiz-adv-x="1730" 
d="M221 717q0 -279 183 -479t463 -199q280 0 461 198t181 476v4q0 279 -182 479t-463 199q-281 0 -462 -198t-181 -476v-4zM150 719q0 303 200 521q201 218 516 218t515 -218t200 -521v-4q0 -178 -75 -336t-210 -262l338 -318v-6h-88l-309 285q-164 -102 -373 -103
q-315 1 -515 219t-199 521v4z" />
    <glyph glyph-name="a.alt" horiz-adv-x="1345" 
d="M193 516q1 -205 127 -341t318 -136t324 138t132 337v4q0 199 -133 337t-325 138t-318 -133t-125 -340v-4zM633 -25q-213 0 -362 153q-148 153 -148 386v4q0 231 148 385t362 154q165 0 283 -85t174 -220v280h65v-1032h-65v285q-57 -137 -176 -223t-281 -87z" />
    <glyph glyph-name="aacute.alt" horiz-adv-x="1345" 
d="M193 516q1 -205 127 -341t318 -136t324 138t132 337v4q0 199 -133 337t-325 138t-318 -133t-125 -340v-4zM633 -25q-213 0 -362 153q-148 153 -148 386v4q0 231 148 385t362 154q165 0 283 -85t174 -220v280h65v-1032h-65v285q-57 -137 -176 -223t-281 -87zM645 1219
l178 247l80 -39l-207 -208h-51z" />
    <glyph glyph-name="abreve.alt" horiz-adv-x="1345" 
d="M676 1217q-112 0 -182 58t-80 155h51q17 -64 71 -108t141 -44t140 43t70 109h51q-10 -96 -80 -154t-182 -59zM193 516q1 -205 127 -341t318 -136t324 138t132 337v4q0 199 -133 337t-325 138t-318 -133t-125 -340v-4zM633 -25q-213 0 -362 153q-148 153 -148 386v4
q0 231 148 385t362 154q165 0 283 -85t174 -220v280h65v-1032h-65v285q-57 -137 -176 -223t-281 -87z" />
    <glyph glyph-name="acircumflex.alt" horiz-adv-x="1345" 
d="M193 516q1 -205 127 -341t318 -136t324 138t132 337v4q0 199 -133 337t-325 138t-318 -133t-125 -340v-4zM633 -25q-213 0 -362 153q-148 153 -148 386v4q0 231 148 385t362 154q165 0 283 -85t174 -220v280h65v-1032h-65v285q-57 -137 -176 -223t-281 -87zM440 1219
l211 237h49l211 -237h-59l-176 161l-176 -161h-60z" />
    <glyph glyph-name="adieresis.alt" horiz-adv-x="1345" 
d="M193 516q1 -205 127 -341t318 -136t324 138t132 337v4q0 199 -133 337t-325 138t-318 -133t-125 -340v-4zM633 -25q-213 0 -362 153q-148 153 -148 386v4q0 231 148 385t362 154q165 0 283 -85t174 -220v280h65v-1032h-65v285q-57 -137 -176 -223t-281 -87zM479 1241v127
h101v-127h-101zM772 1241v127h100v-127h-100z" />
    <glyph glyph-name="agrave.alt" horiz-adv-x="1345" 
d="M657 1219l-206 208l79 39l179 -247h-52zM193 516q1 -205 127 -341t318 -136t324 138t132 337v4q0 199 -133 337t-325 138t-318 -133t-125 -340v-4zM633 -25q-213 0 -362 153q-148 153 -148 386v4q0 231 148 385t362 154q165 0 283 -85t174 -220v280h65v-1032h-65v285
q-57 -137 -176 -223t-281 -87z" />
    <glyph glyph-name="amacron.alt" horiz-adv-x="1345" 
d="M395 1272v61h561v-61h-561zM193 516q1 -205 127 -341t318 -136t324 138t132 337v4q0 199 -133 337t-325 138t-318 -133t-125 -340v-4zM633 -25q-213 0 -362 153q-148 153 -148 386v4q0 231 148 385t362 154q165 0 283 -85t174 -220v280h65v-1032h-65v285
q-57 -137 -176 -223t-281 -87z" />
    <glyph glyph-name="aogonek.alt" horiz-adv-x="1345" 
d="M193 516q1 -205 127 -341t318 -136t324 138t132 337v4q0 199 -133 337t-325 138t-318 -133t-125 -340v-4zM958 -174q0 98 132 188v271q-56 -137 -176 -223t-281 -87q-213 0 -362 153q-148 153 -148 386v4q0 231 148 385t362 154q165 0 283 -85t174 -220v280h65v-1032h-10
q-117 -84 -117 -166q0 -102 170 -115v-49q-112 2 -176 45t-64 111z" />
    <glyph glyph-name="aring.alt" horiz-adv-x="1345" 
d="M193 516q1 -205 127 -341t318 -136t324 138t132 337v4q0 199 -133 337t-325 138t-318 -133t-125 -340v-4zM633 -25q-213 0 -362 153q-148 153 -148 386v4q0 231 148 385t362 154q165 0 283 -85t174 -220v280h65v-1032h-65v285q-57 -137 -176 -223t-281 -87zM522 1411
q0 -63 45 -107t109 -44t108 44q45 44 45 107t-45 109t-108 45q-63 0 -109 -45q-45 -46 -45 -109zM471 1412q0 81 60 138q61 58 145 58t144 -58t60 -138q0 -81 -60 -138t-144 -57t-145 57q-60 57 -60 138z" />
    <glyph glyph-name="aring.alt2" horiz-adv-x="1165" 
d="M430 1200q0 -63 45 -107t109 -44t110 44q45 44 45 107q0 64 -45 108q-46 44 -110 44t-109 -44t-45 -108zM500 37q184 0 308 101t124 243v127q-176 57 -362 57q-186 -1 -290 -71q-105 -70 -106 -195v-4q0 -121 94 -190q95 -68 232 -68zM995 643v-643h-65v215
q-45 -98 -158 -169q-112 -71 -274 -71t-278 83t-116 233v4q0 158 127 245t325 87t374 -58v70q0 172 -96 260t-266 88t-343 -86l-24 57q143 68 268 84q-88 58 -88 149t60 148q61 57 145 57t144 -56q60 -58 61 -140q0 -109 -99 -164q303 -63 303 -393z" />
    <glyph glyph-name="aringacute.alt" horiz-adv-x="1345" 
d="M193 516q1 -205 127 -341t318 -136t324 138t132 337v4q0 199 -133 337t-325 138t-318 -133t-125 -340v-4zM633 -25q-213 0 -362 153q-148 153 -148 386v4q0 231 148 385t362 154q165 0 283 -85t174 -220v280h65v-1032h-65v285q-57 -137 -176 -223t-281 -87zM522 1411
q0 -63 45 -107t109 -44t108 44q45 44 45 107t-45 109t-108 45q-63 0 -109 -45q-45 -46 -45 -109zM471 1412q0 81 60 138q61 58 145 58t144 -58t60 -138q0 -81 -60 -138t-144 -57t-145 57q-60 57 -60 138zM643 1681l182 211l76 -37l-203 -174h-55z" />
    <glyph glyph-name="aringacute.alt2" horiz-adv-x="1165" 
d="M430 1200q0 -63 45 -107t109 -44t110 44q45 44 45 107q0 64 -45 108q-46 44 -110 44t-109 -44t-45 -108zM500 37q184 0 308 101t124 243v127q-176 57 -362 57q-186 -1 -290 -71q-105 -70 -106 -195v-4q0 -121 94 -190q95 -68 232 -68zM995 643v-643h-65v215
q-45 -98 -158 -169q-112 -71 -274 -71t-278 83t-116 233v4q0 158 127 245t325 87t374 -58v70q0 172 -96 260t-266 88t-343 -86l-24 57q143 68 268 84q-88 58 -88 149t60 148q61 57 145 57t144 -56q60 -58 61 -140q0 -109 -99 -164q303 -63 303 -393zM551 1479l182 211
l76 -39l-203 -172h-55z" />
    <glyph glyph-name="atilde.alt" horiz-adv-x="1345" 
d="M551 1405q43 0 137 -53q94 -54 129 -54q69 -1 109 119l45 -10q-41 -174 -158 -174q-43 0 -137 52t-130 52t-60 -25t-48 -93l-45 10q41 176 158 176zM193 516q1 -205 127 -341t318 -136t324 138t132 337v4q0 199 -133 337t-325 138t-318 -133t-125 -340v-4zM633 -25
q-213 0 -362 153q-148 153 -148 386v4q0 231 148 385t362 154q165 0 283 -85t174 -220v280h65v-1032h-65v285q-57 -137 -176 -223t-281 -87z" />
    <glyph glyph-name="three.alt" horiz-adv-x="1179" 
d="M612 -25q-345 0 -540 263l57 43q174 -242 467 -242q172 0 288 93t115 243v4q1 157 -119 235t-329 78h-154v64h156q180 0 295 87t115 234v4q0 133 -109 223t-274 91q-258 0 -424 -238l-54 33q178 268 480 268q196 0 324 -108t128 -267v-4q0 -141 -88 -231t-219 -117
q154 -31 249 -117t95 -233v-4q0 -172 -138 -287q-139 -115 -321 -115z" />
    <glyph glyph-name="registered.alt" horiz-adv-x="1699" 
d="M637 729h252q100 0 160 44q59 44 59 120v4q0 74 -57 117t-158 43h-256v-328zM575 362v750h322q145 0 215 -74q57 -53 57 -137v-4q0 -90 -58 -145t-161 -70l248 -320h-76l-241 312h-244v-312h-62zM850 18q290 0 492 205t202 492v4q0 289 -202 493t-492 203
q-290 0 -493 -205q-202 -205 -201 -491v-4q0 -289 202 -493t492 -204zM1591 715q0 -305 -217 -523t-525 -217q-308 0 -524 216t-216 524v4q0 305 217 522t525 217t524 -216t216 -523v-4z" />
    <glyph glyph-name="NUL" horiz-adv-x="0" 
 />
    <glyph glyph-name="hfjslug" horiz-adv-x="1421" 
d="M872 580q-33 0 -32 34q0 12 9 24t23 11q14 0 24 -11t9 -24q0 -34 -33 -34zM997 612h-22v35h22q20 0 21 -16q-1 -19 -21 -19zM659 823q-33 0 -33 45t33 78l41 -80q-16 -43 -41 -43zM645 1056q0 30 29 29q27 -1 27 -35t-31 -69q-25 45 -25 75zM494 662l28 -97h17l22 70h2
l23 -70h16l29 97h-17l-20 -72h-2l-23 72h-14l-23 -72h-2l-20 72h-16zM270 662v-95h17v66l51 -66h14v95h-16v-66l-51 66h-15zM395 662v-95h70v15h-53v26h47v15h-47v24h53v15h-70zM750 567h16v35l37 60h-19l-26 -46l-27 46h-18l37 -60v-35zM872 565q20 1 34 15q33 33 1 68
q-15 16 -35 16t-34 -16t-14 -34q0 -20 14 -34t34 -15zM1034 631q0 31 -35 31h-41v-95h17v31h24l21 -31h18l-24 35q20 8 20 29zM1071 662v-95h16v25l17 16l31 -41h20l-41 54l37 41h-21l-40 -50h-3v50h-16zM729 1047q0 63 -55 63q-25 0 -41 -18q-35 -39 12 -125
q-47 -37 -47 -83q0 -91 59 -89q39 0 60 49h2l24 -49l25 12l-35 65q13 29 27 80l-27 6q-8 -37 -16 -61h-2l-33 64q47 43 47 86zM985 799q63 0 64 73v281h-33v-281q0 -45 -33 -45q-16 0 -41 11v-31q20 -8 43 -8zM377 1153v-352h31v162h96v-162h31v352h-31v-162h-96v162h-31z
M819 1153v-352h31v160h78v28h-78v135h88v29h-119zM1319 -410h-426l-16 29h-334l-17 -29h-424v621q29 0 48 19q18 19 18 46q0 26 -20 46t-46 20v1135h205l62 161h684l59 -161h207v-1887z" />
    <glyph glyph-name="i.dot" horiz-adv-x="473" 
d="M203 0v1032h67v-1032h-67zM193 1317v125h88v-125h-88z" />
    <glyph glyph-name="caron.alt" 
d="M571 1495v-4l-77 -301h-39l34 305h82z" />
    <glyph glyph-name="acute.cap" 
d="M408 1567l198 219l76 -39l-215 -180h-59z" />
    <glyph glyph-name="hungarumlaut.cap" 
d="M506 1567l196 219l78 -39l-217 -180h-57zM242 1567l198 219l76 -39l-215 -180h-59z" />
    <glyph glyph-name="grave.cap" 
d="M418 1786l198 -219h-59l-215 180z" />
    <glyph glyph-name="circumflex.cap" 
d="M268 1567l213 207h62l213 -207h-70l-174 141l-176 -141h-68z" />
    <glyph glyph-name="caron.cap" 
d="M756 1774l-213 -207h-62l-213 207h70l174 -142l176 142h68z" />
    <glyph glyph-name="breve.cap" 
d="M511 1565q-115 0 -183 50t-80 134h57q37 -121 206 -121t208 121h57q-12 -84 -82 -134t-183 -50z" />
    <glyph glyph-name="tilde.cap" 
d="M379 1741q43 0 137 -47t129 -47q69 0 109 108l45 -12q-39 -162 -156 -162q-41 0 -135 47t-129 47t-61 -24q-25 -25 -48 -84l-47 12q43 162 156 162z" />
    <glyph glyph-name="macron.cap" 
d="M217 1620v66h590v-66h-590z" />
    <glyph glyph-name="dieresis.cap" 
d="M301 1589v125h107v-125h-107zM616 1589v125h107v-125h-107z" />
    <glyph glyph-name="dotaccent.cap" 
d="M457 1589v125h110v-125h-110z" />
    <glyph glyph-name="ring.cap" 
d="M356 1749q0 -61 45 -100t111 -39t111 39t45 100t-45 101t-111 40t-111 -40t-45 -101zM301 1749q0 80 61 133q62 53 150 53t150 -53t61 -133q0 -80 -61 -132q-62 -52 -150 -52t-150 52q-61 52 -61 132z" />
    </font>
</defs>
</svg>
